#TITLE:SHARK ATTACK;
#SUBTITLE:;
#ARTIST:ryhki;
#TITLETRANSLIT:;
#SUBTITLETRANSLIT:;
#ARTISTTRANSLIT:;
#GENRE:;
#CREDIT:;
#MUSIC:SHARK ATTACK.ogg;
#BANNER:SHARK ATTACK.png;
#BACKGROUND:SHARK ATTACK-bg.png;
#CDTITLE:;
#SAMPLESTART:57.076;
#SAMPLELENGTH:15.000;
#SELECTABLE:YES;
#OFFSET:0.000;
#BPMS:0.000=165.000;
#STOPS:;
#BGCHANGES:;
#FGCHANGES:;

//--------------- dance-single - forcednature ----------------
#NOTES:
     dance-single:
     forcednature:
     Beginner:
     3:
     0,0,0,0,0:
0000
0000
0000
0000
,
0000
0000
0000
0000
,
0000
0000
0000
0000
,
0000
0000
0000
0000
,
0000
0000
0000
0000
,
0000
0000
0000
0000
,
0000
0000
0000
0000
,
1001
0000
0000
0000
,
0110
0000
0000
0000
,
1000
0000
0001
0000
,
0010
0000
0000
0000
,
0110
0000
0000
0000
,
1000
0000
0000
0000
,
0001
0000
0100
0000
,
0001
0000
0010
0000
,
0100
0000
0000
0000
,
1000
0000
0001
0000
,
1000
0000
0000
0000
,
0010
0000
0100
0000
,
0001
0000
0000
0000
,
0001
0000
0010
0000
,
0110
0000
1001
0000
,
0100
0000
0010
0000
,
0000
1000
0000
1000
,
0000
1000
0000
1000
,
0000
0001
0000
0001
,
0000
0001
0000
0000
,
0000
0110
0000
0100
,
0000
0010
0000
0000
,
1000
0000
0001
0000
,
0000
0010
0000
0000
,
0000
0001
0000
0000
,
0000
1000
0000
0000
,
0000
0010
0000
0000
,
0000
0100
0000
0000
,
0000
0001
0000
0000
,
0000
1000
0000
0000
,
0000
0100
0000
0000
,
0000
0010
0000
0000
,
0000
1001
0000
0000
,
0000
1000
0000
0000
,
0000
0001
0000
0000
,
0000
0100
0000
0000
,
0000
0010
0000
0000
,
0000
1000
0000
0000
,
0000
0001
0000
0000
,
0000
0010
0000
0000
,
0000
0110
0000
0000
,
0000
1001
0000
0000
,
0000
1000
0000
0100
,
0000
0010
0000
0001
,
0000
0000
0000
0000
,
0000
0200
0000
0300
,
0000
0010
0000
0010
,
0000
0010
0000
0010
,
0000
1000
0000
0001
,
0000
0010
0000
0100
,
0000
0000
1001
0000
,
1000
0000
0001
0000
,
0100
0000
0000
0010
,
0000
1000
0000
0001
,
0000
1001
0000
0000
,
0000
0100
0000
0010
,
0000
0000
1001
0000
,
0000
1000
0000
0010
,
0000
0000
1001
0000
,
0000
0001
0000
0010
,
0000
0100
0000
1000
,
0000
0001
0000
0100
,
0000
0000
0110
0000
,
0000
1000
0000
0001
,
0000
0000
1001
0000
,
0000
0100
0000
0010
,
0000
1000
0000
1000
,
0000
0001
0000
0010
,
0000
0001
0000
0100
,
0000
0001
0000
0010
,
0000
1001
0000
0000
;

//--------------- dance-single - forcednature ----------------
#NOTES:
     dance-single:
     forcednature:
     Easy:
     8:
     0,0,0,0,0:
0000
0000
0000
0000
,
0000
0000
0000
0000
,
0000
0000
0000
0000
,
0000
0000
0000
0000
,
0000
0000
0000
0000
,
0000
0000
0000
0000
,
0000
0000
0000
0000
,
1000
0001
0100
0100
,
0001
1000
0100
0100
,
0010
0001
1000
0010
,
0100
0000
0100
0001
,
2001
0000
3100
0000
,
1000
0001
0100
0010
,
0110
0000
0002
0100
,
1000
0013
1001
0000
,
0110
0000
0001
0010
,
0100
1000
0100
0010
,
0001
0000
1000
0010
,
0100
0001
0100
0000
,
0010
0110
1000
0001
,
0010
0000
0100
0000
1000
0001
1000
0000
,
0010
0110
0100
0110
,
1001
1001
1001
0010
,
0000
2000
3200
0320
,
0032
0023
0230
2300
,
3000
0002
0203
0320
,
2030
0000
0000
0000
3020
0000
0000
0000
0130
0000
0000
0001
0000
0000
0101
0000
,
0000
1000
1100
0001
,
0101
1000
1100
0010
,
0101
0000
0000
0000
0101
0000
0000
0000
1000
0000
0000
0000
0001
0000
0000
0001
,
0000
0020
0000
0000
0000
0000
0000
0000
,
0030
2000
0200
3300
,
0000
0002
0020
0033
,
0000
2000
0020
3030
,
0000
0002
0200
0303
,
0000
2000
0002
3003
,
0000
0020
0200
0330
,
0000
0002
2000
3003
,
0000
0200
0020
0000
,
0330
1001
0001
0200
,
0000
0300
0010
1000
,
0001
0010
0100
0020
,
0000
0030
0001
1000
,
0010
0100
0001
2000
,
0000
3000
0100
1000
,
0001
0100
0010
0200
,
0000
0301
0001
0001
,
1000
1001
0001
0010
,
0001
1001
1000
0010
,
1000
0100
0001
0100
,
1000
0110
0010
0110
,
0100
0000
0000
0000
,
0000
2002
0000
3003
,
0000
0001
1001
1000
,
1001
0001
1001
1000
,
1001
0010
0110
0100
,
0110
0000
0000
0000
0000
0000
0000
0000
0001
0000
0000
0000
0010
0000
0000
0100
,
0000
1000
0000
0000
1001
0000
0001
0000
,
0100
0001
0000
0000
0010
0000
0100
0000
,
0100
1000
0000
0000
0010
0000
1001
0000
,
0001
0100
1000
0100
,
0110
2002
0000
3003
,
0010
0000
0100
0000
0010
0000
0000
0000
0000
0000
0000
0000
1000
0000
0000
0001
,
0000
1000
0000
0000
0110
0000
0001
0000
,
1000
0000
0000
0000
0010
0000
0000
0000
0100
0000
0000
0000
0001
0000
0000
0010
,
0000
0001
0000
0000
1001
0000
1000
0000
,
0100
0000
1000
0000
0001
0000
0100
0010
,
0100
0001
1001
0010
,
0100
2002
3003
0220
,
0330
0000
1001
1000
,
0001
0100
0101
0010
,
1010
0000
0000
0001
1000
0000
0100
0010
,
0100
1000
0001
0100
,
0001
0000
0000
0000
1000
0000
0000
0100
0000
0000
1000
0000
0000
0100
0000
0000
,
1000
0000
0000
0000
0001
0000
0000
0100
0000
0000
0001
0000
1000
0000
0000
0010
,
0000
0000
1000
0000
0001
0000
0000
0010
0000
0000
0001
0000
0100
0000
0000
0010
,
0000
0000
0100
0000
0001
0000
0000
1000
0000
0000
0001
0000
0010
0000
0000
0010
,
0000
0100
2002
0000
0000
0000
0000
0000
,
0000
0000
0000
0000
,
0000
3003
0000
0000
;

//--------------- dance-single - forcednature ----------------
#NOTES:
     dance-single:
     forcednature:
     Medium:
     12:
     0,0,0,0,0:
0000
0000
0000
0000
,
0000
0000
0000
0000
,
0000
0000
0000
0000
,
0000
0000
0000
0000
,
0000
0000
0000
0000
,
0000
0000
0000
0000
,
0000
0000
0000
0000
,
1100
0000
1000
0001
1000
0000
0010
0000
,
0101
0000
0001
1000
0001
0000
0010
0000
,
0100
1000
0001
0100
0010
1000
0001
0010
,
0000
0010
0010
0000
0010
0100
1000
0001
,
0200
0000
0010
0000
1300
0000
0100
0001
,
0000
0001
0000
0001
0010
0100
1000
0000
,
2002
0000
3003
0000
0001
0100
0010
0100
,
1000
0100
0010
0100
0002
0000
0003
0000
,
1010
1100
0100
0010
,
0001
0000
0100
0000
0100
0000
0000
0000
0010
0000
1000
0000
0001
0100
0000
0001
,
0010
0011
0001
1000
,
0010
0100
0000
0000
0001
0000
0100
0000
0000
0000
0010
0000
1000
0000
0001
0000
,
0010
0010
0110
0000
1001
0000
0001
0100
,
0010
0010
1000
0000
0001
0010
0100
1000
,
2010
3100
0012
0103
,
0001
1000
0001
0010
0001
0100
0010
0000
,
1001
2000
3200
0302
,
0203
0000
0320
0000
0032
0000
1003
1000
,
0010
0000
0100
1000
0100
1000
0100
0001
,
0100
0000
0001
0000
0010
0001
0000
0000
0010
0000
0000
0100
0000
0000
1001
0000
,
0000
0010
0010
0000
0110
0000
1001
0000
,
1100
0000
1010
0000
0101
0000
0001
0010
,
0100
0000
0000
0100
0000
0000
1000
0000
0001
0000
0100
0000
0010
0000
0000
0110
,
0000
2002
0000
0000
0000
0000
0000
0000
,
3003
0102
0020
0033
,
0000
2100
0020
3030
,
0000
0012
0200
0303
,
0000
2010
0200
3300
,
0000
1010
0202
0303
,
0000
0011
2200
3300
,
0000
0101
0022
0033
,
1100
2020
0000
0000
,
3030
0000
2001
0000
3002
0000
0023
0230
,
0000
0000
0000
0000
0300
0000
1000
0000
0100
0000
0010
0000
0001
0000
0000
1000
,
0000
0010
0200
0000
0302
0000
2003
3020
,
0000
0000
0000
0000
0030
0000
1000
0000
0100
0000
1000
0000
0001
0000
0000
0100
,
0000
0001
0020
0000
0230
0000
2300
3002
,
0000
0000
0000
0000
0003
0000
0100
0000
0010
0000
0100
0000
0001
0000
0000
1000
,
0000
0010
2000
0000
3002
0000
0023
0230
,
0000
0000
1300
0000
1000
0010
1000
0000
,
1000
1100
1001
1010
,
1000
0001
0101
0000
1001
0000
0001
0010
,
0100
0010
0001
1000
0010
0100
0001
1000
,
0100
0010
0001
0100
1000
0100
0001
0010
,
1000
0010
0002
0000
0000
0000
0000
0000
,
0003
0000
0100
0010
0100
0010
2000
0000
,
3000
0000
1000
0000
0001
0000
0000
0001
0100
0000
0000
0100
0010
0000
0000
0010
,
1000
0000
0000
1000
0001
0000
0000
0001
0010
0000
0010
0000
0010
0000
0000
0000
,
0100
1100
1010
1100
,
1010
0000
1000
0000
0000
0000
0001
0000
0010
0000
0001
0000
0100
0000
0000
0010
,
0000
1000
0000
0100
0110
0000
0010
1000
,
0010
0001
0000
1000
0001
0000
0100
1000
,
0100
0001
0000
0020
0100
0000
0031
0000
,
0010
0100
1000
0010
1000
0000
0001
0010
,
0001
2002
0000
3003
,
0001
0100
0001
0100
0020
0000
0000
0000
0030
0000
0000
0000
1100
0000
0000
0101
,
0000
0010
0100
0000
1001
0000
1000
0010
,
0100
0000
0000
0000
1000
0000
0100
0000
0001
0000
0010
0000
0001
0000
0000
1000
,
0000
0000
0100
0010
0100
0000
0000
0000
1001
0000
0000
0000
0001
0000
0010
0000
,
0100
0000
0001
0100
1000
0010
1000
1000
,
0001
0000
0000
0000
0010
0000
0100
1000
0100
0000
0000
0000
0010
0000
0001
0000
,
1000
0010
0210
0000
1000
0000
0302
0000
,
0023
0000
0030
0100
1100
0000
0001
0010
,
0001
0001
0100
0000
1100
0000
0101
0000
,
1100
0000
0000
0110
1001
0000
1000
0010
,
0001
0000
0000
0000
0010
0000
1000
0000
0001
0000
1000
0000
0100
0010
0100
0000
,
0010
0000
0001
0000
0100
0000
0000
0101
0000
0000
0010
0000
0000
1010
0000
0000
,
1000
0000
0001
0000
0010
0000
0000
0010
0001
0000
0100
0000
0010
0000
0000
0010
,
1000
0000
0100
0000
1000
0000
0000
1000
0010
0000
0001
0000
0010
0000
0000
0100
,
0001
0000
0010
0000
0001
0000
0000
0001
0010
0000
1000
0000
0010
0000
0000
0100
,
1000
0010
2002
0000
0000
0000
0000
0000
,
0000
0000
0000
0000
,
0000
3003
0000
0000
;

//--------------- dance-single - forcednature ----------------
#NOTES:
     dance-single:
     forcednature:
     Hard:
     15:
     0,0,0,0,0:
0000
0000
0000
0000
,
0000
0000
0000
0000
,
0000
0000
0000
0000
,
0000
0000
0000
0000
,
0000
0000
0000
0000
,
0000
0000
0000
0000
,
0000
0000
0000
0000
,
1000
0100
1000
0010
1000
0100
1000
0010
,
0100
0001
0010
0001
0100
0001
0010
0001
,
1000
0000
0001
0100
0001
0000
1000
0100
1000
0000
0001
0010
0001
0000
1000
0010
,
1000
0100
1000
0000
1000
0100
0010
0010
,
0001
1000
0001
0100
0110
0000
0010
1000
,
0001
0010
0001
0100
1000
0100
0001
0010
,
0210
0000
1300
0000
0010
0010
1000
1000
,
0001
0010
0100
1000
0100
0010
0001
1000
0020
0000
0000
0000
0130
0000
0000
0000
,
0001
1000
0000
0000
1100
0000
0000
0000
1010
0000
0000
0000
1100
0000
0000
0000
,
0001
0000
0010
0000
0011
0000
0000
0000
1000
0000
1000
0000
0010
1000
0000
0001
,
0010
0100
1000
0000
1001
0000
0000
0000
0101
0000
0000
0000
0011
0000
0000
0000
,
0001
0100
0001
0000
0010
0000
0100
0000
0000
0100
1000
0000
0010
0000
0001
0000
,
0010
0110
1001
0000
1100
0000
0101
0001
,
0010
0100
0010
0000
0001
0000
0100
0000
0010
0000
0001
0000
0010
0000
1000
0000
,
1200
0301
1020
0031
,
0011
0001
0101
0100
0110
0010
1010
0000
,
1001
0000
0000
0000
1000
0100
1000
0000
0001
0100
0001
0000
1000
0100
1000
0000
,
0001
0100
0001
0000
1000
0100
1000
0000
0001
0100
0001
0000
0010
0000
0010
0000
,
0110
0000
0000
0000
0100
1000
0001
0000
0100
0001
1000
0000
0100
1000
0001
0000
,
0100
0001
1000
0000
0100
0001
0100
0000
0010
0000
0001
0100
0000
0000
0120
0000
,
0000
0000
0031
0010
1000
0000
0000
0000
1100
0000
0000
0000
1001
0000
0000
0000
,
1010
0000
1001
0000
1100
0000
1000
0010
,
0100
0001
0000
0001
0010
0000
0100
0000
1000
0000
0010
0100
0010
0000
0000
0110
,
0000
2002
0000
0000
0000
0000
0000
0000
,
3003
2100
3020
0130
,
0010
0102
0023
0130
,
0010
0012
0203
0310
,
0100
2010
3200
0310
,
0100
1100
0011
1000
,
0001
0000
0101
0000
1010
0000
1000
0100
,
1000
0010
0110
0000
0100
0101
0000
0001
,
0010
0000
0010
0100
2000
0000
0000
0000
0001
0000
0000
0000
0020
0000
0000
0000
,
3030
0000
1002
0000
0203
0000
0301
0020
,
0000
0000
0100
0000
0030
0000
0001
0000
0010
0000
0100
0000
1000
0000
0000
0001
,
0000
0100
0020
0000
2030
0000
3002
0203
,
0000
0000
0010
0000
0300
0000
0100
0000
0001
0000
0010
0000
0100
0000
0000
1000
,
0000
0010
0200
0000
0302
0000
0013
0200
,
1000
0000
0000
0000
0310
0000
0100
0000
1000
0000
0010
0000
0100
0000
0000
0001
,
0000
1000
0020
0000
0230
0000
0302
2003
,
0000
0000
3100
0001
0100
1000
0010
0000
,
0010
0000
0101
0000
0001
0100
0010
1000
,
0001
1000
1100
0000
0100
0010
0001
0100
,
1000
0000
0100
0000
0001
0010
0001
0000
1000
0000
0100
0000
1000
0010
1000
0000
,
0001
0000
0100
0000
0010
1000
0010
0000
0100
0001
0100
0000
0001
0010
0001
0000
,
1000
0100
1000
0000
0020
0000
0000
0000
0001
0000
0000
0000
0100
0000
0000
0000
,
1030
0000
0000
0000
0001
0100
0001
0100
0010
1000
0001
1000
0200
0000
0000
0000
,
0310
0000
0010
0001
1000
0001
0100
0000
0001
1000
0100
0000
1000
0001
0010
0000
,
0001
1000
0010
0000
1000
0001
0100
0000
0001
1000
0100
1000
0001
1000
0100
0000
,
0010
0001
0010
0000
0001
0100
1000
0000
1000
0100
0001
0000
0001
0100
1000
0000
,
1000
0100
0001
0100
0000
0000
0010
1000
0001
0000
0010
0000
0100
0000
0000
1100
,
0000
0001
0010
0000
0000
0000
0001
0100
1000
0000
0100
0000
0001
0000
0010
0100
,
1000
0000
1100
0000
0100
0000
1000
0100
0001
0000
0100
0000
1000
0000
0010
0100
,
0001
0101
0000
2000
0100
0001
3010
1000
,
0100
0010
0001
0000
1000
0000
0010
0000
0001
0000
0010
0000
0100
0001
0100
0001
,
1000
0100
0010
0001
0200
0000
0000
0000
0302
0000
0000
0000
1003
0000
0100
0000
,
0001
0100
0010
0100
2000
0000
0000
0000
3001
0000
0000
0000
1010
0000
0000
0101
,
0000
0000
0001
0010
1000
0000
0000
0000
0110
0000
0000
0000
1000
0000
0010
0000
,
0100
0000
0001
0000
0010
0100
0010
0000
0001
0000
0100
0010
1000
0000
0000
0011
,
0000
0000
1000
0100
0001
0000
0000
0000
0110
0000
0000
0000
0001
0000
0010
0000
,
0001
0000
0100
0000
0010
1000
0001
0000
0010
0000
0100
0000
1000
0000
1000
0000
,
1000
0001
0010
0000
0001
0000
0001
0100
1000
0000
0100
0000
0001
0000
0011
0000
,
0110
1100
2000
0000
0010
0000
3001
0000
,
1000
0010
1000
0010
0100
0001
0010
0000
0011
0000
0000
0000
0001
0000
0100
0000
,
1000
0000
0100
0000
0010
0000
0001
0010
1000
0000
0000
0000
1000
0000
0001
0010
,
1000
0001
0000
0110
1001
0000
1100
0011
,
1001
0000
0000
0000
0001
0000
0100
0000
0010
0000
1000
0000
0001
0100
0010
0100
,
1000
0000
0100
0001
0010
0000
0000
0101
0000
0000
1100
0000
0000
0110
0000
0000
,
1001
0000
1000
0010
0100
0000
0001
0010
0100
0000
0010
0001
1000
0010
0000
0100
,
0001
0000
1000
0100
1000
0010
0000
1000
0100
0000
0010
0001
0100
0001
0000
0010
,
0001
0000
0100
0010
1000
0001
0010
0100
1000
0001
0100
0010
1000
0100
0010
0001
,
0100
0010
1000
0001
0020
0000
0000
0000
0000
0000
0000
0000
0000
0000
0000
0000
,
0000
0000
0000
0000
,
0000
0030
0000
0000
;

//--------------- dance-double - forcednature ----------------
#NOTES:
     dance-double:
     forcednature:
     Easy:
     8:
     0,0,0,0,0:
00000000
00000000
00000000
00000000
,
00000000
00000000
00000000
00000000
,
00000000
00000000
00000000
00000000
,
00000000
00000000
00000000
00000000
,
00000000
00000000
00000000
00000000
,
00000000
00000000
00000000
00000000
,
00000000
00000000
00000000
00000000
,
00001000
01000000
00010000
00010000
,
01000000
00001000
00010000
00010000
,
00000100
00001000
00000010
00001000
,
00000100
00000000
00000100
00000010
,
00002002
00000000
00003003
00000000
,
00000001
00000100
00000010
00010000
,
00011000
00000000
02000000
00100000
,
00010000
03001000
01010000
00000000
,
10100000
00000000
10000000
01000000
,
00100000
00001000
00010000
00000010
,
00001000
00000000
00000100
00000010
,
00000100
00001000
00000001
00000000
,
00000100
00000110
00000010
00001000
,
00000100
00000000
00010000
00000000
00001000
00010000
00001000
00000000
,
01000000
01100000
00100000
01100000
,
10010000
10010000
10010000
00100000
,
00000000
20000000
32000000
03200000
,
00320000
00032000
00003200
00000320
,
00000030
00000002
00000203
00000320
,
00002030
00000000
00000000
00000000
00023000
00000000
00000000
00000000
01030000
00000000
00000000
00100000
00000000
00000000
01100000
00000000
,
00000000
10000000
11000000
00100000
,
00110000
00001000
00011000
00000010
,
00000110
00000000
00000000
00000000
00000110
00000000
00000000
00000000
00001000
00000000
00000000
00000000
00000001
00000000
00000000
00000001
,
00000000
00000020
00000000
00000000
00000000
00000000
00000000
00000000
,
00000030
00000200
00020000
00030300
,
00000000
00200000
00002000
00303000
,
00000000
00000020
00020000
00030030
,
00000000
02000000
00002000
03003000
,
00000000
00200000
00020000
00330000
,
00000000
00000020
00002000
00003030
,
00000000
02000000
00020000
03030000
,
00000000
00000200
00002000
00000000
,
00003300
00011000
00001000
02000000
,
00000000
03000000
00100000
10000000
,
00010000
00100000
00001000
00020000
,
00000000
00030000
00000010
00001000
,
00000001
00000010
00000100
00000020
,
00000000
00000030
00000001
00001000
,
00000010
00010000
00001000
00200000
,
00000000
01300000
01000000
01000000
,
10000000
10010000
00010000
00100000
,
00001000
00011000
00010000
00000010
,
00001000
00000100
00000001
00000100
,
00001000
00000010
00000100
00001000
,
00010000
00000000
00000000
00000000
,
00000000
00200000
00000000
00300000
,
00000000
01000000
01010000
00010000
,
01010000
01000000
01010000
00010000
,
01010000
00001000
00011000
00010000
,
00011000
00000000
00000000
00000000
00000000
00000000
00000000
00000000
00000100
00000000
00000000
00000000
00001000
00000000
00000000
00000010
,
00000000
00000100
00000000
00000000
00001001
00000000
00000001
00000000
,
00000010
00000100
00000000
00000000
00010000
00000000
00001000
00000000
,
00001000
01000000
00000000
00000000
00100000
00000000
10010000
00000000
,
10000000
01000000
00010000
00001000
,
00000010
00000220
00000000
00000330
,
00000001
00000000
00000001
00000000
00000001
00000000
00000000
00000000
00000000
00000000
00000000
00000000
00000100
00000000
00000000
00001000
,
00000000
00010000
00000000
00000000
00011000
00000000
00001000
00000000
,
01000000
00000000
00000000
00000000
00010000
00000000
00000000
00000000
00100000
00000000
00000000
00000000
01000000
00000000
00000000
10000000
,
00000000
01000000
00000000
00000000
01100000
00000000
00100000
00000000
,
00001000
00000000
00010000
00000000
00000010
00000000
00000100
00000001
,
00000100
00001000
00011000
00100000
,
01000000
20020000
30030000
02200000
,
03300000
00000000
10010000
10000000
,
00010000
01000000
01001000
00001000
,
00011000
00000000
00000000
00000010
00001000
00000000
00000001
00000010
,
00000001
00000100
00000010
00010000
,
00001000
00000000
00000000
00000000
00100000
00000000
00000000
00010000
00000000
00000000
00100000
00000000
00000000
00010000
00000000
00000000
,
00100000
00000000
00000000
00000000
01000000
00000000
00000000
10000000
00000000
00000000
01000000
00000000
00010000
00000000
00000000
00001000
,
00000000
00000000
00010000
00000000
00000100
00000000
00000000
00001000
00000000
00000000
00000100
00000000
00000010
00000000
00000000
00000001
,
00000000
00000000
00000010
00000000
00000100
00000000
00000000
00010000
00000000
00000000
00001000
00000000
00100000
00000000
00000000
00100000
,
00000000
01000000
20020000
00000000
00000000
00000000
00000000
00000000
,
00000000
00000000
00000000
00000000
,
00000000
30030000
00000000
00000000
;

//--------------- dance-double - forcednature ----------------
#NOTES:
     dance-double:
     forcednature:
     Medium:
     12:
     0,0,0,0,0:
00000000
00000000
00000000
00000000
,
00000000
00000000
00000000
00000000
,
00000000
00000000
00000000
00000000
,
00000000
00000000
00000000
00000000
,
00000000
00000000
00000000
00000000
,
00000000
00000000
00000000
00000000
,
00000000
00000000
00000000
00000000
,
00011000
00000000
01000000
00010000
01000000
00000000
00100000
00000000
,
00011000
00000000
00000100
00001000
00000100
00000000
00000010
00000000
,
00001000
00010000
00001000
01000000
00010000
00100000
01000000
10000000
,
00000000
10000000
10000000
00000000
10000000
00100000
00010000
00010000
,
00002000
00000000
00100000
00000000
01003000
00000000
00001000
00010000
,
00000000
00000010
00000000
00010000
00001000
00000010
00000100
00000000
,
00000220
00000000
00000330
00000000
00000001
00000010
00000100
00001000
,
00010000
00100000
01000000
10000000
00200000
00000000
00300000
00000000
,
01010000
01001000
00001000
00010000
,
00000100
00000000
00001000
00000000
00001000
00000000
00000000
00000000
00000010
00000000
00000100
00000000
00000001
00000010
00000000
00000001
,
00001000
00000010
00010000
00100000
,
01000000
00010000
00000000
00000000
00010000
00000000
00100000
00000000
00000000
00000000
01000000
00000000
10000000
00000000
01000000
00000000
,
00010000
00010000
00011000
00000000
00010100
00000000
00000100
00001000
,
00000010
00000010
00000100
00000000
00001000
00000100
00000001
00001000
,
00001020
00010030
00201000
00310000
,
00100000
01000000
10000000
01000000
00010000
00001000
00100000
00000000
,
00011000
00000020
00000230
00002300
,
00023000
00000000
02030000
00000000
03200000
00000000
00310000
00010000
,
10000000
00000000
00100000
01000000
10000000
01000000
00010000
00100000
,
01000000
00000000
00100000
00000000
00001000
00010000
00000000
00000000
00000010
00000000
00000000
00000100
00000000
00000000
00000110
00000000
,
00000000
00000001
00001000
00000000
00001001
00000000
00010100
00000000
,
01001000
00000000
10010000
00000000
00101000
00000000
00001000
00010000
,
00000010
00000000
00000000
00000010
00000000
00000000
00001000
00000000
00000001
00000000
00000010
00000000
00001000
00000000
00000000
00010000
,
00000000
00022000
00000000
00000000
00000000
00000000
00000000
00000000
,
00033000
01002000
00200000
00303000
,
00000000
00020100
00000020
00030030
,
00000000
00102000
02000000
03003000
,
00000000
00020010
00000200
00030300
,
00000000
00011000
02200000
03300000
,
00000000
00011000
00000220
00000330
,
00000000
00010100
00202000
00303000
,
01001000
00020020
00000000
00000000
,
00030030
00000000
00002001
00000000
00003020
00000000
00020030
00032000
,
00000000
00000000
00000000
00000000
00003000
00000000
00100000
00000000
00010000
00000000
00100000
00000000
01000000
00000000
00000000
10000000
,
00000000
00010000
02000000
00000000
03002000
00000000
00023000
00030020
,
00000000
00000000
00000000
00000000
00000030
00000000
00001000
00000000
00000001
00000000
00000010
00000000
00000001
00000000
00000000
00000100
,
00000000
00001000
00020000
00000000
00230000
00000000
02300000
03020000
,
00000000
00000000
00000000
00000000
00030000
00000000
10000000
00000000
00100000
00000000
10000000
00000000
01000000
00000000
00000000
00010000
,
00000000
00001000
00200000
00000000
00302000
00000000
00023000
00030020
,
00000000
00000000
00001030
00000000
00001000
00000100
00001000
00000000
,
00001000
00001100
00010010
00101000
,
00010000
01000000
01010000
00000000
00101000
00000000
00001000
00010000
,
00100000
01000000
00001000
00010000
01000000
00100000
00010000
00001000
,
00000100
00000010
00001000
00010000
00000010
00000100
00001000
00010000
,
01000000
00100000
00020000
00000000
00000000
00000000
00000000
00000000
,
00030000
00000000
01000000
00100000
00010000
00001000
00000020
00000000
,
00000130
00000000
00001000
00000000
00000001
00000000
00000000
00000001
00000100
00000000
00000000
00000100
00000010
00000000
00000000
00000010
,
00010000
00000000
00000000
00010000
00001000
00000000
00000000
00001000
00100000
00000000
00100000
00000000
00100000
00000000
00000000
00000000
,
01000000
11000000
01010000
00011000
,
00001100
00000000
00000100
00000000
00000000
00000000
00000001
00000000
00000010
00000000
00000001
00000000
00000100
00000000
00000000
00001000
,
00000000
00010000
00000000
00100000
01100000
00000000
01000000
10000000
,
01000000
00010000
00000000
00100000
01000000
00000000
00010000
00001000
,
00010000
00000010
00000000
00000200
00001000
00000000
00000301
00000000
,
00000100
00000010
00000100
00000001
00000010
00000000
00000100
00010000
,
00001000
00022000
00000000
00033000
,
01000000
00010000
01000000
00010000
20000000
00000000
00000000
00000000
30000000
00000000
00000000
00000000
11000000
00000000
00000000
01010000
,
00000000
00010000
00001000
00000000
00011000
00000000
00010000
00000100
,
00001000
00000000
00000000
00000000
00000010
00000000
00000100
00000000
00001000
00000000
00000100
00000000
00000001
00000000
00000000
00000010
,
00000000
00000000
00000100
00001000
00000100
00000000
00000000
00000000
00011000
00000000
00000000
00000000
00001000
00000000
01000000
00000000
,
00010000
00000000
00100000
01000000
10000000
00100000
00010000
00010000
,
00001000
00000000
00000000
00000000
00100000
00000000
00010000
01000000
00010000
00000000
00000000
00000000
00100000
00000000
00001000
00000000
,
00010000
00000010
00001020
00000000
00000001
00000000
00000230
00000000
,
00000302
00000000
00000003
00000010
00000110
00000000
00000100
00000001
,
00000100
00000100
00001000
00000000
00010010
00000000
00011000
00000000
,
01001000
00000000
00000000
00110000
11000000
00000000
10000000
00100000
,
00010000
00000000
00000000
00000000
00001000
00000000
00100000
00000000
00010000
00000000
00100000
00000000
01000000
10000000
01000000
00000000
,
00010000
00000000
00001000
00000000
00100000
00000000
00000000
00011000
00000000
00000000
00000010
00000000
00000000
00011000
00000000
00000000
,
01000000
00000000
00001000
00000000
00010000
00000000
00000000
00010000
00000100
00000000
00001000
00000000
00000010
00000000
00000000
00000010
,
00010000
00000000
00001000
00000000
00100000
00000000
00000000
00100000
00010000
00000000
01000000
00000000
00001000
00000000
00000000
00001000
,
00010000
00000000
00100000
00000000
10000000
00000000
00000000
10000000
01000000
00000000
00010000
00000000
00001000
00000000
00000000
00000010
,
00000001
00000100
00002002
00000000
00000000
00000000
00000000
00000000
,
00000000
00000000
00000000
00000000
,
00000000
00003003
00000000
00000000
;

//--------------- dance-double - forcednature ----------------
#NOTES:
     dance-double:
     forcednature:
     Hard:
     15:
     0,0,0,0,0:
00000000
00000000
00000000
00000000
,
00000000
00000000
00000000
00000000
,
00000000
00000000
00000000
00000000
,
00000000
00000000
00000000
00000000
,
00000000
00000000
00000000
00000000
,
00000000
00000000
00000000
00000000
,
00000000
00000000
00000000
00000000
,
00001000
01000000
00010000
00100000
01000000
00010000
00001000
00000000
,
00010000
00000100
00001000
00000010
00000100
00001000
00010000
00000000
,
00100000
00000000
01000000
00010000
01000000
00000000
00001000
00010000
00001000
00000000
00100000
00010000
00100000
00000000
01000000
00000000
,
00010000
00001000
00010000
00000000
00000010
00001000
00000001
00000001
,
00000010
00001000
00010000
00100000
01100000
00000000
01000000
00010000
,
00100000
01000000
00010000
00001000
00000100
00000010
00000100
00000001
,
00000021
00000000
00000130
00000000
00000001
00000100
00001000
00010000
,
00001000
01000000
00010000
01000000
00100000
10000000
00010000
10000000
02000000
00000000
00000000
00000000
03010000
00000000
00000000
00000000
,
00001000
00010000
00000000
00000000
00010100
00000000
00000000
00000000
00011000
00000000
00000000
00000000
00010010
00000000
00000000
00000000
,
00010000
00000000
00001000
00000000
00101000
00000000
00000000
00000000
00100000
00000000
00100000
00000000
01000000
10000000
00000000
10000000
,
00100000
01000000
00010000
00000000
00110000
00000000
00000000
00000000
00011000
00000000
00000000
00000000
00001100
00000000
00000000
00000000
,
00000100
00000010
00000100
00000000
00001000
00000000
00000001
00000000
00000000
00000001
00000100
00000000
00000010
00000000
00001000
00000000
,
00010000
10000000
10010000
00000000
11000000
00000000
01010000
00010000
,
00001000
00100000
00001000
00000000
00010000
00000000
00100000
00000000
10000000
00000000
01000000
00000000
00010000
00000000
00001000
00000000
,
01002000
00003010
00020100
00130000
,
00011000
00001000
01001000
01000000
01010000
00010000
00110000
00000000
,
11000000
00000000
00000000
00000000
10000000
01000000
10000000
00000000
01000000
00100000
01000000
00000000
00100000
00001000
00100000
00000000
,
00001000
00010000
00001000
00000000
00010000
00000010
00010000
00000000
00000010
00001000
00000010
00000000
00000100
00000000
00000100
00000000
,
00000101
00000000
00000000
00000000
00000001
00000010
00000100
00000000
00001000
00000100
00000010
00000000
00000100
00010000
00001000
00000000
,
00100000
00001000
00010000
00000000
00001000
00001000
01000000
00000000
00010000
00000000
00100000
01000000
00000000
00000000
12000000
00000000
,
00000000
00000000
13000000
01000000
00010000
00000000
00000000
00000000
00011000
00000000
00000000
00000000
01001000
00000000
00000000
00000000
,
00010010
00000000
00101000
00000000
00010100
00000000
00000100
00010000
,
00001000
00000100
00000000
00000100
00000001
00000000
00000010
00000000
00000100
00000000
00010000
00001000
00010000
00000000
00000000
01001000
,
00000000
00220000
00000000
00000000
00000000
00000000
00000000
00000000
,
00330000
20000000
30020000
00030000
,
00000000
00002000
00003002
00000003
,
00000000
00000002
00002003
00003000
,
00000000
00020000
20030000
30000000
,
00000000
10020000
00032000
00003000
,
00000000
00002001
00023000
00030000
,
00000000
10020000
00032000
00003000
,
00000010
00000000
00000010
00000100
00000002
00000000
00000000
00000000
00002000
00000000
00000000
00000000
00000000
00000000
00000000
00000000
,
00003003
00000000
00020100
00000000
00032000
00000000
00103000
00020000
,
00000000
00000000
01000000
00000000
00030000
00000000
00010000
00000000
00100000
00000000
00001000
00000000
00010000
00000000
00000000
01000000
,
00000000
10000000
00200000
00000000
02300000
00000000
03002000
00023000
,
00000000
00000000
00000100
00000000
00030000
00000000
00000010
00000000
00001000
00000000
00000001
00000000
00000010
00000000
00000000
00000100
,
00000000
00010000
00000020
00000000
00002030
00000000
00013000
02000000
,
00100000
00000000
00000000
00000000
13000000
00000000
01000000
00000000
00010000
00000000
00100000
00000000
01000000
00000000
00000000
00010000
,
00000000
00001000
00200000
00000000
00320000
00000000
00032000
00003200
,
00000000
00000000
00000310
00000001
00000100
00000001
00000010
00000000
,
00000010
00000000
00000110
00000000
00000100
00010000
00001000
01000000
,
00010000
00100000
01100000
00000000
01000000
10000000
01000000
00010000
,
00001000
00000000
00100000
00000000
00010000
01000000
00001000
00000000
00010000
00000000
00000010
00000000
00001000
00000100
00010000
00000000
,
00001000
00000000
00100000
00000000
00010000
01000000
00001000
00000000
00010000
00000100
00001000
00000000
00000010
00010000
00001000
00000000
,
00100000
00001000
00010000
00000000
00200000
00000000
00000000
00000000
10000000
00000000
00000000
00000000
01000000
00000000
00000000
00000000
,
00310000
00000000
00000000
00000000
00100000
01000000
00010000
01000000
00001000
00010000
00000100
00001000
00000200
00000000
00000000
00000000
,
00000310
00000000
00000010
00000001
00000100
00000001
00000010
00000000
00000100
00010000
00001000
00000000
01000000
00010000
00100000
00000000
,
01000000
10000000
00100000
00000000
01000000
00001000
00010000
00000000
00000100
00001000
00000010
00001000
00000100
00001000
00000010
00000000
,
00000100
00000001
00000010
00000000
00000001
00000100
00001000
00000000
00000100
00001000
00010000
00000000
00001000
00010000
01000000
00000000
,
00010000
01000000
10000000
01000000
00000000
00000000
00100000
00000000
00001000
00000000
00000010
00000000
00000001
00000000
00000000
00000101
,
00000000
00000100
00001000
00000000
00000000
00000000
00010000
00100000
10000000
00000000
01000000
00000000
00010000
00000000
00001000
00100000
,
00010000
00000000
01000000
00000000
00100000
00000000
10000000
01000000
00010000
00000000
00001000
00000000
00000010
00000000
00000100
00001000
,
00000010
00000110
00000000
00000100
00001000
01000000
00010000
00100000
,
01000000
10000000
00010000
00000000
00100000
00000000
01000000
00000000
00010000
00000000
00001000
00000000
00100000
00010000
00100000
00001000
,
00010000
00000010
00001000
00000010
00000200
00000000
00000000
00000000
00000302
00000000
00000000
00000000
00000013
00000000
00001000
00000000
,
00010000
00000100
00001000
00000100
00000020
00000000
00000000
00000000
00000030
00000000
00000000
00000000
00000110
00000000
00000000
00011000
,
00000000
00000000
00010000
00100000
10000000
00000000
00000000
00000000
01100000
00000000
00000000
00000000
10000000
00000000
01000000
00000000
,
00010000
00000000
00001000
00000000
00100000
00000000
00100000
00000000
00010000
00000000
00001000
00000100
00010000
00000000
00000000
00001010
,
00000000
00000000
00000001
00000010
00001000
00000000
00000000
00000000
00000110
00000000
00000000
00000000
00000001
00000000
00000100
00000000
,
00001000
00000000
00010000
00000000
00100000
01000000
00010000
00000000
00100000
00000000
01000000
00000000
10000000
00000000
10000000
00000000
,
10000000
00010000
00100000
00000000
00010000
00000000
00010000
01000000
00100000
00000000
00010000
00000000
00001000
00000000
00000100
00000000
,
00010000
01000000
00200000
00000000
00010000
00000000
10300000
00000000
,
10000000
00100000
10000000
00010000
01000000
00001000
00010000
00000000
00011000
00000000
00000000
00000000
00010000
00000000
00000100
00000000
,
00000001
00000000
00000100
00000000
00000010
00000000
00000100
00010000
00001000
00000000
00000000
00000000
00000010
00000000
00000100
00010000
,
00001000
00000100
00000000
00010000
01010000
00000000
00100000
01100000
,
10010000
00000000
00000000
00000000
10000000
00000000
01000000
00000000
00100000
00000000
00001000
00000000
00010000
00000010
00001000
00000010
,
00000100
00000000
00001000
00000100
00000001
00000000
00000000
00000011
00000000
00000000
00001010
00000000
00000000
00011000
00000000
00000000
,
01001000
00000000
01000000
00010000
00100000
00000000
01000000
10000000
00010000
00000000
01000000
00001000
00010000
00001000
00000000
00100000
,
00010000
00000000
01000000
00001000
00010000
00000100
00000000
00001000
00000100
00000000
00000010
00000001
00001000
00000010
00000000
00000100
,
00000010
00000000
00001000
00000001
00000100
00000001
00001000
00000100
00010000
00001000
01000000
00010000
00100000
01000000
10000000
00100000
,
01000000
00010000
00100000
00001000
00020000
00000000
00000000
00000000
00000000
00000000
00000000
00000000
00000000
00000000
00000000
00000000
,
00000000
00000000
00000000
00000000
,
00000000
00030000
00000000
00000000
;
