#VERSION:0.83;
#TITLE:Run The Track;
#SUBTITLE:;
#ARTIST:Blue Stahli & Nyzzy Nyce;
#TITLETRANSLIT:;
#SUBTITLETRANSLIT:;
#ARTISTTRANSLIT:;
#GENRE:;
#ORIGIN:;
#CREDIT:;
#BANNER:Run The Track-banner.png;
#BACKGROUND:Run The Track-background.png;
#PREVIEWVID:;
#JACKET:Run The Track-jacket.png;
#CDIMAGE:;
#DISCIMAGE:;
#LYRICSPATH:;
#CDTITLE:CDtitle.png;
#MUSIC:Run The Track.ogg;
#OFFSET:-0.304000;
#SAMPLESTART:46.891998;
#SAMPLELENGTH:11.294000;
#SELECTABLE:YES;
#BPMS:0.000=170.000;
#STOPS:;
#DELAYS:;
#WARPS:;
#TIMESIGNATURES:0.000=4=4;
#TICKCOUNTS:0.000=4;
#COMBOS:0.000=1;
#SPEEDS:0.000=1.000=0.000=0;
#SCROLLS:0.000=1.000;
#FAKES:;
#LABELS:0.000=Song Start;
#BGCHANGES:;
#KEYSOUNDS:;
#ATTACKS:
;

//---------------dance-single - Pandemonium X----------------
#NOTEDATA:;
#CHARTNAME:;
#STEPSTYPE:dance-single;
#DESCRIPTION:Pandemonium X;
#CHARTSTYLE:;
#DIFFICULTY:Beginner;
#METER:5;
#RADARVALUES:0.179217,0.289412,0.150860,0.007940,0.000000,158.000000,139.000000,19.000000,1.000000,0.000000,0.000000,0.000000,0.000000,0.000000,0.179217,0.289412,0.150860,0.007940,0.000000,158.000000,139.000000,19.000000,1.000000,0.000000,0.000000,0.000000,0.000000,0.000000;
#CREDIT:Pandemonium X;
#NOTES:
// measure 0
0000
0000
0000
0000
,  // measure 1
0000
0000
0000
0000
,  // measure 2
0000
0000
0000
0000
,  // measure 3
0000
0000
0000
0000
,  // measure 4
0000
0000
0000
0000
,  // measure 5
0000
0000
0000
0000
,  // measure 6
0000
0000
0000
0000
,  // measure 7
0000
0000
0000
0000
,  // measure 8
0000
0000
0000
0000
,  // measure 9
1001
0000
0000
0000
,  // measure 10
0001
0000
0000
0000
,  // measure 11
1000
0000
0000
0000
,  // measure 12
0010
0000
0000
0000
,  // measure 13
0100
0000
0000
0000
,  // measure 14
0010
0000
0000
0000
,  // measure 15
1000
0000
0000
0000
,  // measure 16
0001
0000
1000
0000
,  // measure 17
0110
0000
0100
0000
,  // measure 18
0100
0000
0000
1001
,  // measure 19
0110
0000
0010
0000
,  // measure 20
0010
0000
0000
0000
,  // measure 21
1001
0000
0001
0000
,  // measure 22
1000
0000
0001
0000
,  // measure 23
0100
0000
0001
0000
,  // measure 24
0010
0010
0010
0000
,  // measure 25
1001
0000
0001
0000
,  // measure 26
1000
1000
1000
0000
,  // measure 27
0001
0000
0100
0000
,  // measure 28
0010
0000
0100
0100
,  // measure 29
0100
0000
0010
0000
,  // measure 30
1000
0001
1000
0000
,  // measure 31
0001
0000
1000
0000
,  // measure 32
0010
0010
0010
0000
,  // measure 33
1001
0000
0000
0001
,  // measure 34
0001
0000
0000
1000
,  // measure 35
1000
0000
0001
0000
,  // measure 36
1000
0000
0010
0000
,  // measure 37
1001
0000
0000
1000
,  // measure 38
1000
0000
0000
0001
,  // measure 39
0001
0000
0100
0000
,  // measure 40
0110
0110
0110
0000
,  // measure 41
0010
0000
0000
0000
,  // measure 42
1000
0000
0001
0000
,  // measure 43
0010
0000
0000
0000
,  // measure 44
0100
0000
1000
0000
,  // measure 45
0001
0000
0000
0000
,  // measure 46
1000
0000
0010
0000
,  // measure 47
0100
0000
0000
0000
,  // measure 48
0010
0000
1000
0000
,  // measure 49
0001
0000
0000
0000
,  // measure 50
1000
0000
0000
0010
,  // measure 51
0010
0000
0100
0000
,  // measure 52
0010
0000
0000
0000
,  // measure 53
1001
0000
0001
0000
,  // measure 54
1000
0000
0000
0100
,  // measure 55
0100
0000
0010
0000
,  // measure 56
0001
0000
0100
0100
,  // measure 57
1001
0000
0001
0000
,  // measure 58
1000
1000
1000
0000
,  // measure 59
0010
0000
0100
0000
,  // measure 60
0001
0001
0001
0000
,  // measure 61
0010
0000
0001
0000
,  // measure 62
0100
0000
0010
0000
,  // measure 63
0100
0000
0010
0000
,  // measure 64
1000
1000
1000
0002
,  // measure 65
0103
0000
0000
0010
,  // measure 66
0010
0000
0000
0100
,  // measure 67
0100
0000
0001
0000
,  // measure 68
1000
0000
1001
0000
,  // measure 69
0110
0000
0000
0100
,  // measure 70
0100
0000
0000
0010
,  // measure 71
0010
0000
1000
0000
,  // measure 72
1001
1001
1001
0000
,  // measure 73
0001
0000
0000
0000
,  // measure 74
1000
0000
0010
0000
,  // measure 75
0100
0000
0000
0000
,  // measure 76
0010
0000
1000
0000
,  // measure 77
0001
0000
0000
0000
,  // measure 78
0010
0000
0100
0000
,  // measure 79
1000
0000
0000
0000
,  // measure 80
0001
0000
1000
0000
,  // measure 81
0110
0000
0000
0000
;

//---------------dance-single - Pandemonium X----------------
#NOTEDATA:;
#CHARTNAME:;
#STEPSTYPE:dance-single;
#DESCRIPTION:Pandemonium X;
#CHARTSTYLE:;
#DIFFICULTY:Easy;
#METER:8;
#RADARVALUES:0.318733,0.482353,0.325539,0.071460,0.000000,281.000000,240.000000,41.000000,9.000000,0.000000,0.000000,0.000000,0.000000,0.000000,0.318733,0.482353,0.325539,0.071460,0.000000,281.000000,240.000000,41.000000,9.000000,0.000000,0.000000,0.000000,0.000000,0.000000;
#CREDIT:Pandemonium X;
#NOTES:
// measure 0
0000
0000
0000
0000
,  // measure 1
0000
0000
0000
0000
,  // measure 2
0000
0000
0000
0000
,  // measure 3
0000
0000
0000
0000
,  // measure 4
0000
0000
0000
0000
,  // measure 5
0000
0000
0000
0001
,  // measure 6
1000
0010
1000
0001
,  // measure 7
0000
0000
0000
1000
,  // measure 8
0001
0100
0001
1000
,  // measure 9
0001
0000
1000
0000
0000
0001
0000
0000
,  // measure 10
0010
0000
0000
0001
0000
0000
0100
0000
,  // measure 11
0001
0000
1000
0000
,  // measure 12
0100
0000
0000
1000
0000
0000
0010
0000
,  // measure 13
1000
0000
0010
0000
,  // measure 14
0100
0000
0000
0001
0000
0000
0010
0000
,  // measure 15
0100
0000
0010
0000
,  // measure 16
0001
1000
1001
0000
,  // measure 17
0001
1000
0010
0000
,  // measure 18
1000
0001
0010
0100
,  // measure 19
1000
0001
0100
0000
,  // measure 20
0001
1000
0100
0000
,  // measure 21
1001
0001
1000
0000
,  // measure 22
0001
0100
0010
0000
,  // measure 23
0100
0001
1000
0100
,  // measure 24
0010
0001
0100
0100
,  // measure 25
1001
0000
0001
0000
,  // measure 26
1000
0001
0100
0000
,  // measure 27
0010
1000
0100
0100
,  // measure 28
0100
0000
0010
0010
,  // measure 29
0010
0000
0001
1000
,  // measure 30
0010
1000
0002
0003
,  // measure 31
1000
0001
0100
0010
,  // measure 32
1001
0110
2002
3003
,  // measure 33
1001
0000
0000
0101
,  // measure 34
1010
0000
0000
1100
,  // measure 35
0011
0001
0100
1000
,  // measure 36
0100
0001
2000
3000
,  // measure 37
1001
0000
0000
1100
,  // measure 38
0011
0000
0000
0011
,  // measure 39
1100
0001
1000
0100
,  // measure 40
0001
0100
2000
0000
,  // measure 41
3010
0000
0000
0100
0000
0000
0001
0000
,  // measure 42
1000
0100
1000
0001
,  // measure 43
0100
0000
0000
0001
0000
0000
0010
0000
,  // measure 44
0001
0100
0001
1000
,  // measure 45
0100
0000
0000
0010
0000
0000
0001
0000
,  // measure 46
0010
0001
0100
0010
,  // measure 47
1000
0000
0000
0001
0000
0000
1000
0000
,  // measure 48
0100
1000
0010
0100
,  // measure 49
0001
1000
0100
0000
,  // measure 50
1000
0010
0100
0101
,  // measure 51
0011
0000
0001
0000
,  // measure 52
0010
0001
0100
0001
,  // measure 53
1001
0000
1000
0000
,  // measure 54
0001
1000
0010
1010
,  // measure 55
1100
0000
0100
0000
,  // measure 56
0010
0001
0100
0001
,  // measure 57
1000
1000
0001
0100
,  // measure 58
0010
1000
0010
1010
,  // measure 59
0101
0001
0010
0100
,  // measure 60
0010
0001
1000
0001
,  // measure 61
0101
0001
0020
0030
,  // measure 62
0100
1000
0020
0030
,  // measure 63
1001
0010
1001
0100
,  // measure 64
1001
0000
0110
0000
1001
0000
0001
1000
,  // measure 65
0010
0000
0000
1010
,  // measure 66
1100
0000
0000
0011
,  // measure 67
0101
0001
0100
1000
,  // measure 68
0100
0001
2000
3000
,  // measure 69
1001
0000
0000
0011
,  // measure 70
0101
0000
0000
1010
,  // measure 71
0101
0001
0010
1000
,  // measure 72
0010
0001
2000
0000
,  // measure 73
3010
0000
0000
0100
0000
0000
0001
0000
,  // measure 74
1000
0100
1000
0001
,  // measure 75
0010
0000
0000
0100
0000
0000
0010
0000
,  // measure 76
0001
0100
0001
1000
,  // measure 77
0100
0000
0000
0010
0000
0000
0100
0000
,  // measure 78
1000
0010
1000
0100
,  // measure 79
1000
0000
0000
0001
0000
0000
0100
0000
,  // measure 80
0010
1000
1001
0110
,  // measure 81
1001
0000
0000
0000
;

//---------------dance-single - Pandemonium X----------------
#NOTEDATA:;
#CHARTNAME:;
#STEPSTYPE:dance-single;
#DESCRIPTION:Pandemonium X;
#CHARTSTYLE:;
#DIFFICULTY:Medium;
#METER:11;
#RADARVALUES:0.468458,0.514510,0.476398,0.095280,0.007940,413.000000,353.000000,60.000000,12.000000,0.000000,0.000000,0.000000,0.000000,0.000000,0.468458,0.514510,0.476398,0.095280,0.007940,413.000000,353.000000,60.000000,12.000000,0.000000,0.000000,0.000000,0.000000,0.000000;
#CREDIT:Pandemonium X;
#NOTES:
// measure 0
0000
0000
0000
0000
,  // measure 1
0000
0000
0000
0000
,  // measure 2
0000
0000
0000
0000
,  // measure 3
0000
0000
0000
0000
,  // measure 4
0000
0000
0000
0000
,  // measure 5
1000
0001
0010
0001
,  // measure 6
1000
0010
1000
0001
,  // measure 7
1000
0000
0100
1000
0000
1000
0010
0100
,  // measure 8
0001
0000
0010
0001
0100
0000
0010
0000
,  // measure 9
1001
0000
0001
0000
0000
1000
0000
0010
,  // measure 10
0010
0000
0100
0100
0000
0000
0001
0000
,  // measure 11
1000
0000
0100
0000
0010
0000
0001
0100
,  // measure 12
0010
1000
1001
0001
,  // measure 13
1000
0000
0000
0001
0000
0000
0011
0000
,  // measure 14
0000
1000
1000
0000
1001
0000
0001
0000
,  // measure 15
0100
0001
0010
1000
,  // measure 16
0010
0000
0100
0000
1000
0100
0001
0100
,  // measure 17
1000
0000
0010
0000
0100
0000
0001
0010
,  // measure 18
0001
0100
0010
1010
,  // measure 19
0101
0000
0001
0100
0010
0000
1000
0000
,  // measure 20
0001
0000
0010
0100
1000
0002
0000
0000
,  // measure 21
0103
0000
0001
1000
0010
0000
1000
0000
,  // measure 22
0001
0000
0010
0100
1000
0000
1001
0000
,  // measure 23
1100
0001
0101
0001
,  // measure 24
0011
1010
1001
0101
,  // measure 25
1001
0000
0001
0100
0010
0000
1000
0000
,  // measure 26
0001
0000
0010
0100
1000
0000
1100
0000
,  // measure 27
0011
0000
0001
0100
0010
0000
0100
0001
,  // measure 28
1000
0001
1000
1001
,  // measure 29
1010
0000
0000
0000
0100
0010
1000
0000
,  // measure 30
0010
0100
0001
0000
2000
0000
3000
0000
,  // measure 31
0001
1000
0001
0000
0100
0010
0100
0000
,  // measure 32
0010
1000
0001
0010
0100
0000
1000
0000
,  // measure 33
1001
0001
0100
0101
,  // measure 34
1001
1000
0100
1100
,  // measure 35
0011
0000
1000
0100
0001
0000
0001
0100
,  // measure 36
1000
0000
1000
0100
0020
0000
0030
0000
,  // measure 37
0011
0001
0100
0101
,  // measure 38
1010
0010
0100
0101
,  // measure 39
1001
0000
0001
0100
1000
0000
1000
0100
,  // measure 40
0001
0000
0001
1000
0020
0000
0000
0000
,  // measure 41
0130
0000
0000
0010
0000
0000
1000
0000
,  // measure 42
0001
0000
0010
0100
1000
0000
0200
0000
,  // measure 43
1300
0000
0000
1001
0000
0000
0001
0000
,  // measure 44
0100
0000
0010
1000
0001
0000
0020
0000
,  // measure 45
0130
0000
0000
0011
0000
0000
0001
0000
,  // measure 46
0100
0000
0010
1000
0001
0000
0020
0000
,  // measure 47
0130
0000
0000
1100
0000
0000
0100
0000
,  // measure 48
1000
0000
0001
0001
1000
0000
0110
0000
,  // measure 49
0001
1000
0010
1000
,  // measure 50
0001
0010
0100
1100
,  // measure 51
0011
0000
0001
0000
0100
0010
0100
0000
,  // measure 52
0010
1000
0001
0011
,  // measure 53
1100
0100
1000
0010
,  // measure 54
0100
0001
1000
1001
,  // measure 55
0101
0000
0001
0000
0010
0001
0010
0000
,  // measure 56
0001
0000
0100
0010
0100
0001
1000
0100
,  // measure 57
0010
0000
0001
0000
0100
0001
0100
0000
,  // measure 58
0010
0000
1000
0010
1000
0000
1010
0000
,  // measure 59
0101
0000
0001
0100
0001
0000
0100
0000
,  // measure 60
0010
0000
1000
0001
1000
0000
1001
0000
,  // measure 61
1100
0000
1000
0100
1000
0000
0100
0000
,  // measure 62
0010
0000
0001
0010
0001
0000
0011
0000
,  // measure 63
1100
0000
0100
1000
0010
0000
0100
0001
,  // measure 64
0010
0000
0100
0000
1000
0000
0001
0000
0000
0000
0000
0000
1000
0010
1000
0010
,  // measure 65
1000
0001
1000
1010
,  // measure 66
0101
0001
0010
0011
,  // measure 67
1100
0000
1000
0100
0001
0000
0001
0100
,  // measure 68
1000
0000
1000
0010
0200
0000
0300
0000
,  // measure 69
0101
0001
1000
1010
,  // measure 70
1100
0100
0010
0011
,  // measure 71
0101
0000
0001
0010
1000
0000
1000
0010
,  // measure 72
0001
0000
0100
0010
2000
0000
3000
0000
,  // measure 73
1001
0000
0000
1010
0000
0000
0001
0100
,  // measure 74
0001
0000
0010
0100
1000
0000
0200
0000
,  // measure 75
1300
0000
0000
1010
0000
0000
0010
0000
,  // measure 76
0100
0000
0010
1000
0001
0000
0020
0000
,  // measure 77
0130
0000
0000
1100
0000
0000
0100
1000
,  // measure 78
0010
0000
0100
0001
0020
0000
0130
0000
,  // measure 79
0110
0000
0000
0011
0000
0000
0001
0100
,  // measure 80
0010
0000
0100
0010
1000
0001
0010
0001
,  // measure 81
1001
0000
0000
0000
;

//---------------dance-single - Pandemonium X----------------
#NOTEDATA:;
#CHARTNAME:;
#STEPSTYPE:dance-single;
#DESCRIPTION:Pandemonium X;
#CHARTSTYLE:;
#DIFFICULTY:Hard;
#METER:13;
#RADARVALUES:0.576215,0.675295,0.365239,0.238199,0.079400,508.000000,462.000000,46.000000,30.000000,0.000000,0.000000,0.000000,0.000000,0.000000,0.576215,0.675295,0.365239,0.238199,0.079400,508.000000,462.000000,46.000000,30.000000,0.000000,0.000000,0.000000,0.000000,0.000000;
#CREDIT:Pandemonium X;
#NOTES:
// measure 0
0000
0000
0000
0000
,  // measure 1
0000
0000
0000
0000
,  // measure 2
0000
0000
0000
0000
,  // measure 3
0000
0000
0000
0000
,  // measure 4
0000
0000
0000
0000
,  // measure 5
0001
1000
0010
1000
,  // measure 6
0001
0010
0001
1000
,  // measure 7
0001
0100
0010
1000
0001
0010
1000
0010
,  // measure 8
0001
0000
0010
0100
1000
0000
0011
0000
,  // measure 9
1001
1000
0001
0000
0001
0010
0000
0010
,  // measure 10
0100
0000
0100
1000
0000
0000
0100
0010
,  // measure 11
0000
0100
1000
0001
0100
0001
0010
0100
,  // measure 12
1000
0000
0000
0000
0001
0000
0100
0000
0000
0000
0010
1000
0010
0000
0100
0000
,  // measure 13
0000
0001
0000
0010
0100
0100
1000
0001
,  // measure 14
0100
0000
0010
0100
0100
0000
0010
1000
,  // measure 15
0000
0100
0000
0010
0001
0100
0010
1000
,  // measure 16
0001
0000
0010
0000
0100
0000
1000
0000
1000
0100
0010
0001
1000
0000
0001
0000
,  // measure 17
1001
1000
1000
0001
0010
0010
0100
0010
,  // measure 18
0001
0000
0100
0010
1000
0100
1100
0000
,  // measure 19
0011
0010
0000
0001
0100
0000
0010
1000
,  // measure 20
0001
0000
0000
0000
1000
0000
0100
0000
0000
0000
1000
0001
1000
0000
0001
0000
,  // measure 21
0100
0001
0011
0000
1100
0000
1000
0010
,  // measure 22
0100
0002
0000
0000
1000
0000
0103
0000
,  // measure 23
1001
0000
0001
1000
0010
0000
1000
0001
,  // measure 24
0010
0000
1000
0000
0010
0000
0001
0000
1000
0100
0010
0001
1000
0001
0100
0010
,  // measure 25
2000
0000
0000
3001
1000
0000
1000
0100
,  // measure 26
0010
0000
0010
0100
1000
0000
1001
0000
,  // measure 27
1010
0000
1000
0001
0010
0000
0010
0001
,  // measure 28
0100
0000
0110
0101
,  // measure 29
1001
0000
0000
0000
0001
1000
0100
1000
,  // measure 30
0010
0000
0100
0001
2000
0000
0000
0000
,  // measure 31
3001
0100
0010
1000
0001
0010
1000
0010
,  // measure 32
0001
0010
0001
0000
1000
0100
1000
0000
0020
0000
0000
0000
0130
0000
0000
0000
,  // measure 33
1001
0000
0001
1000
0010
0010
1000
0000
,  // measure 34
0101
0000
0001
1000
0100
0100
0010
0000
,  // measure 35
0011
0000
0001
0100
1000
0000
1000
0100
,  // measure 36
0001
0000
1000
0001
0020
0000
0130
0000
,  // measure 37
1001
0000
1000
0001
0010
0010
0100
0000
,  // measure 38
0011
0000
0001
1000
0010
0010
0100
0000
,  // measure 39
0101
0000
0001
0010
1000
0000
1000
0010
,  // measure 40
0011
1010
2002
3003
,  // measure 41
1000
0100
0010
0010
0000
0100
1000
0001
,  // measure 42
0200
0000
0301
0010
0200
0000
2300
0000
,  // measure 43
3100
1000
0001
0001
0000
1000
0001
0100
,  // measure 44
0020
0000
0130
0001
0020
0000
0230
0000
,  // measure 45
0310
0001
1000
1000
0000
0100
1000
0001
,  // measure 46
0200
0000
0301
0010
0100
0010
0002
0000
,  // measure 47
1003
0001
0100
0100
0000
0001
0100
0010
,  // measure 48
0200
0000
0310
1000
1001
0000
0110
0000
,  // measure 49
1001
1000
0001
0000
0010
0001
0000
0100
,  // measure 50
0010
0000
1000
0001
0010
0000
0011
0000
,  // measure 51
1010
1000
0010
0100
0001
0000
0010
0100
,  // measure 52
1000
0000
0000
0000
0100
0000
1000
0000
0001
0000
1000
0001
1000
0000
0001
0000
,  // measure 53
1001
1000
0000
0010
0100
0001
0010
0100
,  // measure 54
1000
0000
0100
1000
0010
0000
0101
0000
,  // measure 55
0011
0010
0001
0000
0100
0010
1000
0000
,  // measure 56
0001
0000
0100
0000
0010
0100
0010
0000
1000
0001
1000
0000
0001
0010
0100
1000
,  // measure 57
0002
0100
0010
0100
,  // measure 58
1000
0100
0013
0011
,  // measure 59
1100
0000
1000
0100
0010
0000
1100
0000
,  // measure 60
0001
0010
0100
0000
0011
0000
1100
0000
,  // measure 61
2001
0010
0100
0001
,  // measure 62
0010
0100
0010
3001
,  // measure 63
1000
0010
0100
0001
0010
0100
1000
0001
,  // measure 64
0100
0001
0100
0000
0010
1000
0010
0000
1001
0000
0000
0000
0001
0100
0010
1000
,  // measure 65
0100
0000
0010
0001
0100
0100
0010
0000
,  // measure 66
1010
0000
1000
0010
0100
0100
0001
0000
,  // measure 67
1001
0000
0001
0010
1000
0000
1000
0010
,  // measure 68
0001
0000
0001
0010
0200
0000
0000
0000
,  // measure 69
1300
0000
0100
1000
0010
0010
0100
0000
,  // measure 70
1010
0000
0010
0100
0001
0001
0010
0000
,  // measure 71
1100
0000
1000
0100
0001
0000
0001
0100
,  // measure 72
1100
0101
2002
3003
,  // measure 73
1000
0001
0010
0010
0000
0100
0010
0001
,  // measure 74
0020
0000
0130
1000
0020
0000
0230
0000
,  // measure 75
0301
0100
0010
0010
0000
0100
0010
1000
,  // measure 76
0002
0000
0013
0100
2000
0000
3002
0000
,  // measure 77
0103
0001
0010
0010
0000
0100
0010
0001
,  // measure 78
2000
0000
3010
1000
0010
0100
0020
0000
,  // measure 79
1030
0001
1000
1000
0000
0100
0010
0001
,  // measure 80
0020
0000
0000
0000
0130
0000
1000
0001
1000
0000
0001
0000
1001
0000
0000
0000
,  // measure 81
0110
0000
0000
0000
;

//---------------dance-single - Pandemonium X----------------
#NOTEDATA:;
#CHARTNAME:;
#STEPSTYPE:dance-single;
#DESCRIPTION:Pandemonium X;
#CHARTSTYLE:;
#DIFFICULTY:Challenge;
#METER:15;
#RADARVALUES:0.632929,0.836079,0.547858,0.174679,0.162769,558.000000,489.000000,69.000000,22.000000,6.000000,0.000000,0.000000,0.000000,0.000000,0.632929,0.836079,0.547858,0.174679,0.162769,558.000000,489.000000,69.000000,22.000000,6.000000,0.000000,0.000000,0.000000,0.000000;
#CREDIT:Pandemonium X;
#NOTES:
// measure 0
0000
0000
0000
0000
,  // measure 1
0000
0000
0000
0000
,  // measure 2
0000
0000
0000
0000
,  // measure 3
0000
0000
0000
0000
,  // measure 4
0000
0000
0000
0000
,  // measure 5
0001
1000
0001
0001
0000
1000
0001
0100
,  // measure 6
0001
0000
0010
1000
0010
0001
1000
0000
,  // measure 7
0001
0100
0001
0100
0001
0100
0001
0100
0010
1000
0010
1000
0010
1000
0010
1000
,  // measure 8
0001
0000
1000
0100
1100
0000
0101
0000
,  // measure 9
1001
0001
0010
0000
001M
1000
0000
1000
,  // measure 10
0010
0000
M010
0001
0000
0000
0001
1001
,  // measure 11
0000
1000
0100
1000
1001
0000
1000
0001
,  // measure 12
0011
0000
0000
0000
0100
0000
1100
0000
0000
0000
0001
0100
0001
0000
1000
0000
,  // measure 13
0000
0001
0010
0001
1001
0000
1000
0001
,  // measure 14
1000
0010
1000
0001
0011
0000
0010
0100
,  // measure 15
0000
1100
0000
1000
0001
0001
0010
0100
,  // measure 16
1000
0000
0100
0000
1000
0000
0001
0000
0100
0000
0010
1000
0001
0000
0010
0000
,  // measure 17
0100
0010
0010
0001
1000
1000
0001
0100
,  // measure 18
0101
0000
0010
1000
0001
0010
0011
0000
,  // measure 19
0001
0100
0000
010M
1000
0000
1001
0000
,  // measure 20
0001
0000
0000
0000
1000
0000
0001
0000
0000
0000
1000
0010
1000
0000
0001
0000
,  // measure 21
0010
0100
1100
0000
0101
0000
1001
0000
,  // measure 22
0001
0100
0000
0000
0020
0000
1030
0000
,  // measure 23
0011
0010
0100
1000
0001
0001
0000
1000
,  // measure 24
0001
0000
0100
0000
0001
0000
1000
0000
0100
0010
0001
0010
0001
1000
0001
0100
,  // measure 25
0010
0000
0000
1000
1001
0000
0001
0010
,  // measure 26
0011
1010
1001
0010
,  // measure 27
1001
0000
0000
1000
0000
0000
0100
0000
0000
0000
0000
0000
0010
0000
0000
0000
0010
0000
0000
0000
0001
0000
0000
0000
,  // measure 28
1000
0000
0000
0000
0010
0000
0000
0000
0000
0100
0000
0000
0001
0000
0000
0000
1000
0000
0000
0000
0001
0000
0000
0000
,  // measure 29
1001
0000
0000
0000
1000
0000
0000
0000
0000
0000
0000
0000
0001
0000
0000
0001
0000
0000
0010
0000
0000
0100
0000
0000
,  // measure 30
2000
3020
0230
0301
,  // measure 31
1010
1000
0010
1000
0001
0010
0100
0010
,  // measure 32
0001
1000
0001
1000
0001
1000
0001
1000
0020
0000
0000
0000
0030
0000
0000
0000
,  // measure 33
1001
0000
0001
0010
1000
0010
0011
0000
,  // measure 34
1010
0000
1000
0010
0001
0010
1010
0000
,  // measure 35
0101
0000
0001
0100
0020
0000
1030
0001
,  // measure 36
0020
0000
0130
1000
0020
0000
0000
0030
,  // measure 37
1001
0000
1000
0100
0001
0100
1100
0000
,  // measure 38
0101
0000
0001
0100
1000
0100
0101
0000
,  // measure 39
1010
0000
1000
0010
0200
0000
0301
1000
,  // measure 40
1001
1001
0000
0000
,  // measure 41
0001
0100
0010
0010
0000
0100
0001
0001
,  // measure 42
1000
0000
0001
0100
1000
0000
0101
0000
,  // measure 43
0001
1000
0100
0100
0000
1000
0100
0001
,  // measure 44
0100
0000
1000
0100
0101
0000
1100
0000
,  // measure 45
1000
0001
0010
0010
0000
0100
1000
0100
,  // measure 46
0001
0000
0001
0100
1000
0000
1001
0000
,  // measure 47
0001
0010
0100
0100
0000
0010
0001
0100
,  // measure 48
1000
0000
1000
0100
0001
0000
1001
0000
,  // measure 49
0101
0001
0010
0000
001M
1000
0000
1000
,  // measure 50
0100
0000
M100
0001
0000
0000
1001
0000
,  // measure 51
1010
0010
0100
0001
0010
0100
1000
0100
,  // measure 52
2000
0000
0000
0000
3010
0000
0100
0000
0000
0000
0001
0010
0001
0000
1000
0000
,  // measure 53
0001
0010
0000
001M
1000
0001
1000
0100
,  // measure 54
0010
0000
0010
0001
1000
0000
1010
0000
,  // measure 55
0101
0000
0001
0010
0100
1000
0100
0010
,  // measure 56
0001
0000
0100
0000
0010
1000
0010
0100
0001
0010
0001
0010
0100
1000
0100
1000
,  // measure 57
0002
0100
0100
0000
0010
0010
0010
0000
,  // measure 58
1000
1000
1003
0000
1001
0000
0110
0000
,  // measure 59
1001
0001
0010
0000
0100
0010
0001
0000
,  // measure 60
1000
0010
0100
0000
1001
0000
0101
0000
,  // measure 61
2100
0100
0100
0000
0001
0001
0001
0000
,  // measure 62
0010
0010
3010
0000
1010
0000
0101
0000
,  // measure 63
1001
0001
0010
0100
1000
0001
0010
0100
,  // measure 64
0010
0001
0010
0001
1000
0100
1000
0100
1000
0010
1000
0010
0200
0302
0203
0302
,  // measure 65
1003
0000
0001
0100
1000
0100
0101
0000
,  // measure 66
1100
0000
1000
0100
0001
0100
1100
0000
,  // measure 67
0011
0000
0001
0010
0200
0000
1300
0001
,  // measure 68
0200
0000
0310
1000
0200
0000
0000
0300
,  // measure 69
1001
0000
1000
0010
0001
0010
1010
0000
,  // measure 70
0011
0000
0001
0010
1000
0010
0011
0000
,  // measure 71
1100
0000
1000
0100
0020
0000
0031
1000
,  // measure 72
1001
0110
2002
3003
,  // measure 73
0001
1000
0100
0100
0000
0010
0001
0100
,  // measure 74
1000
0000
0100
0001
1000
0000
1001
0000
,  // measure 75
1000
0001
0100
0100
0000
0001
1000
0100
,  // measure 76
0001
0000
0100
1000
0001
0100
0010
0000
,  // measure 77
1000
0001
0010
0010
0000
0100
0010
0001
,  // measure 78
0100
0000
1000
0100
0001
1000
0001
0000
,  // measure 79
0001
0010
0100
0100
0000
0010
0001
1000
,  // measure 80
0010
0000
0000
0000
0100
0000
0010
1000
0100
0000
0010
0000
0001
0000
0000
0000
,  // measure 81
1001
0000
0000
0000
;
