#TITLE:Respectable;
#SUBTITLE:;
#ARTIST:Mel & Kim;
#TITLETRANSLIT:;
#SUBTITLETRANSLIT:;
#ARTISTTRANSLIT:;
#CREDIT:;
#BANNER:Respectable.png;
#BACKGROUND:Respectable-bg.png;
#LYRICSPATH:;
#CDTITLE:;
#MUSIC:Respectable.ogg;
#OFFSET:-0.321;
#SAMPLESTART:41.548;
#SAMPLELENGTH:14.908;
#SELECTABLE:YES;
#BPMS:0.000=122.250;
#STOPS:;
#BGCHANGES:;

//---------------dance-single - ----------------
#NOTES:
     dance-single:
     :
     Challenge:
     12:
     0.559,0.518,0.436,0.028,0.278: // measure 1
0000
0000
0000
0000
,  // measure 2
0000
0000
0000
0000
,  // measure 3
0000
0000
0000
0000
,  // measure 4
0000
0000
0000
0000
,  // measure 5
0000
0000
0000
0000
,  // measure 6
1100
1001
0011
1001
,  // measure 7
0001
0100
0000
0100
0010
0000
0010
0000
1000
0100
1000
0100
0010
0001
0010
0001
,  // measure 8
1000
0000
0010
0000
0100
0000
0001
0000
0010
0000
0000
0010
0100
0000
1000
0000
,  // measure 9
0010
0000
0100
0000
1000
0000
0001
0000
0010
0000
0000
0010
0100
0000
0001
0000
,  // measure 10
0010
0000
0010
0000
0100
0000
0100
0000
0001
0000
0000
0001
0100
0000
1000
0000
,  // measure 11
0001
0100
0110
0000
1000
0000
0100
0010
,  // measure 12
0001
0000
1000
0000
0010
0000
0100
0000
0002
0000
0013
0100
0000
0100
0000
1000
,  // measure 13
0100
0000
0010
0000
0001
0000
1000
0000
0020
0000
0130
0010
0000
0010
0000
1000
,  // measure 14
0100
0010
0001
0100
0001
0010
0100
0000
,  // measure 15
0110
0000
1000
0000
1100
0000
0000
0000
1000
0010
0000
0001
0000
0010
0000
0100
,  // measure 16
0001
0000
1000
0000
0100
0000
0010
0000
0002
0000
0013
0100
0000
0100
0000
1000
,  // measure 17
0010
0000
0100
0000
0001
0000
0010
0000
2000
0000
3010
0100
0000
0100
0000
1000
,  // measure 18
0010
0100
0001
0010
0001
0100
0010
1000
,  // measure 19
0001
0000
0001
0000
0100
0000
0000
0000
0010
1000
0000
0001
0000
0010
0000
0100
,  // measure 20
1000
1001
1010
1001
,  // measure 21
1000
0100
0000
0100
0010
0000
0010
0000
0011
0000
0000
0000
1001
0000
0000
0000
,  // measure 22
1000
0100
0001
1000
0010
0001
1000
0100
,  // measure 23
1000
0010
0001
1000
0100
0001
1000
0100
,  // measure 24
0010
0010
0001
0001
1000
0010
0100
0001
,  // measure 25
0010
0100
0110
1000
0001
0100
0101
0000
,  // measure 26
0001
0100
1000
0001
0010
1000
0001
0100
,  // measure 27
0001
0010
1000
0001
0100
1000
0001
0100
,  // measure 28
0010
0010
1000
1000
0001
0010
0100
1000
,  // measure 29
0010
0000
0100
0000
0110
0000
0001
0000
1000
0100
1000
0100
0010
0001
0010
0001
,  // measure 30
1000
0000
0010
0000
0010
0000
0000
0100
0000
0100
0001
0000
1001
0000
0000
0000
,  // measure 31
0001
0000
0010
0000
0010
0000
0000
0100
0000
0100
1000
0000
1001
0000
0000
0000
,  // measure 32
0001
0000
0000
0000
0110
0000
0000
0000
1000
0000
0000
0010
0100
0000
0000
0000
,  // measure 33
0001
0000
0000
0000
0110
0000
0000
0000
1000
0001
1000
0001
0100
0010
0100
0010
,  // measure 34
1000
0000
1000
0100
0000
0001
0000
0100
0010
0000
0001
0000
1000
0000
0010
0000
,  // measure 35
0100
0000
0001
0100
0000
1000
0000
0100
0010
0000
1000
0000
0001
0000
0010
0000
,  // measure 36
0100
0000
1000
0010
0000
0001
0000
0010
0100
0000
0001
0000
1000
0000
0100
0000
,  // measure 37
0010
0000
0001
0100
0000
1000
0000
0100
0010
0000
1000
0000
0001
0000
0010
0000
,  // measure 38
0100
0000
1000
0010
0000
0100
0000
1000
0100
0000
0001
0000
1000
0000
0100
0000
,  // measure 39
0010
0000
0100
0001
0000
0100
0000
1000
0010
0000
0100
0000
1000
0000
0100
0000
,  // measure 40
0001
0000
0010
0100
0000
0001
0000
0100
1000
0000
0010
0000
0100
0000
1000
0000
,  // measure 41
0100
0000
0010
1000
0000
0100
0000
0001
0100
0000
0010
0000
0001
0000
1000
0000
,  // measure 42
0010
0000
0100
0000
0001
0000
0010
0000
0000
1000
0000
0000
1000
0000
0010
0000
,  // measure 43
0001
0000
0100
0000
0010
0000
0001
0000
0000
0010
0000
0000
0010
0000
1000
0000
,  // measure 44
0001
0010
0100
1000
0001
1000
0100
0000
,  // measure 45
1100
0000
0001
0000
0101
0000
0100
0000
0010
1000
0000
0001
0000
0010
0100
0000
,  // measure 46
1000
0000
0010
0000
0100
0000
1000
0000
0100
0010
0000
0000
0100
0000
0001
0000
,  // measure 47
1000
0000
0100
0000
0010
0000
1000
0000
0010
0100
0000
0000
0010
0000
0001
0000
,  // measure 48
1000
0010
0100
0010
1000
0100
0010
0001
,  // measure 49
0101
0101
0110
0110
,  // measure 50
0101
1001
1010
1001
,  // measure 51
1000
0100
0000
0100
0010
0000
0010
0000
0011
0000
0000
0000
1001
0000
0000
0000
,  // measure 52
1000
0100
0001
1000
0010
0001
0011
1000
,  // measure 53
1010
0010
0001
1000
0100
0001
1001
0001
,  // measure 54
0011
0010
0110
0100
1100
1000
0001
0100
,  // measure 55
0010
1000
1100
0010
0001
0100
0101
0000
,  // measure 56
0001
0100
1000
0001
0010
1000
1010
0001
,  // measure 57
0011
0010
1000
0001
0100
1000
1010
1000
,  // measure 58
1001
0001
0011
0010
0110
0100
1000
0010
,  // measure 59
0100
0001
0101
1000
0100
0010
0011
0000
,  // measure 60
0001
0100
1000
0001
0010
1000
1010
1000
,  // measure 61
1100
0100
0001
1000
0010
0001
0011
0001
,  // measure 62
0101
0100
0110
0010
1010
1000
0001
0010
,  // measure 63
0100
1000
1100
0001
0100
0010
1010
0000
,  // measure 64
1000
0100
0001
1000
0010
0001
0011
0001
,  // measure 65
0101
0100
1000
0001
0010
1000
1010
1000
,  // measure 66
1100
0100
0110
0010
0011
0001
0100
0010
,  // measure 67
1000
0000
0100
0000
1100
0000
0010
0000
0001
0000
0100
0000
0010
1000
0010
1000
,  // measure 68
0001
0000
0000
0000
;

//---------------dance-single - Hard Edit----------------
#NOTES:
     dance-single:
     Hard Edit:
     Edit:
     10:
     0.426,0.424,0.274,0.007,0.084:
0000
0000
0000
0000
,
0000
0000
0000
0000
,
0000
0000
0000
0000
,
0000
0000
0000
0000
,
0000
0000
0000
0000
,
1100
1001
0011
1001
,
0001
0100
0000
0010
0100
0000
0100
0000
0110
0000
0000
0000
1010
0000
0000
0000
,
1001
0000
1000
0100
0000
0100
0010
0001
,
0100
0000
0100
0010
0000
0010
1000
0001
,
0010
0010
0100
0100
1000
0000
1000
0001
,
0100
0001
0000
0000
0010
0000
0100
1000
,
0010
0000
0010
0100
0000
0100
0001
1000
,
0100
0000
0100
0010
0000
0010
0001
1000
,
0000
1000
0010
1000
0001
0100
0010
0000
,
1000
1000
0100
0000
0010
0000
0001
0000
,
0101
0000
0100
0010
0000
0010
1000
0001
,
0010
0000
0010
0100
0000
0100
1000
0100
,
0000
0010
0001
0100
0010
0100
0001
1000
,
0100
0010
0000
0000
0001
0000
0100
0000
,
0101
0110
1010
0110
,
0001
0100
0000
0010
0100
0000
0100
0000
0110
0000
0000
0000
1010
0000
0000
0000
,
1100
0000
0100
0010
0000
0010
0001
1000
,
1010
0000
1000
0100
0000
0100
0010
0001
,
1000
1000
0010
0010
0100
0000
0100
0001
,
1000
0100
0000
0100
0010
0100
1000
0000
,
1100
0000
1000
0001
0000
0001
0100
0010
,
1010
0000
0010
1000
0000
1000
0100
1000
,
0001
0001
1000
1000
0010
0000
0010
0100
,
0001
1000
0000
0100
0010
0100
1000
0000
,
1100
1000
0001
0000
0001
0100
0010
0000
,
0010
1000
1000
0000
1000
0001
0010
0000
,
0011
0010
0100
0000
1000
0000
0001
0100
,
0010
0100
0001
0000
1000
1000
0001
0001
,
0010
0000
0000
0010
0000
0000
0010
0000
0100
0000
1000
0000
0001
0000
0100
0000
,
0010
0000
0000
0010
0000
0000
0010
0000
1000
0000
0001
0000
0010
0000
0100
0000
,
1000
0000
0000
1000
0000
0000
1000
0000
0001
0000
0100
0000
0010
0000
1000
0000
,
0001
0000
0000
0001
0000
0000
0001
0000
0010
0000
0100
0000
1000
0000
0001
0000
,
0100
0000
0000
0010
0000
0010
0000
0000
1000
0000
0100
0000
0010
0000
0001
0000
,
1000
0000
0000
0010
0000
0010
0000
0000
0100
0000
0001
0000
1000
0000
0100
0000
,
0010
0000
0000
0001
0000
0001
0000
1000
0100
0000
0010
0000
0001
0000
1000
0000
,
0010
0000
0000
0100
0000
0100
0000
0001
1000
0000
0100
0000
0010
0000
0100
0000
,
1100
0000
0000
0000
0100
0000
1000
0000
0001
0100
0000
0000
0100
0000
0000
0000
,
0101
0000
0000
0000
0100
0000
0001
0000
1000
0100
0000
0000
0100
0000
0000
0000
,
0010
0100
1000
0001
1000
0100
0010
0000
,
0011
0001
0100
0000
0010
0000
1000
0000
,
1001
0000
0000
0000
0001
0000
0010
0000
0100
0010
0000
0000
0010
0000
0000
0000
,
0011
0000
0000
0000
0010
0000
0100
0000
1000
0100
0000
0000
0100
0000
0000
0000
,
0010
0001
1000
0001
0100
0010
1000
0100
,
0010
0010
0001
0001
,
0101
0110
1010
0110
,
0001
0100
0000
0010
0100
0000
0100
0000
0110
0000
0000
0000
1010
0000
0000
0000
,
1100
0000
0100
0010
0000
0010
0001
0100
,
0110
0000
0010
1000
0000
1000
0001
1000
,
0010
0010
0100
0100
0001
0000
0001
1000
,
0100
0010
0000
0010
0100
1000
0001
0000
,
0101
0000
0100
0010
0000
0010
1000
0001
,
0011
0000
0010
0100
0000
0100
1000
0001
,
0100
0100
0010
0010
1000
0000
1000
0001
,
0010
0100
0000
0100
0010
0001
0100
0000
,
0110
0000
0010
1000
0000
1000
0001
0010
,
0110
0000
0100
1000
0000
1000
0001
0100
,
0010
0010
1000
1000
0001
0000
0001
0010
,
0100
1000
0000
1000
0010
1000
0001
0000
,
0011
0000
0010
0100
0000
0100
1000
0001
,
0101
0000
0100
0010
0000
0010
1000
0001
,
0010
0010
0100
0100
1000
0000
1000
0001
,
0100
0001
0000
0001
0010
0100
2000
0000
,
3000
0000
0000
0000
;

//---------------dance-single - ----------------
#NOTES:
     dance-single:
     :
     Hard:
     7:
     0.426,0.424,0.274,0.007,0.084:
0000
0000
0000
0000
,
0000
0000
0000
0000
,
0000
0000
0000
0000
,
0000
0000
0000
0000
,
0000
0000
0000
0000
,
1100
1001
0011
1001
,
0001
0100
0000
0010
0100
0000
0100
0000
0110
0000
0000
0000
1010
0000
0000
0000
,
1001
0000
1000
0100
0000
0100
0010
0001
,
0100
0000
0100
0010
0000
0010
1000
0001
,
0010
0010
0100
0100
1000
0000
1000
0001
,
0100
0001
0000
0000
0010
0000
0100
1000
,
0010
0000
0010
0100
0000
0100
0001
1000
,
0100
0000
0100
0010
0000
0010
0001
1000
,
0000
1000
0010
1000
0001
0100
0010
0000
,
1000
1000
0100
0000
0010
0000
0001
0000
,
0101
0000
0100
0010
0000
0010
1000
0001
,
0010
0000
0010
0100
0000
0100
1000
0100
,
0000
0010
0001
0100
0010
0100
0001
1000
,
0100
0010
0000
0000
0001
0000
0100
0000
,
0101
0110
1010
0110
,
0001
0100
0000
0010
0100
0000
0100
0000
0110
0000
0000
0000
1010
0000
0000
0000
,
1100
0000
0100
0010
0000
0010
0001
1000
,
1010
0000
1000
0100
0000
0100
0010
0001
,
1000
1000
0010
0010
0100
0000
0100
0001
,
1000
0100
0000
0100
0010
0100
1000
0000
,
1100
0000
1000
0001
0000
0001
0100
0010
,
1010
0000
0010
1000
0000
1000
0100
1000
,
0001
0001
1000
1000
0010
0000
0010
0100
,
0001
1000
0000
0100
0010
0100
1000
0000
,
1100
1000
0001
0000
0001
0100
0010
0000
,
0010
1000
1000
0000
1000
0001
0010
0000
,
0011
0010
0100
0000
1000
0000
0001
0100
,
0010
0100
0001
0000
1000
1000
0001
0001
,
0010
0000
0000
0010
0000
0000
0010
0000
0100
0000
1000
0000
0001
0000
0100
0000
,
0010
0000
0000
0010
0000
0000
0010
0000
1000
0000
0001
0000
0010
0000
0100
0000
,
1000
0000
0000
1000
0000
0000
1000
0000
0001
0000
0100
0000
0010
0000
1000
0000
,
0001
0000
0000
0001
0000
0000
0001
0000
0010
0000
0100
0000
1000
0000
0001
0000
,
0100
0000
0000
0010
0000
0010
0000
0000
1000
0000
0100
0000
0010
0000
0001
0000
,
1000
0000
0000
0010
0000
0010
0000
0000
0100
0000
0001
0000
1000
0000
0100
0000
,
0010
0000
0000
0001
0000
0001
0000
1000
0100
0000
0010
0000
0001
0000
1000
0000
,
0010
0000
0000
0100
0000
0100
0000
0001
1000
0000
0100
0000
0010
0000
0100
0000
,
1100
0000
0000
0000
0100
0000
1000
0000
0001
0100
0000
0000
0100
0000
0000
0000
,
0101
0000
0000
0000
0100
0000
0001
0000
1000
0100
0000
0000
0100
0000
0000
0000
,
0010
0100
1000
0001
1000
0100
0010
0000
,
0011
0001
0100
0000
0010
0000
1000
0000
,
1001
0000
0000
0000
0001
0000
0010
0000
0100
0010
0000
0000
0010
0000
0000
0000
,
0011
0000
0000
0000
0010
0000
0100
0000
1000
0100
0000
0000
0100
0000
0000
0000
,
0010
0001
1000
0001
0100
0010
1000
0100
,
0010
0010
0001
0001
,
0101
0110
1010
0110
,
0001
0100
0000
0010
0100
0000
0100
0000
0110
0000
0000
0000
1010
0000
0000
0000
,
1100
0000
0100
0010
0000
0010
0001
0100
,
0110
0000
0010
1000
0000
1000
0001
1000
,
0010
0010
0100
0100
0001
0000
0001
1000
,
0100
0010
0000
0010
0100
1000
0001
0000
,
0101
0000
0100
0010
0000
0010
1000
0001
,
0011
0000
0010
0100
0000
0100
1000
0001
,
0100
0100
0010
0010
1000
0000
1000
0001
,
0010
0100
0000
0100
0010
0001
0100
0000
,
0110
0000
0010
1000
0000
1000
0001
0010
,
0110
0000
0100
1000
0000
1000
0001
0100
,
0010
0010
1000
1000
0001
0000
0001
0010
,
0100
1000
0000
1000
0010
1000
0001
0000
,
0011
0000
0010
0100
0000
0100
1000
0001
,
0101
0000
0100
0010
0000
0010
1000
0001
,
0010
0010
0100
0100
1000
0000
1000
0001
,
0100
0001
0000
0001
0010
0100
2000
0000
,
3000
0000
0000
0000
;

//---------------dance-single - ----------------
#NOTES:
     dance-single:
     :
     Medium:
     8:
     0.391,0.377,0.225,0.007,0.035:
0000
0000
0000
0000
,
0000
0000
0000
0000
,
0000
0000
0000
0000
,
0000
0000
0000
0000
,
0000
0000
0000
0000
,
1100
1001
0011
1001
,
0101
0000
0100
0100
0010
0000
1010
0000
,
1001
0000
1000
0100
0000
0100
0010
0001
,
0100
0000
0100
0010
0000
0010
1000
0001
,
0010
0010
0100
0100
1000
0000
1000
0001
,
0100
0001
0000
0000
0010
0000
0100
1000
,
0010
0000
0010
0100
0000
0100
0001
1000
,
0100
0000
0100
0010
0000
0010
0001
1000
,
0000
0000
1000
0000
0001
0100
0010
0000
,
1000
1000
0100
0000
0010
0000
0001
0000
,
0101
0000
0100
0010
0000
0010
1000
0001
,
0010
0000
0010
0100
0000
0100
1000
0100
,
0000
0000
0010
0000
0001
0000
0100
0010
,
1000
0100
0000
0000
0010
0000
0001
0000
,
0101
0110
1010
0110
,
0101
0000
0100
0100
0110
0000
1010
0000
,
1001
0000
0010
0001
0000
0001
0100
0010
,
1000
0000
1000
0100
0000
0100
0010
0001
,
1000
1000
0010
0010
0100
0000
0100
0001
,
1000
0100
0000
0000
0010
0000
0100
0000
,
1100
0000
1000
0001
0000
0001
0100
0010
,
1000
0000
0010
1000
0000
1000
0001
0010
,
0001
0001
1000
1000
0010
0000
0010
0100
,
0001
1000
0000
0100
0010
0100
1000
0000
,
0100
1000
0001
0000
0100
0000
0010
0000
,
0010
1000
1000
0000
0001
0000
0010
0000
,
0001
0010
0100
0000
1000
0000
0001
0000
,
0100
0010
0010
0000
1000
1000
0001
0001
,
0010
0000
0010
0000
0100
1000
0001
0100
,
0010
0000
0010
0000
1000
0001
0010
0100
,
1000
0000
1000
0000
0001
0100
0010
1000
,
0001
0000
0001
0000
0010
0100
1000
0001
,
0100
0000
0000
0010
0000
0000
1000
0000
0100
0000
0010
0000
0001
0000
1000
0000
,
0010
0000
0000
0100
0000
0000
0001
0000
1000
0000
0100
0000
0010
0000
0100
0000
,
1000
0000
0000
0010
0000
0010
0000
0000
1000
0000
0100
0000
0010
0000
0000
0000
,
0001
0000
0000
0100
0000
0100
0000
0000
0010
0000
1000
0000
0010
0000
1000
0000
,
0100
0000
0000
0000
0100
0000
1000
0000
0000
0001
0000
0000
0001
0000
0000
0000
,
0101
0000
0000
0000
0001
0000
1000
0000
0000
0100
0000
0000
0100
0000
0000
0000
,
0010
0100
1000
0001
1000
0100
0010
0000
,
0001
0001
0100
0000
0010
0000
1000
0000
,
1001
0000
0000
0000
0001
0000
0010
0000
0000
0100
0000
0000
0100
0000
0000
0000
,
1100
0000
0000
0000
1000
0000
0010
0000
0000
0100
0000
0000
0100
0000
0000
0000
,
0000
0001
1000
0001
0100
0010
1000
0100
,
0010
0010
0001
0001
,
0101
0110
1010
0110
,
0001
0000
0100
0100
0110
0000
1010
0000
,
1100
0000
0100
0010
0000
0010
0001
0100
,
0010
0000
0010
1000
0000
1000
0001
1000
,
0010
0010
0100
0100
0001
0000
0001
1000
,
0100
0010
0000
0010
0100
1000
0001
0000
,
0101
0000
0100
0010
0000
0010
1000
0001
,
0010
0000
0010
0100
0000
0100
1000
0001
,
0100
0100
0010
0010
1000
0000
1000
0001
,
0010
0100
0000
0100
0010
0001
0100
0000
,
0110
0000
0010
1000
0000
1000
0001
0010
,
0110
0000
0100
1000
0000
1000
0001
0100
,
0010
0010
1000
1000
0001
0000
0001
0010
,
0100
1000
0000
1000
0010
1000
0001
0000
,
0011
0000
0010
0100
0000
0100
1000
0001
,
0101
0000
0100
0010
0000
0010
1000
0001
,
0010
0010
0100
0100
1000
0000
1000
0001
,
0100
0001
0000
0001
0010
0100
2000
0000
,
3000
0000
0000
0000
;

//---------------dance-single - ----------------
#NOTES:
     dance-single:
     :
     Easy:
     6:
     0.245,0.283,0.127,0.035,0.000:
0000
0000
0000
0000
,
0000
0000
0000
0000
,
0000
0000
0000
0000
,
0000
0000
0000
0000
,
0000
0000
0000
0000
,
1000
0100
0010
0100
,
1000
0000
0001
0001
0010
0000
0001
0000
,
0101
0000
0100
0010
,
1010
0000
1000
0100
,
0010
0010
0001
1000
,
0010
0000
0100
0001
,
1000
0000
0100
0010
,
0100
0000
1000
0001
,
0100
0010
0100
0100
,
0001
1000
0000
0000
,
1001
0000
0001
0010
,
0100
0000
1000
0001
,
0100
0010
0100
0100
,
0001
1000
0000
0000
,
1000
0100
0010
0100
,
1000
0000
0001
0001
0010
0000
0001
0000
,
0101
0100
0010
0100
,
1000
0100
0010
0100
,
0001
0010
1000
0100
,
0001
0001
2000
3000
,
0001
0010
0100
0010
,
1000
0010
0100
0010
,
0001
0100
1000
0010
,
0001
0001
2000
3000
,
1010
0000
1000
0100
,
0010
0000
0001
0100
,
0010
0000
0010
0000
,
1000
0000
1000
1000
,
0001
0001
0100
0010
,
0100
0100
0001
0010
,
0100
0100
1000
0001
,
1000
1000
0010
0100
,
0001
0000
1000
0100
,
0010
0000
0001
1000
,
0001
0000
0010
0100
,
1000
0000
0010
0100
,
0101
0000
0001
1000
,
1100
0000
0001
0001
,
0010
0100
1000
0100
,
0010
0100
0000
0000
,
1100
0000
1000
0010
,
1010
0000
0010
0010
,
0100
1000
0100
0010
,
1000
1000
0001
0001
,
0001
0010
0100
0010
,
0001
0000
1000
1000
0010
0000
1000
0000
,
1001
0001
0010
0100
,
1100
1000
0010
0100
,
0001
0010
1000
0100
,
0001
1000
0200
0300
,
1100
1000
0001
0100
,
0110
0010
0100
0001
,
1000
0100
0001
0010
,
1000
0001
0020
0030
,
0011
0001
0100
0010
,
1001
1000
0100
0010
,
0001
0100
1000
0010
,
0001
1000
0020
0030
,
1010
0010
1000
0100
,
1001
0001
0010
0100
,
1000
0100
0001
0010
,
1000
1000
0001
0100
,
0110
0000
0000
0000
;
