#TITLE:Rave Lithosphere;
#SUBTITLE:;
#ARTIST:Sampling Masters MEGA;
#TITLETRANSLIT:;
#SUBTITLETRANSLIT:;
#ARTISTTRANSLIT:;
#GENRE:RAVE;
#CREDIT:;
#BANNER:Rave Lithosphere.png;
#BACKGROUND:Rave Lithosphere-bg.png;
#LYRICSPATH:;
#CDTITLE:;
#MUSIC:Rave Lithosphere.ogg;
#OFFSET:-0.002675;
#SAMPLESTART:63.532001;
#SAMPLELENGTH:16.941000;
#SELECTABLE:YES;
#BPMS:0.000000=170.000000
;
#STOPS:
;
#BGCHANGES:;
#KEYSOUNDS:;
#ATTACKS:;

//---------------dance-single - ----------------
#NOTES:
     dance-single:
     :
     Hard:
     16:
     0.755766,0.918746,0.353364,0.282691,0.676440,524.000000,489.000000,35.000000,28.000000,0.000000,0.000000,0.755766,0.918746,0.353364,0.282691,0.676440,524.000000,489.000000,35.000000,28.000000,0.000000,0.000000:
0000
0000
0000
0000
,
0000
0000
0000
0000
,
0000
0000
0000
0000
,
0000
0000
0000
0000
,
1000
0100
1000
0000
0010
0000
1000
0000
0100
0000
0010
0100
0010
0000
0100
1000
,
0100
1000
0001
0000
1000
0001
1000
0001
0100
0000
0000
0010
0000
0000
0100
0000
,
0001
0100
0001
0000
0010
0000
0001
0000
0100
0000
0010
0100
0010
0000
0100
0001
,
0100
0000
0001
0010
0001
0000
0010
0100
0010
0000
0100
1000
0100
0000
0100
0010
,
0001
0100
0001
0000
0010
0000
0001
0000
0100
0000
0010
0100
0010
0000
0100
0001
,
0100
0001
1000
0000
0001
1000
0001
1000
0100
0000
0000
0010
0000
0000
0100
0000
,
1000
0100
1000
0000
0010
0000
1000
0000
0100
0000
0010
0100
0010
0000
0100
1000
,
0100
0000
1000
0010
1000
0000
0010
0100
0010
0000
0010
0100
0001
0000
0000
0000
,
0101
0000
0001
0000
0101
0000
0000
0000
0011
0000
0000
0011
0000
0000
0010
0100
,
1000
0001
1000
0000
1001
0000
0000
0000
1010
0000
1000
0001
0010
0000
0100
0000
,
1100
0000
1000
0000
1100
0000
0000
0000
1010
0000
0000
1010
0000
0000
1010
0000
,
0000
0000
0100
0000
0010
1000
0010
1000
0001
0000
1000
0100
0010
0000
0001
0000
,
0101
0000
0100
0000
0101
0000
0000
0000
0011
0000
0000
0011
0000
0000
0001
1000
,
0010
0100
0010
0000
0110
0000
0000
0000
0101
0000
0001
0010
0100
0000
1000
0000
,
1100
0000
0100
0000
1100
0000
0000
0000
1010
0000
0000
1010
0000
0000
1010
0000
,
0110
0000
0000
0000
0000
0000
0000
0000
0000
0000
0000
0000
0000
0000
1000
0100
,
0010
0000
0001
0010
0100
0010
0001
0010
0100
0000
1000
0000
0002
0000
0000
0000
,
1003
0000
0010
0100
0001
0100
0010
0100
0001
0010
0100
1000
0001
0000
1000
0000
,
0001
0000
0100
0010
0100
0000
1000
0000
0000
0000
0100
0010
0100
0000
0001
0000
,
1000
0000
0100
0010
0100
0000
0001
0000
0000
0000
0100
0010
0100
0000
0100
1000
,
0001
0000
1000
0010
0100
0010
1000
0010
0100
0000
0001
0000
2000
0000
0000
0000
,
3001
0000
0010
0100
1000
0100
0010
0100
1000
0010
0100
0010
2000
0000
0000
0000
,
3001
1000
0100
0000
0010
0000
0100
0000
1000
0001
0100
0000
0010
0000
0100
0000
,
0001
0010
0100
0000
1000
0000
0010
0000
1000
0100
0010
0000
0001
0000
0100
0000
,
0010
0000
1000
0100
0010
0100
1000
0100
0010
0000
0001
0000
2000
0000
0000
0000
,
3001
0000
0100
0010
1000
0010
0100
0010
1000
0100
0010
0001
1000
0000
0001
0000
,
0010
0100
1000
0010
0000
0100
0000
0010
1000
0000
0001
0010
0100
1000
0001
0000
,
1000
0100
0010
0001
1000
0000
0010
0100
0001
1000
0100
0010
0001
1000
0010
0000
,
0100
0000
0001
0010
0100
0010
0001
0010
0100
0000
1000
0000
0002
0000
0000
0000
,
1003
0000
0010
0100
0001
0100
0010
0100
0001
0010
0100
0010
0001
0000
0000
0000
,
1000
0010
0000
0100
0000
0001
0010
0000
0100
0010
0001
0000
1000
0010
0100
0000
,
0010
1000
0000
0100
0000
0010
0100
0000
1000
0100
1000
0100
0010
0001
0010
0001
,
1000
0000
0000
0000
0010
0100
0110
0000
,
1000
0000
0010
0000
0001
0000
0010
0001
0010
0000
0100
0000
0001
0000
1000
0001
,
1000
0000
0100
0000
0001
0000
0100
0001
0100
0000
0010
0000
0001
0000
0000
0000
,
1000
0000
1000
0010
0100
0000
0100
0000
0001
0000
0001
0010
0100
0000
0100
0000
,
1000
0000
0010
0000
0100
0000
0001
0000
0010
0000
0010
0100
2000
0000
0000
0000
,
3001
0000
0010
0000
1000
0000
0010
1000
0010
0000
0100
0000
1000
0000
0001
1000
,
0001
0000
0100
0000
1000
0000
0100
1000
0100
0000
0010
0000
1000
0000
0000
0000
,
0001
0000
0001
0010
0100
0000
0100
0000
1000
0000
1000
0010
0100
0000
0100
0000
,
0001
0000
1000
0000
0001
0010
0100
0000
1000
0000
0001
0100
0010
0000
0100
0000
,
0020
0000
0000
0000
,
0230
0000
0000
0000
,
0302
0000
0000
0000
,
0023
0000
0000
0000
,
0032
0010
1000
0100
,
2003
0001
0010
0001
,
3200
1000
0010
0001
,
0320
0230
2300
3002
,
1003
0000
0000
0000
0010
0000
0100
0000
0001
0000
0000
0010
0000
0000
0100
1000
,
0000
0000
1000
0000
0100
0000
0010
0000
0001
0000
0000
1000
0000
0000
0010
0100
,
0001
0000
0000
0000
0010
0000
0100
0000
1000
0000
0000
0010
0000
0000
0100
0000
,
0000
0000
0000
0000
0000
0000
0010
0100
0001
0101
0000
0000
,
1000
0000
0100
0000
0110
0000
0000
0000
1000
0000
0100
0000
0110
0000
0000
0010
,
0001
0000
0000
0001
1000
0000
0010
0000
0100
0000
0010
0000
0002
0000
0023
0000
,
0130
0100
2000
3200
0310
0010
0002
0023
,
0130
0200
2300
3100
0020
2030
3100
0010
,
0110
0011
1001
1010
,
0110
0000
1010
0000
1001
0000
0011
0001
0100
0010
1000
0100
,
0020
0000
0000
0000
,
0000
0000
0000
0000
,
0030
0000
0000
0000
;

//---------------dance-single - ----------------
#NOTES:
     dance-single:
     :
     Medium:
     13:
     0.578363,0.689060,0.494710,0.333172,0.186778,401.000000,352.000000,49.000000,33.000000,0.000000,0.000000,0.578363,0.689060,0.494710,0.333172,0.186778,401.000000,352.000000,49.000000,33.000000,0.000000,0.000000:
0000
0000
0000
0000
,
0000
0000
0000
0000
,
0000
0000
0000
0000
,
0000
0000
0000
0000
,
1000
0100
0010
0100
0000
1100
0000
0100
,
0010
0000
0001
0000
1000
0000
1000
0000
0001
0000
0000
0001
0000
0000
1000
0000
,
0001
0100
0010
0100
0000
0101
0000
0100
,
0010
0110
0000
0101
0000
1001
0000
0011
,
0010
0100
1000
0100
0000
0110
0000
0100
,
1000
0000
0010
0000
0100
0000
0100
0000
0010
0000
0000
0010
0000
0000
0100
0000
,
0010
0100
0001
0100
0000
0110
0000
0100
,
0001
0101
0000
1001
0000
0011
0010
0000
,
0110
0000
0000
0000
0110
0000
0000
0000
0011
0000
0000
0011
0000
0000
0001
0000
,
0100
0000
0010
0000
0010
0000
0000
0000
0110
0000
0000
0101
0000
0000
0100
0000
,
0110
0000
0000
0000
0110
0000
0000
0000
1010
0000
0000
1010
0000
0000
1010
0000
,
0000
0000
0100
0000
0010
0000
0010
0000
1010
0000
0000
1010
0000
0000
1000
0000
,
1001
0000
0000
0000
1001
0000
0000
0000
1100
0000
0000
1100
0000
0000
0100
0000
,
0010
0000
0001
0000
0001
0000
0000
0000
1001
0000
0000
0011
0000
0000
0001
0000
,
1001
0000
0000
0000
1001
0000
0000
0000
0101
0000
0000
0101
0000
0000
0100
0000
,
0110
0000
0000
0000
0000
0000
0000
1000
,
0001
0200
1000
1000
1300
0100
0002
0000
,
1003
0200
0001
0001
0301
0100
1000
0001
,
1000
0000
0100
0010
0000
0000
0011
0000
0000
0000
0001
1000
0000
0000
1010
0000
,
0000
0000
0100
0010
0000
0000
1010
0000
0000
0000
1000
0001
0000
0000
0011
0000
,
0001
0200
1000
1000
1300
0100
0002
0000
,
1003
0200
0001
0001
0301
0100
0020
0000
,
0031
0010
0100
0000
0100
0010
0001
1000
,
0001
0100
0010
0000
0010
0100
0001
0001
,
1000
0200
0001
0001
0301
0100
2000
0000
,
3001
0200
1000
1000
1300
0100
0001
1000
,
0001
0000
0010
0100
0000
0010
0000
0100
0010
0000
0001
0000
1000
0000
0010
0000
,
1000
0001
0010
1000
0010
0001
1000
0001
,
1000
0200
0001
0001
0301
0100
2000
0000
,
3001
0200
1000
1000
1300
0100
0010
0000
,
1000
0001
0000
1000
0000
0001
1000
0000
0001
0010
0000
0000
0100
0010
0000
0000
,
0001
1000
0000
0001
0000
1000
0001
0000
1000
0000
0100
0000
0001
0000
0100
0000
,
1000
0000
0000
0000
0001
1000
1001
0000
,
0001
0100
1000
0000
0001
0010
1000
0000
,
0001
0010
1000
0000
0001
0100
1000
0000
,
0001
0100
0010
0010
1000
0100
0010
0010
,
0100
1000
0001
0001
0100
0010
0010
0000
,
1000
0100
0001
0000
1000
0010
0001
0000
,
1000
0010
0001
0000
1000
0100
0001
0000
,
1000
0100
0010
0010
0001
0100
0010
0010
,
0100
0001
0010
0100
1000
0010
0100
0010
,
0200
0000
0000
0000
,
0320
0000
0000
0000
,
2030
0000
0000
0000
,
3002
0000
0000
0000
,
2003
0001
0001
0001
,
3020
0100
0100
0100
,
2030
0001
0001
0001
,
3200
0010
0010
0010
,
1300
0000
0000
0000
1000
0000
0100
0000
0010
0000
0000
0001
0000
0000
0100
0000
,
0000
0000
0010
0000
0100
0000
0001
0000
1000
0000
0000
0100
0000
0000
0010
0000
,
0001
0000
0000
0000
0001
0000
0100
0000
0010
0000
0000
1000
0000
0000
0100
0000
,
0000
0000
0000
0000
0000
0000
0010
0100
0010
0200
0000
0000
,
1300
0000
0000
0000
0110
0000
0000
0000
1000
0000
0000
0000
0110
0000
0000
0010
,
0001
0000
0000
0001
1000
0000
0010
0000
0001
0000
0001
0000
2000
0000
3200
0000
,
0301
0001
2000
3200
0301
0001
2000
3020
,
0031
0002
0203
1300
2000
3002
0013
1000
,
1010
1010
1001
1001
,
0011
0000
0011
0000
0011
0000
0001
1000
0001
1000
0001
1000
,
0020
0000
0000
0000
,
0000
0000
0000
0000
,
0030
0000
0000
0000
;

//---------------dance-single - ----------------
#NOTES:
     dance-single:
     :
     Easy:
     8:
     0.372114,0.590623,0.312980,0.333172,0.000000,258.000000,227.000000,31.000000,33.000000,0.000000,0.000000,0.372114,0.590623,0.312980,0.333172,0.000000,258.000000,227.000000,31.000000,33.000000,0.000000,0.000000:
// measure 0
0000
0000
0000
0000
,  // measure 1
0000
0000
0000
0000
,  // measure 2
0000
0000
0000
0000
,  // measure 3
0000
0000
0000
0000
,  // measure 4
1000
0100
0010
0010
,  // measure 5
0001
1000
0001
0001
,  // measure 6
1000
0010
0100
0100
,  // measure 7
0000
0100
0000
0001
0000
1000
0000
0000
,  // measure 8
0001
0010
0100
0100
,  // measure 9
1000
0001
1000
1000
,  // measure 10
0001
0100
0010
0010
,  // measure 11
0000
0010
0000
1000
0000
0001
1000
0000
,  // measure 12
0001
0011
1000
1010
,  // measure 13
0001
1000
0001
0000
1000
0000
0100
0000
,  // measure 14
0010
0110
1000
1001
,  // measure 15
0000
0001
1000
0000
0001
0000
0001
0000
,  // measure 16
1000
1010
0001
0011
,  // measure 17
1000
0001
1000
0000
0001
0000
0100
0000
,  // measure 18
0010
0110
0001
1001
,  // measure 19
0110
0000
0000
0000
0000
0000
0000
1000
,  // measure 20
2000
0100
0001
0010
,  // measure 21
3002
0100
1000
0010
,  // measure 22
0003
1000
0000
1000
0000
0010
0000
0010
,  // measure 23
0000
0100
0000
0100
0000
0001
1000
0000
,  // measure 24
0002
0100
1000
0010
,  // measure 25
2003
0100
0001
3020
,  // measure 26
0130
0100
0001
0001
,  // measure 27
1000
1000
0001
0001
,  // measure 28
0020
1000
0001
1000
,  // measure 29
0230
0001
1000
0001
,  // measure 30
0310
0000
0100
0010
0200
0000
1000
0000
,  // measure 31
0320
0001
0230
2300
,  // measure 32
3020
0001
1000
0001
,  // measure 33
0230
1000
0301
1001
,  // measure 34
1000
0100
0110
1100
,  // measure 35
0001
0100
0110
0101
,  // measure 36
1001
0000
0000
0000
0001
1000
0001
0000
,  // measure 37
2000
3100
0002
0103
,  // measure 38
2000
3100
0002
0103
,  // measure 39
1000
0010
0001
0100
,  // measure 40
1000
0001
1000
1000
,  // measure 41
0002
0103
2000
3100
,  // measure 42
0002
0103
2000
3100
,  // measure 43
0001
0010
1000
0100
,  // measure 44
0001
1000
0001
0001
,  // measure 45
2000
0000
0000
0000
,  // measure 46
3200
0000
0000
0000
,  // measure 47
0320
0000
0000
0000
,  // measure 48
0032
0000
0000
0000
,  // measure 49
1003
1000
1000
1000
,  // measure 50
0010
0010
0010
0010
,  // measure 51
0100
0100
0100
0100
,  // measure 52
0001
0001
0001
0001
,  // measure 53
1001
0100
0010
0100
,  // measure 54
1001
0100
0010
0100
,  // measure 55
1001
0100
0010
0100
,  // measure 56
0100
0000
0110
1001
,  // measure 57
1000
0110
1000
0110
,  // measure 58
1000
0000
0100
0000
0010
0000
0002
2003
,  // measure 59
3001
0000
2000
3002
1003
0000
0002
2003
,  // measure 60
3001
0010
0100
1000
,  // measure 61
1001
1001
0110
0110
,  // measure 62
0101
0101
1001
1001
,  // measure 63
0022
0000
0000
0000
,  // measure 64
0000
0000
0000
0000
,  // measure 65
0033
0000
0000
0000
;

//---------------dance-single - ----------------
#NOTES:
     dance-single:
     :
     Beginner:
     4:
     0.203365,0.262499,0.060577,0.141346,0.000000,141.000000,135.000000,6.000000,14.000000,0.000000,0.000000,0.203365,0.262499,0.060577,0.141346,0.000000,141.000000,135.000000,6.000000,14.000000,0.000000,0.000000:
// measure 0
0000
0000
0000
0000
,  // measure 1
0000
0000
0000
0000
,  // measure 2
0000
0000
0000
0000
,  // measure 3
0000
0000
0000
0000
,  // measure 4
1000
1000
0000
0001
,  // measure 5
0000
1000
1000
0000
,  // measure 6
0010
0010
0000
0100
,  // measure 7
0000
0010
0010
0010
,  // measure 8
0000
1000
0000
0001
,  // measure 9
0000
1000
1000
0000
,  // measure 10
0100
0100
0000
0010
,  // measure 11
0000
0100
0100
0100
,  // measure 12
0100
0000
0001
0000
,  // measure 13
1000
0000
0100
0100
,  // measure 14
0100
0000
1000
0000
,  // measure 15
0001
0000
0001
0000
,  // measure 16
0100
0000
0010
0000
,  // measure 17
1000
1000
1000
0000
,  // measure 18
0001
0000
1000
0000
,  // measure 19
1001
0000
0000
0000
,  // measure 20
0100
0100
0100
0000
,  // measure 21
0001
0001
0001
0000
,  // measure 22
1000
0000
0100
0000
,  // measure 23
0010
0000
0001
0000
,  // measure 24
1000
1000
1000
0000
,  // measure 25
0001
0001
0001
0000
,  // measure 26
1000
0000
0010
0000
,  // measure 27
0100
0000
0001
0000
,  // measure 28
0010
0010
0010
0000
,  // measure 29
0100
0100
0100
0000
,  // measure 30
1000
0000
0010
0000
,  // measure 31
0100
0000
0001
0000
,  // measure 32
0001
0001
0001
0000
,  // measure 33
0010
0010
0010
0000
,  // measure 34
0100
0000
1000
1000
,  // measure 35
1000
0000
0010
0010
,  // measure 36
0010
0000
0000
0000
,  // measure 37
2000
3000
0002
0003
,  // measure 38
2000
3000
0002
0003
,  // measure 39
1000
1000
0000
0010
,  // measure 40
0010
0010
0000
0100
,  // measure 41
0200
0300
0020
0030
,  // measure 42
0200
0300
0020
0030
,  // measure 43
0100
0100
0000
0001
,  // measure 44
0000
1000
1000
1000
,  // measure 45
1000
0000
0000
0000
,  // measure 46
0001
0000
0000
0000
,  // measure 47
0010
0000
0000
0000
,  // measure 48
0100
0000
0000
0000
,  // measure 49
2000
0000
3000
0000
,  // measure 50
0020
0000
0030
0000
,  // measure 51
0200
0000
0300
0000
,  // measure 52
0002
0000
0003
0000
,  // measure 53
1000
1000
0000
0001
,  // measure 54
0001
0001
0000
0100
,  // measure 55
0100
0100
0000
0010
,  // measure 56
0010
0000
0100
0100
,  // measure 57
0000
0110
0000
0110
,  // measure 58
0000
1000
0000
1000
,  // measure 59
0000
0001
0000
1000
,  // measure 60
0000
0001
0001
0001
,  // measure 61
0001
0000
0110
0000
,  // measure 62
1000
0000
0110
0000
,  // measure 63
2002
0000
0000
0000
,  // measure 64
0000
0000
0000
0000
,  // measure 65
3003
0000
0000
0000
;
