#TITLE:Rainbow Rave Parade;
#SUBTITLE:;
#ARTIST:Chime;
#TITLETRANSLIT:;
#SUBTITLETRANSLIT:;
#ARTISTTRANSLIT:;
#GENRE:Colour Bass;
#CREDIT:;
#BANNER:Rainbow Rave Parade.png;
#BACKGROUND:Rainbow Rave Parade-bg.png;
#LYRICSPATH:;
#CDTITLE:yosefu_cdtitle_v2.png;
#MUSIC:Rainbow Rave Parade.ogg;
#OFFSET:0.000000;
#SAMPLESTART:73.599998;
#SAMPLELENGTH:12.800000;
#SELECTABLE:YES;
#DISPLAYBPM:150.000000;
#BPMS:0.000000=150.000000
,32.000000=300.000000
,32.500000=150.000000
,32.750000=75.000000
,33.000000=150.000000
,55.500000=300.000000
,55.750000=150.000000
,55.875000=75.000000
,56.000000=150.000000
,64.000000=300.000000
,64.500000=150.000000
,64.750000=75.000000
,65.000000=150.000000
,134.000000=75.000000
,134.500000=150.000000
,135.000000=300.000000
,137.000000=150.000000
,137.500000=75.000000
,138.000000=150.000000
,140.000000=300.000000
,141.000000=150.000000
,141.500000=75.000000
,142.000000=150.000000
,144.000000=300.000000
,145.000000=150.000000
,145.500000=75.000000
,146.000000=150.000000
,167.500000=300.000000
,167.750000=150.000000
,167.875000=75.000000
,168.000000=150.000000
,180.000000=75.000000
,182.000000=150.000000
,197.500000=300.000000
,197.750000=150.000000
,197.875000=75.000000
,198.000000=150.000000
,206.000000=300.000000
,206.500000=150.000000
,206.750000=75.000000
,207.000000=150.000000
;
#STOPS:
;
#BGCHANGES:;
#KEYSOUNDS:;
#ATTACKS:;

//---------------dance-single - ----------------
#NOTES:
     dance-single:
     :
     Beginner:
     3:
     0.158943,0.295297,0.167652,0.060964,0.000000,146.000000,124.000000,22.000000,8.000000,0.000000,0.000000,0.158943,0.295297,0.167652,0.060964,0.000000,146.000000,124.000000,22.000000,8.000000,0.000000,0.000000:
0000
0000
0000
0000
,
0000
0000
0000
0000
,
1001
0000
0000
0000
,
0001
0000
0000
0000
,
1000
0000
0000
0000
,
0100
0000
0000
0000
,
1001
0000
0000
0000
,
0010
0000
0000
0000
,
0100
0000
0000
0000
,
0001
0000
0000
0000
,
1001
0000
0010
0000
,
0010
0000
0100
0000
,
0100
0000
0001
0000
,
0001
0000
0100
0000
,
1001
0000
0010
0000
,
0010
0000
1000
0000
,
1000
0000
0001
0000
,
0001
0000
0010
0000
,
0020
0000
0030
0000
,
0000
0000
0000
0000
,
0200
0000
0300
0000
,
0000
0000
0000
0000
,
2000
0000
3000
0000
,
0001
0000
0000
0000
,
0001
0000
0001
0000
,
0001
0001
0002
0003
,
1001
0000
0000
0000
,
0000
0000
0110
0000
,
0000
0000
1001
0000
,
0000
0000
0110
0000
,
1001
0000
0000
0000
,
0000
0000
0110
0000
,
0000
0000
1001
0000
,
0000
0000
0110
0000
,
0000
0000
0000
0000
,
1001
0000
0000
0000
,
1001
0000
0000
0000
,
0001
0000
0001
0000
,
1000
0000
0000
0000
,
0010
0000
0000
0000
,
0100
0000
0000
0000
,
0001
0000
0000
0000
,
1000
0000
1000
0000
,
0010
0000
0010
0000
,
0100
0000
0100
0000
,
0000
0000
1001
0000
,
0001
0000
0010
0000
,
0010
0000
1000
0000
,
1000
0000
0001
0000
,
0001
0000
1001
0000
,
0100
0000
0100
0000
,
0001
0000
0001
0000
,
1000
0000
1000
0000
,
0100
0000
0200
0000
,
0300
0000
0000
0000
,
0000
0000
0020
0000
,
0030
0000
0000
0000
,
0000
0000
0002
0000
,
0003
0000
0000
0000
,
0000
0000
1000
0000
,
1000
0000
1000
1000
,
2000
3000
1001
0000
,
0000
0000
0000
1000
,
1000
1000
0000
0010
,
0010
0010
0100
0100
,
0100
0100
0110
0000
,
0000
0000
0001
0000
,
0001
0000
1000
0000
,
1000
0000
0010
0010
,
0010
0110
0110
0000
,
0000
0000
0000
1000
,
1000
1000
0000
0001
,
0001
0001
0100
0100
,
0100
0100
0110
0000
,
0000
0000
0010
0010
,
0010
0010
1000
1000
,
1000
1000
0001
1000
,
0001
1000
1001
0000
;

//---------------dance-single - ----------------
#NOTES:
     dance-single:
     no skittles here:
     Easy:
     9:
     0.346191,0.477047,0.274340,0.205755,0.000000,318.000000,282.000000,36.000000,27.000000,0.000000,0.000000,0.346191,0.477047,0.274340,0.205755,0.000000,318.000000,282.000000,36.000000,27.000000,0.000000,0.000000:
0000
0000
0000
0000
,
0000
0000
0000
0000
,
1001
0110
0001
0101
,
0100
1001
0010
1010
,
1000
0110
0001
0011
,
0010
1001
0100
1001
,
0010
1001
0001
1001
,
1000
1100
0100
0110
,
0010
0011
0000
1001
,
0000
1010
0000
0010
,
1010
1000
0001
1000
,
0010
0000
0100
0000
0001
0000
1000
0001
,
1000
0100
0010
0001
,
1000
0000
0000
0010
0000
0000
0100
0000
,
0101
0001
1000
0100
,
0010
0000
0100
0000
1000
0000
0001
0100
,
0001
0100
0010
0100
,
0001
1000
0100
1000
,
1002
0000
0000
0000
1000
0003
0000
0000
,
1000
0000
1000
0000
,
0020
0000
0000
0000
0100
0030
0000
0000
,
0100
0000
0100
0000
,
0002
0000
0000
0000
0010
0003
0000
0000
,
0010
0000
0010
0000
,
0100
0100
1000
1000
,
0001
0000
0100
0000
0020
0000
1030
0001
,
2002
0000
0000
3003
,
0001
0000
0110
0000
,
1000
0000
0101
0000
,
0010
0000
1001
0000
,
0220
0000
0000
0330
,
0001
0000
1010
0000
,
0100
0000
1001
0000
,
0010
0000
2002
0000
,
0000
0003
3010
0100
,
0201
0000
0301
1000
,
2100
0000
3100
0010
,
0001
0001
0001
1000
,
0010
0000
0100
0000
0001
0000
1000
0001
,
1000
0100
0010
0001
,
1000
0000
0010
0000
0100
0000
0010
1000
,
0010
1000
0100
0010
,
0001
0000
1000
0000
0010
0000
0100
0001
,
0100
0001
1000
0100
,
0010
0000
0001
0000
1000
0000
0010
1000
,
0020
0000
0130
0001
,
1000
0000
0100
0010
0100
0000
1000
0000
,
0001
0000
0100
0010
0100
0000
0010
0000
,
1000
0000
0001
0010
0001
0000
0000
1000
,
0000
0010
0100
0001
,
1000
0000
0100
0010
0100
0000
1000
0000
,
0001
0000
0100
0010
0100
0000
0001
0000
,
1000
0100
0010
0001
,
0100
0010
1002
0000
,
1000
0003
0000
0000
1000
0000
0000
0000
,
1000
0000
0200
0000
,
0010
0300
0000
0000
0010
0000
0000
0000
,
0010
0000
0002
0000
,
1000
0003
0000
0000
1000
0000
0000
0000
,
1000
0000
0010
0100
,
0001
1000
0100
0010
,
0002
0000
1003
0001
2002
0000
0000
0000
,
3003
0000
1000
0001
,
0100
0001
0100
0000
0001
1000
0001
0000
,
1000
0100
1000
0000
0001
0100
0001
0100
,
0010
1000
0010
1000
2002
0000
0000
0000
,
0000
0000
3003
0000
1000
0001
1000
0001
,
0000
1000
0010
1000
0000
0010
0100
0010
,
0000
0100
0001
0100
0001
1000
0001
1000
,
0100
0010
0110
0000
2002
0000
3003
0000
,
0000
0000
0001
1000
,
0010
0100
0010
0000
1000
0001
1000
0000
,
0100
0010
0100
0000
1000
0001
1000
0001
,
0010
0100
0010
0100
2002
0000
0000
0000
,
0000
0000
3003
0000
0001
0100
0001
1000
,
0000
0100
1000
0001
0000
0010
0001
1000
,
0000
0010
1000
0001
1000
0010
0100
0001
,
0010
0100
1000
0000
2002
0000
0000
0000
,
0000
3003
0000
0000
;

//---------------dance-single - ----------------
#NOTES:
     dance-single:
     even less skittles here:
     Medium:
     13:
     0.480095,0.745386,0.304822,0.327684,0.339115,441.000000,401.000000,40.000000,43.000000,0.000000,0.000000,0.480095,0.745386,0.304822,0.327684,0.339115,441.000000,401.000000,40.000000,43.000000,0.000000,0.000000:
0000
0000
0000
0000
,
0000
0000
0000
0000
,
1001
0000
0000
0000
0011
0000
0000
0001
0000
0000
0001
0000
0101
0000
0000
0000
,
0100
0000
0000
0000
1010
0000
0000
0010
0000
0000
0010
0000
0110
0000
0000
0000
,
0100
0000
0000
0000
1001
0000
0000
0001
0000
0000
0001
0000
0011
0000
0000
0000
,
0010
0000
0000
0000
0000
0000
0000
0000
1100
0000
0000
0000
0000
0000
0100
0000
0000
0000
0000
0000
0100
0000
0000
0000
2002
3003
0000
0000
0000
0000
0000
0000
,
0001
0000
0000
0000
1010
0000
0000
1000
0000
0000
1000
0000
1100
0000
0000
0000
,
0100
0000
0000
0000
0011
0000
0000
0010
0000
0000
0010
0000
0110
0000
0000
0000
,
0200
0000
0300
0000
1001
0000
0000
1000
0000
0000
1000
0000
1010
0000
0000
0000
,
0010
0000
0000
0000
0101
0000
0000
0100
0000
0000
0100
0000
0001
1000
0001
0000
,
1001
0000
0101
0100
0001
1000
0100
0020
,
0031
0100
0010
2000
3001
0010
0001
0200
,
0310
0000
1010
1000
0001
0010
0100
2000
,
3001
0000
0000
0100
0000
0000
0010
0000
0000
1000
0000
0000
2002
0000
3003
0000
,
0110
0000
1001
0001
0010
0100
1000
0020
,
0130
0001
0010
0200
0310
0001
1000
0200
,
0320
0030
0000
0000
0001
0000
1000
0000
0000
0010
0000
0000
1000
0000
0000
0001
,
0000
0000
0010
0000
0000
0001
0000
0000
1000
0000
0000
0010
0100
0000
0000
0000
,
1002
0000
0000
0000
1000
0003
0000
0000
,
1000
0000
1000
0000
,
0200
0000
0000
0000
0010
0300
0000
0000
,
0010
0000
0010
0000
,
0002
0000
0000
0000
0100
0003
0000
0000
,
0100
0000
0100
0000
,
0010
1000
0001
0010
,
0100
0000
1000
0000
0001
0000
0100
0000
0020
0000
0000
0000
1030
0001
1000
0000
,
2002
0000
0000
0000
0000
0000
0000
3003
,
0001
0100
0110
0010
,
1000
0001
0011
0010
,
0100
1000
1001
0001
,
0202
0000
0000
0000
0000
0000
0000
0303
,
0100
0010
1010
1000
,
0001
0010
0110
0100
,
1000
0001
0202
0000
,
0003
0000
0000
0000
0000
0000
0000
0000
0310
0000
1000
0000
0000
0001
0000
0000
,
0021
0000
0000
0000
0000
0000
0000
0000
0130
0000
1000
0000
0000
0001
0000
0000
,
0201
0000
0000
0000
0000
0000
0000
0000
0310
0000
1000
0000
0000
0001
0000
0000
,
0010
0010
0010
0100
,
1000
0000
0000
0001
0000
0000
0100
0000
0000
0010
0000
0000
1000
0000
0100
0000
,
0010
0000
0000
0001
0000
0000
1000
0000
0000
0010
0000
0000
0100
0001
0100
0000
,
0001
0000
0000
1000
0000
0000
0100
0000
0000
0010
0000
0000
0001
0000
1000
0000
,
0010
0100
1000
0100
0010
1000
0100
0010
,
0001
1000
0100
1000
0001
0100
0001
1000
,
0000
0001
0010
0001
1000
0010
1000
0001
,
0000
1000
0100
0010
0001
0100
0010
1000
,
0200
0000
0000
0000
0000
0000
0000
0000
1300
0001
1000
0000
0001
0000
0010
0000
,
0000
0100
0000
0000
1000
0000
0001
0000
0100
0000
0000
0010
0000
0000
1000
0000
,
0000
0001
0000
0000
0010
0000
0100
0000
1000
0010
1000
0000
0001
0000
0010
0000
,
0000
0100
0000
0000
1000
0000
0010
0000
0100
0000
0000
0001
0000
0000
1000
0000
,
0000
0100
0000
0010
0002
0000
0003
0000
1000
0000
0000
0000
0001
0000
0010
0000
,
1000
0010
0100
1000
0001
0100
1000
0100
,
0010
0000
1000
0000
0100
0000
0010
0000
0002
0003
0000
0000
1000
0000
0010
0000
,
0000
0100
0000
0000
0001
0000
0000
0010
0000
0000
0100
0000
0000
1000
0000
0000
,
0010
0000
0000
0100
0001
0000
0000
0000
1002
0000
0000
0000
0000
0000
0000
0000
,
1000
0003
0000
0000
1000
0000
0000
0000
,
1000
0000
0200
0000
,
0010
0300
0000
0000
0010
0000
0000
0000
,
0010
0000
0002
0000
,
0100
0003
0000
0000
0100
0000
0000
0000
,
0100
0000
0010
1000
,
0001
0000
0010
0000
0100
1000
0001
0100
,
0020
0000
0000
0000
1030
0001
1000
0000
2020
0000
0000
0000
0000
0000
0000
0000
,
3000
0000
0000
0000
0030
0000
0000
0000
1000
0000
0000
0000
0001
1000
0001
0000
,
0000
0001
0100
0000
0000
0100
0010
0000
0000
0010
1000
0000
0000
1000
0001
0000
,
0000
0001
0010
0000
0000
0010
0100
0000
1000
0000
0100
0000
0010
0000
0001
0000
,
0100
0010
1000
0001
2002
0000
0000
0000
,
0000
0000
0000
0000
0000
0000
3003
0000
1000
0001
1000
0000
0000
1000
0010
0000
,
0000
0010
0001
0000
0000
0001
0010
0000
0000
0010
1000
0000
0000
1000
0100
0000
,
0000
0100
0001
0000
0000
0001
0100
0000
1000
0000
0001
0000
0100
0000
0001
0000
,
1000
0010
0110
0000
2002
0000
0003
0000
,
3000
0000
0001
0000
0000
0000
0000
0000
0000
0000
0000
0000
0000
0000
0000
0000
0000
0000
0000
0000
0010
0000
0000
0000
0000
0000
0000
0000
0000
0000
0000
0000
0000
0000
0000
0000
0000
0000
0000
0200
0000
0000
0000
0000
0000
0000
0000
0000
0000
0000
0000
0000
0000
0000
0000
0000
0000
0000
0000
0000
0000
0000
0000
0000
0000
0000
0000
0000
0000
0000
0000
0000
0300
0000
0000
0000
0000
0000
0000
0000
0000
0000
0000
0000
0000
0000
0000
0000
0000
0000
0000
0000
0000
0000
0000
0000
1000
0000
0000
0000
0000
0000
0000
0000
0000
0000
0000
0000
0000
0000
0000
0000
0000
0000
0000
0000
0000
0000
0000
0000
0000
0000
0000
0000
0000
0000
0000
0000
0000
0000
0000
0000
0000
0000
0000
0000
0000
0000
0000
0000
0000
0000
0000
0000
0001
0000
0000
0000
0000
0000
0000
0000
0000
0000
0000
0000
1000
0000
0000
0000
0000
0000
0000
0000
0000
0000
0000
0000
0001
0000
0000
0000
0000
0000
0000
0000
0000
0000
0000
0000
0000
0000
0000
0000
0000
0000
0000
0000
0000
0000
0000
0000
,
0000
0100
0001
0000
0000
1000
0100
0000
0000
1000
0001
0000
0000
0010
0001
0000
,
0000
1000
0001
0000
0000
1000
0010
0000
1000
0000
0100
0000
0001
0000
0100
0000
,
1000
0010
0100
0001
2002
0000
0000
0000
,
0000
0000
0000
0000
0000
0000
3003
0000
0001
1000
0010
1000
0000
0010
0100
0010
,
0000
0100
0001
0100
0000
0001
1000
0001
0000
1000
0100
1000
0000
0100
0010
0100
,
0000
0010
0001
0010
0000
0001
1000
0001
0000
1000
0010
1000
0000
0001
0100
0000
,
0001
1000
0000
0001
0010
0000
0000
0000
2002
0000
0000
0000
0000
0000
0000
0000
,
0000
3003
0000
0000
;

//---------------dance-single - ----------------
#NOTES:
     dance-single:
     less skittles, but not non-existant:
     Hard:
     16:
     0.711978,0.834832,0.068585,0.251478,1.055447,654.000000,645.000000,9.000000,33.000000,4.000000,0.000000,0.711978,0.834832,0.068585,0.251478,1.055447,654.000000,645.000000,9.000000,33.000000,4.000000,0.000000:
// measure 0
0000
0000
0000
0000
,  // measure 1
0000
0000
0000
0000
,  // measure 2
1001
0000
0000
0000
0001
0000
1000
0010
0000
1000
0001
0000
0010
0001
0000
0000
,  // measure 3
1000
0000
0000
0000
0010
0000
1000
0100
0000
1000
0001
0000
0010
0000
0000
0000
,  // measure 4
0001
0000
0000
0000
0100
0000
0001
0100
0000
0001
1000
0000
0100
1000
0000
0000
,  // measure 5
0001
0000
0000
0000
0000
0000
0000
0000
0010
0000
0000
0000
0001
0000
0010
0000
0000
0000
0001
0000
0100
0000
0000
0000
0202
0303
0000
0000
0000
0000
0000
0000
,  // measure 6
1001
0000
0000
0000
1000
0000
0001
0010
0000
0001
1000
0000
0010
1000
0000
0000
,  // measure 7
0001
0000
0000
0000
0010
0000
0001
0100
0000
0001
1000
0000
0010
0000
0000
0000
,  // measure 8
2000
0000
3000
0000
0001
0000
1000
0100
0000
1000
0001
0000
0100
0001
0000
0000
,  // measure 9
1000
0000
0000
0000
0001
0000
1000
0010
0000
1000
0001
0000
1000
0010
0100
0001
,  // measure 10
0010
0000
0000
0000
0100
0000
1000
0001
1000
0001
1000
0000
0001
0100
0002
0000
,  // measure 11
1003
0100
1000
0100
1000
0000
0002
0000
0013
0100
0010
0100
0010
0000
0002
0000
,  // measure 12
1003
0000
0000
0000
0010
0000
1000
0001
1000
0001
1000
0000
0010
0100
0020
0000
,  // measure 13
1030
0000
0000
0000
0000
0000
0000
0000
0001
0000
0000
0000
0100
0000
0000
0000
0000
0000
0000
0000
0001
0000
0000
0000
1000
0000
0000
0000
0100
0000
0000
0000
0000
0000
0000
0000
1000
0000
0000
0000
0001
0000
0000
0000
0100
0000
0000
0000
0001
0000
0000
0000
0000
0000
0000
0000
2000
3000
0000
0000
0000
0000
0000
0000
,  // measure 14
1001
0000
0000
0000
0001
0000
1000
0100
1000
0100
1000
0000
0001
0100
0001
0000
,  // measure 15
1000
0010
1000
0010
1000
0000
0002
0000
1003
0100
1000
0100
1000
0000
0200
0000
,  // measure 16
0320
0030
0000
0000
0001
0000
1000
0100
0000
1000
0001
0000
0100
0001
0000
1000
,  // measure 17
0010
0000
1000
0001
0000
0010
0001
0000
1000
0001
0000
0010
0100
0000
0000
0000
,  // measure 18
2001
0000
0000
0000
0001
3000
0000
0000
,  // measure 19
0001
0000
0001
0000
,  // measure 20
2000
0000
0000
0000
0100
3000
0000
0000
,  // measure 21
0100
0000
0000
0000
0010
0000
0000
0001
0000
0000
0001
0000
0100
0000
0000
0000
,  // measure 22
0010
0000
0000
0000
1000
0000
0000
0100
0000
0000
0100
0000
0010
0001
0000
0000
,  // measure 23
1000
0000
0000
0000
0010
0000
0000
0100
0000
0001
1000
0000
0100
0000
0000
0000
,  // measure 24
0010
0001
1000
0001
0010
0100
1000
0100
,  // measure 25
0010
0001
0010
0001
1000
0010
1000
0010
2000
0000
0000
0000
3001
0100
0001
0100
,  // measure 26
0004
0000
0000
0000
,  // measure 27
0013
0000
0000
0000
0000
0000
0000
0001
0000
0000
0000
0000
0000
0000
0001
0000
0000
0000
0000
0000
0000
0001
0000
0000
0000
0000
0000
0000
0001
0000
0000
0000
0100
0000
0000
0000
0000
0000
0000
0001
0000
0000
0000
0000
0000
0000
0001
0000
0000
0000
0000
0000
0000
0001
0000
0000
0000
0000
0000
0000
0001
0000
0000
0000
,  // measure 28
4000
0000
0000
0000
0000
0000
0000
0000
0000
0000
0000
0000
0000
0000
0000
0000
0000
0000
0000
0000
0000
0000
0000
0000
0000
0000
0000
0000
0000
0000
0000
0000
0000
0000
0000
0000
0000
0000
0000
0000
0000
0000
0000
0000
0000
0000
0000
0000
0000
0000
0000
0000
0000
0000
0000
0000
0000
0000
0000
0000
0000
0000
0000
0000
0000
0000
0000
0000
0000
0000
0000
0000
0000
0000
0000
0000
0000
0000
0000
0000
0000
0000
0000
0000
0000
0000
0000
0000
0000
0000
0000
0000
0000
0000
0000
0000
3001
0000
0000
0000
0000
0000
0000
0000
0000
0000
0000
0000
0000
0000
0000
0000
0000
0000
0000
0000
0100
0000
0000
0000
0000
0000
0000
0000
0000
0000
0000
0000
0000
0000
0000
0000
0000
0000
0000
0001
0000
0000
0000
0000
0000
0000
0000
0000
0000
0000
0000
0000
0000
0000
0000
0000
0000
0000
0000
1000
0000
0000
0000
0000
0000
0000
0000
0000
0000
0000
0000
0000
0000
0000
0000
0000
0000
0000
0000
0000
0100
0000
0000
0000
0000
0000
0000
0000
0000
0000
0000
0000
0000
0000
0000
0000
,  // measure 29
1000
0000
0000
0000
0000
0000
0000
0001
0000
0000
0000
0000
0000
0000
0001
0000
0000
0000
0000
0000
0000
0001
0000
0000
0000
0000
0000
0000
0001
0000
0000
0000
0100
0000
0000
0000
0000
0000
0000
0001
0000
0000
0000
0000
0000
0000
0001
0000
0000
0000
0000
0000
0000
0001
0000
0000
1000
0000
0000
0001
0000
0000
4000
0000
,  // measure 30
0000
0000
0000
0000
,  // measure 31
3001
0000
0000
0000
0000
0000
0000
1000
0000
0000
0000
0000
0000
0000
1000
0000
0000
0000
0000
0000
0000
1000
0000
0000
0000
0000
0000
0000
1000
0000
0000
0000
0100
0000
0000
0000
0000
0000
0000
1000
0000
0000
0000
0000
0000
0000
1000
0000
0000
0000
0000
0000
0000
1000
0000
0000
0000
0000
0000
0000
1000
0000
0000
0000
,  // measure 32
0040
0000
0000
0000
0000
0000
0000
0000
0000
0000
0000
0000
0000
0000
0000
0000
0000
0000
0000
0000
0000
0000
0000
0000
0000
0000
0000
0000
0000
0000
0000
0000
0000
0000
0000
0000
0000
0000
0000
0000
0000
0000
0000
0000
0000
0000
0000
0000
0000
0000
0000
0000
0000
0000
0000
0000
0000
0000
0000
0000
0000
0000
0000
0000
0000
0000
0000
0000
0000
0000
0000
0000
0000
0000
0000
0000
0000
0000
0000
0000
0000
0000
0000
0000
0000
0000
0000
0000
0000
0000
0000
0000
0000
0000
0000
0000
0130
0000
0000
0000
0000
0000
0000
0000
0000
0000
0000
0000
0000
0000
0000
0000
0000
0000
0001
0000
0000
0000
0000
0000
0000
0000
0000
0000
0000
0000
0000
0000
0000
0000
0000
0000
0000
0010
0000
0000
0000
0000
0000
0000
0000
0000
0000
0000
0000
0000
0000
0000
0000
0000
0000
0000
0000
0001
0000
0000
0000
0000
0000
0000
0000
0000
0000
0000
0000
0000
0000
0000
0000
0000
0000
0000
0000
0000
1000
0000
0000
0000
0000
0000
0000
0000
0000
0000
0000
0000
0000
0000
0000
0000
0000
0000
,  // measure 33
0010
0000
0000
0000
0000
0000
0000
0100
0000
0000
0000
0000
0000
0000
0100
0000
0000
0000
0000
0000
0000
0100
0000
0000
0000
0000
0000
0000
0100
0000
0000
0000
M002
0000
0000
0000
0000
0000
0000
0000
0000
0000
0000
0000
0000
0000
0000
0000
M000
0000
0000
0000
0000
0000
0000
0000
0000
0000
0000
0000
0000
0000
0000
0000
,  // measure 34
2003
0000
0000
0000
0000
0000
0000
0000
3100
0000
0010
0000
0001
1000
0000
0000
,  // measure 35
1002
0000
0000
0000
0000
0000
0000
0000
0103
0000
0010
0000
1000
0001
0000
0000
,  // measure 36
2001
0000
0000
0000
0000
0000
0000
0000
3010
0000
0100
0000
0001
1000
0000
0000
,  // measure 37
0100
0100
0100
0010
,  // measure 38
0001
1000
0001
1000
0010
0000
1000
0001
1000
0001
0010
0000
0100
1000
0100
1000
,  // measure 39
0001
0000
0001
1000
0010
0000
0100
0001
0100
0001
1000
0000
0100
0010
0001
0000
,  // measure 40
1000
0010
1000
0010
0100
0000
0001
0010
0001
0010
0100
0000
1000
0001
1000
0001
,  // measure 41
0010
0000
0000
0000
0000
0000
0000
0000
0010
0000
0000
0000
0000
0000
0000
0000
0100
0000
0000
0000
1000
0000
0000
0000
0001
0000
0000
0000
1000
0000
0000
0000
0100
0000
0000
0000
0000
0000
0000
0000
0010
0000
0000
0000
0000
0000
0000
0000
0001
0000
0000
0000
0000
0000
0000
0000
2000
3000
0000
0000
0000
0000
0000
0000
,  // measure 42
0001
0000
1000
0010
1000
0010
1000
0000
0001
0010
0001
0010
0001
1000
0010
0000
,  // measure 43
0100
0000
0001
0010
0001
0010
0001
0000
1000
0010
1000
0010
1000
0001
0010
0000
,  // measure 44
0100
0000
1000
0001
1000
0001
1000
0000
0010
0100
0010
0100
0010
1000
0001
0000
,  // measure 45
2000
0000
0000
0000
0000
0000
0000
0000
3001
0010
0100
1000
0010
0000
1000
0001
,  // measure 46
0100
0001
1000
0000
0001
0100
0002
0000
1003
0100
0010
0100
1000
0000
0002
0000
,  // measure 47
0013
0100
1000
0100
0010
0000
0002
0000
1003
0010
0100
0001
0010
0000
0001
1000
,  // measure 48
0010
1000
0001
0000
0010
0100
0020
0000
0031
1000
0100
0010
0000
0000
0001
0000
,  // measure 49
1000
0000
0000
0000
0010
0000
0000
0000
0000
0000
0000
0000
0100
0000
0000
0000
0001
0000
0000
0000
0000
0000
0000
0000
2000
3000
0000
0000
0000
0000
0000
0000
1001
0000
0000
0000
0000
0000
0000
0000
0000
0000
0000
0000
0000
0000
0000
0000
0001
0000
0000
0000
0000
0000
0000
0000
1000
0000
0000
0000
0010
0000
0000
0000
,  // measure 50
0100
0010
1000
0000
0001
0010
0001
0000
1000
0001
0100
0001
1000
0000
0002
0000
,  // measure 51
1003
0100
0010
0100
1000
0000
0200
0000
0320
0030
0000
0000
0001
0000
1000
0010
,  // measure 52
0000
1000
0001
0000
0010
0001
0000
1000
0100
0000
1000
0001
0000
0100
0001
0000
,  // measure 53
1000
0001
0000
0100
0010
0000
0000
0000
2001
0000
0000
0000
0000
0000
0000
0000
,  // measure 54
0010
3000
0000
0000
0010
0000
0000
0000
,  // measure 55
0010
0000
2000
0000
,  // measure 56
0001
0000
3000
0000
0000
0000
0000
0000
0001
0000
0000
0000
0010
0000
0000
0100
,  // measure 57
0000
0000
0100
0000
1000
0000
0000
0000
0010
0000
0000
0000
0100
0000
0000
0001
,  // measure 58
0000
0000
0001
0000
1000
0001
0000
0000
0100
0000
0000
0000
0010
0000
0000
0100
,  // measure 59
0000
0001
1000
0000
0100
0000
0000
0000
0010
0000
0001
0000
1000
0000
0100
0000
,  // measure 60
1000
0000
0010
0000
0100
0000
0001
0000
0010
0001
0010
0001
1000
0010
1000
0010
,  // measure 61
0200
0000
0000
0000
0301
1000
0001
1000
0400
0000
0000
0000
0000
0000
0000
0000
,  // measure 62
0340
0030
0004
0000
4003
0000
3000
0000
0001
0000
0000
0000
1000
0001
0010
0001
,  // measure 63
0000
1000
0010
1000
0000
0001
0100
0001
0000
1000
0100
1000
0000
0001
1000
0010
,  // measure 64
0000
1000
0001
0010
0000
0001
1000
0100
1000
0100
1000
0100
0010
0001
0010
0001
,  // measure 65
1000
0001
1000
0001
0010
0000
0004
0000
0403
0000
0000
0000
0000
0000
0000
0000
,  // measure 66
0000
0000
0000
0000
0000
0000
0000
0000
0301
1000
0001
0100
0000
0001
1000
0100
,  // measure 67
0000
1000
0001
0010
0000
0001
1000
0010
0000
0100
0010
1000
0000
0100
1000
0010
,  // measure 68
0000
0100
0001
1000
0000
0100
1000
0001
0100
0010
0100
0010
1000
0001
1000
0001
,  // measure 69
0010
0100
0010
0100
1000
0000
0000
0000
0002
0000
0000
0000
0403
0000
0000
0000
,  // measure 70
0300
0000
0001
0000
0000
0000
0000
0000
0000
0000
0000
0000
0000
0000
0000
0000
0000
0000
0000
0000
1000
0000
0000
0000
0000
0000
0000
0000
0000
0000
0000
0000
0000
0000
0000
0000
0000
0000
0000
0400
0000
0000
0000
0000
0000
0000
0000
0000
0000
0000
0000
0000
0000
0000
0000
0000
0000
0000
0000
0000
0000
0000
0000
0000
0000
0000
0000
0000
0000
0000
0000
0000
0300
0000
0000
0000
0000
0000
0000
0000
0000
0000
0000
0000
000M
0000
0000
0000
0000
0000
00M0
0000
0000
0000
0000
0000
1000
0000
0000
0000
0000
0000
0000
0000
0000
0000
0000
0000
0000
0000
0000
0000
0000
0000
0000
0000
0000
0000
0000
0000
0000
0000
0000
0000
0000
0000
0000
0000
0000
0000
0000
0000
0000
0000
0000
0000
0000
0000
0000
0000
0000
0000
0000
0000
0001
0000
0000
0000
0000
0000
0000
0000
0000
0000
0000
0000
1000
0000
0000
0000
0000
0000
0000
0000
0000
0000
0000
0000
0100
0000
0000
0000
0000
0000
0000
0000
0000
0000
0000
0000
0010
0000
0000
0000
0000
0000
0000
0000
0000
0000
0000
0000
,  // measure 71
0000
0001
1000
0010
0000
0100
0001
1000
0000
0100
0010
0001
0000
1000
0010
0100
,  // measure 72
0000
0001
1000
0100
0000
0010
0001
1000
0010
0100
0010
0100
0001
1000
0001
1000
,  // measure 73
0100
0010
0100
0010
0004
0000
1003
0010
0400
0000
0000
0000
0000
0000
0000
0000
,  // measure 74
0000
0000
0000
0000
0000
0000
0000
0000
0301
1000
0010
0001
0000
0001
0010
1000
,  // measure 75
0000
0001
0010
1000
0000
1000
0010
0001
0000
1000
0100
0001
0000
0001
0100
1000
,  // measure 76
0000
0001
0100
1000
0000
1000
0100
0001
1000
0001
0010
0001
1000
0010
1000
0001
,  // measure 77
0100
0001
1000
0100
1000
0000
0000
0000
2000
0000
0000
0000
0000
0000
0000
0000
,  // measure 78
0000
3000
0000
0000
;

//---------------dance-single - BR, BU, FS, RH+, JA, XO--, XMOD----------------
#NOTES:
     dance-single:
     yo i heard you like skittles in your charts (COLON D):
     Challenge:
     18:
     0.868744,1.013725,0.274340,0.259099,1.356459,798.000000,762.000000,36.000000,34.000000,4.000000,0.000000,0.868744,1.013725,0.274340,0.259099,1.356459,798.000000,762.000000,36.000000,34.000000,4.000000,0.000000:
0000
0000
0000
0000
,
0000
0000
0000
0000
,
1001
0000
0000
0000
0011
0000
1000
0010
0000
1000
0001
0000
1010
0001
0000
0000
,
1000
0000
0000
0000
0011
0000
1000
0100
0000
1000
0001
0000
1010
0000
0000
0000
,
0001
0000
0000
0000
1100
0000
0001
0100
0000
0001
1000
0000
0101
1000
0000
0000
,
0001
0000
0000
0000
0000
0000
0000
0000
1010
0000
0000
0000
0001
0000
0010
0000
0000
0000
0001
0000
0100
0000
0000
0000
0022
0033
0000
0000
0000
0000
0000
0000
,
1001
0000
0000
0000
1010
0000
0001
0010
0000
0001
1000
0000
0011
1000
0000
0000
,
0001
0000
0000
0000
1010
0000
0001
0100
0000
0001
1000
0000
0011
0000
0000
0000
,
2000
0000
3000
0000
0101
0000
1000
0100
0000
1000
0001
0000
1100
0001
0000
0000
,
1000
0000
0000
0000
0011
0000
1000
0010
0000
1000
0001
0000
1000
0010
0100
0001
,
1100
0000
0000
0000
0101
0000
1000
0010
0100
0001
0010
0100
1000
0001
0200
0000
,
0310
1000
0001
0010
0100
1000
0002
0000
0103
0010
1000
0001
0010
0000
0200
0000
,
1300
0000
0000
0000
0011
0000
1000
0100
0010
0001
0100
0010
1000
0001
0020
0000
,
0031
0000
0000
0000
1000
0000
0000
0000
0100
0000
0000
0000
0010
0000
0000
0000
0001
0000
0000
0000
0100
0000
0000
0000
0100
0000
0000
0000
1000
0000
0000
0000
0001
0000
0000
0000
0100
0000
0000
0000
0010
0000
0000
0000
1000
0000
0000
0000
0001
0000
0000
0000
0000
0000
0000
0000
2000
3000
0000
0000
0000
0000
0000
0000
,
1001
0000
0000
0000
1100
0000
0001
0010
0100
1000
0010
0100
0001
1000
0200
0000
,
0310
0001
1000
0010
1000
0001
0020
0000
0031
1000
0010
0100
0001
0000
0200
0000
,
0302
0003
0000
0000
0100
0001
1000
0010
1000
0001
0010
0001
1000
0100
1000
0001
,
0100
0001
1000
0100
0010
0001
0100
0010
1000
0001
0010
0100
1000
0000
0000
0000
,
2001
0000
0000
0000
0001
3000
0000
0000
,
0001
0000
0001
0000
,
2000
0000
0000
0000
0100
3000
0000
0000
,
0100
0000
0000
0000
0010
0000
0000
0001
0000
0000
0001
0000
0100
0000
0000
0000
,
0010
0000
0000
0000
1000
0000
0000
0100
0000
0000
0100
0000
0010
0001
0000
0000
,
1000
0000
0000
0000
0010
0000
0000
0100
0000
0001
1000
0000
0100
0000
0000
0000
,
0010
0001
1000
0001
0010
0100
1000
0100
,
0010
0001
1000
0010
0100
0001
1000
0100
0020
0000
0000
0000
0130
1000
0001
0100
,
0010
0000
0000
0000
0000
0000
0000
0000
0000
1000
0000
0000
0000
0000
0000
0000
0000
0000
0001
0000
0000
0000
0000
0000
0000
0000
0000
0010
0000
0000
0000
0000
0000
0000
0000
0000
0100
0000
0000
0000
0000
0000
0000
0000
0000
1000
0000
0000
0000
0000
0000
0000
0000
0000
0000
0001
0000
0000
0000
0000
0000
0000
0000
0000
0000
0000
0000
1000
0000
0000
0000
0000
0000
0000
0000
0000
0000
0000
0000
0000
0000
0000
0100
0000
0000
0000
0000
0000
0000
0000
0000
0000
0000
0000
0000
0000
0000
0000
0010
0000
0000
0000
0000
0000
0000
0000
0000
0000
0000
0000
0000
0000
0000
0000
0000
0000
0001
0000
0000
0000
0000
0000
0000
0000
0000
0000
0000
0000
0000
0000
0000
0000
0000
0000
0000
1000
0000
0000
0000
0000
0000
0000
0000
0000
0000
0000
0000
0000
0000
0000
0000
0000
0000
0000
0000
0010
0000
0000
0000
0000
0000
0000
0000
0000
0000
0000
0000
0000
0000
0000
0000
0000
0000
0000
0000
0000
0100
0000
0000
0000
0000
0000
0000
0000
0000
0000
0000
0000
0000
0000
0000
0000
,
0001
0000
0000
0000
0000
0000
0000
1000
0000
0000
0000
0000
0000
0000
1000
0000
0000
0000
0000
0000
0000
1000
0000
0000
0000
0000
0000
0000
1000
0000
0000
0000
0011
0000
0000
0000
0000
0000
0000
1000
0000
0000
0000
0000
0000
0000
1000
0000
0000
0000
0000
0000
0000
1000
0000
0000
0000
0000
0000
0000
1000
0000
0000
0000
,
0001
0000
0000
0000
0000
0000
0000
0000
0000
0000
0000
0000
0000
0000
1000
0000
0000
0000
0000
0000
0000
0000
0000
0100
0000
0000
0000
0000
0000
0000
0000
0000
0000
0010
0000
0000
0000
0000
0000
0000
0000
0000
0100
0000
0000
0000
0000
0000
0000
0000
0000
0000
0000
0000
1000
0000
0000
0000
0000
0000
0000
0000
0000
0000
0000
0000
0001
0000
0000
0000
0000
0000
0000
0000
0000
0000
0000
0000
0000
0000
0000
1000
0000
0000
0000
0000
0000
0000
0000
0000
0000
0000
0000
0000
0000
0000
0011
0000
0000
0000
0000
0000
0000
0000
0000
0000
0000
0000
0000
0000
0000
0000
0000
0000
0000
0000
0100
0000
0000
0000
0000
0000
0000
0000
0000
0000
0000
0000
0000
0000
0000
0000
0000
0000
0000
0001
0000
0000
0000
0000
0000
0000
0000
0000
0000
0000
0000
0000
0000
0000
0000
0000
0000
0000
0000
1000
0000
0000
0000
0000
0000
0000
0000
0000
0000
0000
0000
0000
0000
0000
0000
0000
0000
0000
0000
0000
0100
0000
0000
0000
0000
0000
0000
0000
0000
0000
0000
0000
0000
0000
0000
0000
,
0010
0000
0000
0000
0000
0000
0000
0001
0000
0000
0000
0000
0000
0000
0001
0000
0000
0000
0000
0000
0000
0001
0000
0000
0000
0000
0000
0000
0001
0000
0000
0000
1100
0000
0000
0000
0000
0000
0000
0001
0000
0000
0000
0000
0000
0000
0001
0000
0000
0000
0000
0000
0000
0001
0000
0000
0010
0000
0000
0001
0000
0000
0010
0000
,
0000
0000
0000
0000
0000
0000
0000
0000
0000
0000
0000
0000
0000
0000
0001
0000
0000
0000
0000
0000
0000
0000
0000
0100
0000
0000
0000
0000
0000
0000
0000
0000
0010
0000
0000
0000
0000
0000
0000
0000
1000
0000
0000
0000
0000
0000
0000
0000
0000
0000
0000
0001
0000
0000
0000
0000
0000
0000
0000
0000
0000
0000
0000
0010
0000
0000
0000
0000
0000
0000
0000
0000
0000
0000
0000
0000
0000
0100
0000
0000
0000
0000
0000
0000
0000
0000
0000
0000
0000
0000
0000
0000
0000
1000
0000
0000
0000
0000
0000
0000
0000
0000
0000
0000
0000
0000
0000
0000
0000
0000
0000
0010
0000
0000
0000
0000
0000
0000
0000
0000
0000
0000
0000
0000
0000
0000
0000
0000
0000
0000
0100
0000
0000
0000
0000
0000
0000
0000
0000
0000
0000
0000
0000
0000
0000
0000
0000
0000
0000
0000
0001
0000
0000
0000
0000
0000
0000
0000
0000
0000
0000
0000
0000
0000
0000
0000
0000
0000
0000
0000
0000
1000
0000
0000
0000
0000
0000
0000
0000
0000
0000
0000
0000
0000
0000
0000
0000
0000
0000
0000
0000
0000
,
0100
0000
0000
0000
0000
0000
0000
0010
0000
0000
0000
0000
0000
0000
0010
0000
0000
0000
0000
0000
0000
0010
0000
0000
0000
0000
0000
0000
0010
0000
0000
0000
0101
0000
0000
0000
0000
0000
0000
0010
0000
0000
0000
0000
0000
0000
0010
0000
0000
0000
0000
0000
0000
0010
0000
0000
0000
0000
0000
0000
0010
0000
0000
0000
,
0001
0000
0000
0000
0000
0000
0000
0000
0000
0000
0000
0000
0000
0000
1000
0000
0000
0000
0000
0000
0000
0000
0000
0010
0000
0000
0000
0000
0000
0000
0000
0000
0000
0100
0000
0000
0000
0000
0000
0000
0000
0000
0010
0000
0000
0000
0000
0000
0000
0000
0000
0000
0000
0000
1000
0000
0000
0000
0000
0000
0000
0000
0000
0000
0000
0001
0000
0000
0000
0000
0000
0000
0000
0000
0000
0000
0000
0000
0000
0010
0000
0000
0000
0000
0000
0000
0000
0000
0000
0000
0000
0000
0000
0000
0000
0000
0101
0000
0000
0000
0000
0000
0000
0000
0000
0000
0000
0000
0000
0000
0000
0000
0000
0000
1000
0000
0000
0000
0000
0000
0000
0000
0000
0000
0000
0000
0000
0000
0000
0000
0000
0000
0000
0010
0000
0000
0000
0000
0000
0000
0000
0000
0000
0000
0000
0000
0000
0000
0000
0000
0000
0000
0000
1000
0000
0000
0000
0000
0000
0000
0000
0000
0000
0000
0000
0000
0000
0000
0000
0000
0000
0000
0000
0000
0001
0000
0000
0000
0000
0000
0000
0000
0000
0000
0000
0000
0000
0000
0000
0000
0000
0000
,
0010
0000
0000
0000
0000
0000
0000
0100
0000
0000
0000
0000
0000
0000
0100
0000
0000
0000
0000
0000
0000
0100
0000
0000
0000
0000
0000
0000
0100
0000
0000
0000
201M
0000
0000
0000
0000
0000
0000
0000
0000
0000
0000
0000
0000
0000
0000
0000
000M
0000
0000
0000
0000
0000
0000
0000
0000
0000
0000
0000
0000
0000
0000
0000
,
3002
0000
0000
0000
0000
0000
0000
0000
0103
0000
1000
0000
0100
0010
0000
0000
,
2010
0000
0000
0000
0000
0000
0000
0000
3100
0000
0001
0000
0100
0010
0000
0000
,
0012
0000
0000
0000
0000
0000
0000
0000
0103
0000
1000
0000
0100
0001
0000
0000
,
0100
0100
0100
0001
,
1000
0001
1000
0100
0010
0000
0001
1000
0001
1000
0010
0000
0100
0001
1000
0100
,
0010
0000
0001
1000
0010
0000
0100
0001
1000
0100
0010
0000
0100
1000
0001
0100
,
0010
1000
0001
0010
0100
0000
0010
0001
1000
0010
1000
0000
0100
0010
0001
1000
,
0010
0000
0000
0000
0000
0000
0000
0000
0100
0000
0000
0000
0000
0000
0000
0000
0001
0000
0000
0000
1000
0000
0000
0000
0100
0000
0000
0000
1000
0000
0000
0000
0001
0000
0000
0000
0010
0000
0000
0000
0100
0000
0000
0000
0000
0000
0000
0000
1000
0000
0000
0000
0000
0000
0000
0000
0002
0003
0000
0000
0000
0000
0000
0000
,
0100
0000
0001
0100
0001
1000
0100
1000
0001
0010
0001
1000
0010
1000
0001
0010
,
0100
0000
1000
0100
1000
0001
0100
0001
1000
0010
0100
0001
1000
0100
0010
0000
,
0001
0000
1000
0010
0100
0001
0010
0100
1000
0001
0100
0010
1000
0100
0010
0002
,
0000
0000
0000
0000
0000
0000
0000
0000
0013
0100
1000
0001
0100
0000
0001
0100
,
0010
1000
0100
0010
0001
1000
0020
0000
0130
0001
1000
0100
0010
0001
2000
0000
,
3010
0100
0001
1000
0001
0000
0200
0000
0310
0001
0010
1000
0100
0000
1000
0010
,
0100
0001
0010
0100
1000
0001
0200
0000
0301
1000
0010
0100
0001
0100
0100
1000
,
0001
0000
0000
0000
0100
0000
0000
0000
0010
0000
0000
0000
0001
0000
0000
0000
0010
0000
0000
0000
0000
0000
0000
0000
0200
0300
0000
0000
0000
0000
0000
0000
1001
0000
0000
0000
0000
0000
0000
0000
0000
0000
0000
0000
0000
0000
0000
0000
1010
0000
0000
0000
0000
0000
0000
0000
0001
0000
0000
0000
0100
0000
0000
0000
,
0010
1000
0100
0010
0001
1000
0020
0000
0130
0001
1000
0100
1000
0001
0200
0000
,
0301
1000
0100
0010
0001
0000
0200
0000
0302
0003
0000
0000
0010
0001
1000
0100
,
1000
0001
0100
0001
1000
0010
1000
0001
0010
0001
1000
0010
0100
0001
0010
0100
,
1000
0001
0100
0010
1000
0000
0000
0000
2001
0000
0000
0000
0000
0000
0000
0000
,
0010
3000
0000
0000
0010
0000
0000
0000
,
0010
0000
2000
0000
,
0001
0000
3000
0000
0000
0000
0000
0000
0001
0000
0000
0000
0010
0000
0000
0100
,
0000
0000
0100
0000
1000
0000
0000
0000
0010
0000
0000
0000
0100
0000
0000
0001
,
0000
0000
0001
0000
1000
0001
0000
0000
0010
0000
0000
0000
0100
0000
0000
1000
,
0000
0001
0100
0000
0010
0000
0000
0000
1000
0000
0001
0000
0100
0000
0001
0000
,
1000
0000
0100
0000
0010
0000
0100
0000
1000
0001
0100
0010
0100
0001
1000
0010
,
0200
0000
0000
0000
0000
0000
0000
0000
0000
0000
0000
0000
0000
0000
0000
0000
0000
0000
0000
0000
0000
0000
0000
0000
0000
0000
0000
0000
0000
0000
0000
0000
0000
0000
0000
0000
0000
0000
0000
0000
0000
0000
0000
0000
0000
0000
0000
0000
0310
0000
0000
0000
0000
0000
0000
0000
0000
0000
0000
0000
1000
0000
0000
0000
0000
0000
0000
0000
0000
0000
0000
0000
0001
0000
0000
0000
0000
0000
0000
0000
0000
0000
0000
0000
0010
0000
0000
0000
0000
0000
0000
0000
0000
0000
0000
0000
0100
0000
0000
0000
0000
0000
0000
0000
0000
1000
0000
0000
0000
0000
0000
0000
0000
0000
0001
0000
0000
0000
0000
0000
0000
0000
0000
0100
0000
0000
0000
0000
0000
0000
0000
0000
0010
0000
0000
0000
0000
0000
0000
0000
0000
1000
0000
0000
0000
0000
0000
0000
0000
0000
0000
0001
0000
0000
0000
0000
0000
0000
0000
0000
0000
0000
0000
1000
0000
0000
0000
0000
0000
0000
0000
0000
0000
0000
0000
0000
0000
0000
0010
0000
0000
0000
0000
0000
0000
0000
0000
0000
0000
0000
0000
0000
,
0400
0300
0004
0000
4003
0000
3000
0000
0001
0000
0000
0000
1000
0100
0100
0100
,
0010
0100
0100
0100
1000
0100
0100
0100
0010
0100
0100
0100
1000
0100
0100
0100
,
0010
0100
0100
0100
1000
0100
0100
0100
0010
0001
1000
0010
0100
0001
0010
0100
,
1000
0001
0100
0010
1000
0000
0004
0000
0403
0000
0000
0000
0000
0000
0000
0000
,
0000
0000
0000
0000
0000
0000
0000
0000
0301
1000
0100
0100
0001
0100
0100
0100
,
0001
1000
0010
0010
0001
0010
0010
0010
0001
1000
0100
0100
0001
0100
0100
0100
,
0001
1000
0010
0010
0001
0010
0010
0010
0001
1000
0100
0010
0100
1000
0010
0100
,
0001
0000
0000
0000
0000
0000
0000
0000
0000
0000
0000
0000
1000
0000
0000
0000
0000
0000
0000
0000
0000
0000
0000
0000
0100
0000
0000
0000
0000
0000
0000
0000
0000
0000
0000
0000
0010
0000
0000
0000
0000
0000
0000
0000
0000
0000
0000
0000
0101
0000
0000
0000
0000
0000
0000
0000
0000
0000
0000
0000
0000
0000
0000
0000
0000
0000
0000
0000
0000
0000
0000
0000
0000
0000
0000
0000
0000
0000
0000
0000
0000
0000
0000
0000
0000
0000
0000
0000
0000
0000
0000
0000
0000
0000
0000
0000
1000
0000
0000
0000
0000
0000
0000
0000
0000
0000
0000
0000
0000
0000
0000
0000
0000
0001
0000
0000
0000
0000
0000
1000
0000
0000
0000
0000
0000
0001
0000
0000
0000
0000
0000
0000
1000
0000
0000
0000
0000
0000
0000
0000
0000
0000
0000
0000
0400
0000
0000
0000
0000
0000
0000
0000
0000
0000
0000
0000
0000
0000
0000
0000
0000
0000
0000
0000
0000
0000
0000
0000
0000
0000
0000
0000
0000
0000
0000
0000
0000
0000
0000
0000
0000
0000
0000
0000
0000
0000
0000
0000
0000
0000
0000
0000
,
0300
0000
1000
0000
0000
0000
0000
0000
0000
0000
0000
0000
0000
0000
0000
0000
0000
0000
0000
0000
0001
0000
0000
0000
0000
0000
0000
0000
0000
0000
0000
0000
0000
0000
0000
0000
0000
0000
0000
0400
0000
0000
0000
0000
0000
0000
0000
0000
0000
0000
0000
0000
0000
0000
0000
0000
0000
0000
0000
0000
0000
0000
0000
0000
0000
0000
0000
0000
0000
0000
0000
0000
0300
0000
0000
0000
0000
0000
0000
0000
0000
0000
0000
0000
M000
0000
0000
0000
0000
0000
00M0
0000
0000
0000
0000
0000
0001
0000
0000
0000
0000
0000
0000
0000
0000
0000
0000
0000
0000
0000
0000
0000
0000
0000
0000
0000
0000
0000
0000
0000
0000
0000
0000
0000
0000
0000
0000
0000
0000
0000
0000
0000
0000
0000
0000
0000
0000
0000
0000
0000
0000
0000
0000
0000
1000
0000
0000
0000
0000
0000
0000
0000
0000
0000
0000
0000
0100
0000
0000
0000
0000
0000
0000
0000
0000
0000
0000
0000
0010
0000
0000
0000
0000
0000
0000
0000
0000
0000
0000
0000
0100
0000
0000
0000
0000
0000
0000
0000
0000
0000
0000
0000
,
1000
0001
0100
0010
1000
0001
0010
0100
0010
0001
1000
0010
0100
0010
1000
0001
,
0010
0100
1000
0001
0100
0010
1000
0001
0010
0001
1000
0010
0100
0001
0010
0100
,
1000
0010
0100
0001
4000
0000
3010
0100
0004
0000
0000
0000
0000
0000
0000
0000
,
0000
0000
0000
0000
0000
0000
0000
0000
1003
0100
0010
0010
1000
0010
0010
0010
,
1000
0010
0100
0100
1000
0100
0100
0100
0010
0001
0100
0100
0010
0100
0100
0100
,
1000
0001
0010
0010
0100
0010
0010
0010
1000
0001
0010
0100
1000
0010
0100
0001
,
0010
0100
1000
0001
1010
0000
0000
0000
0002
0000
0000
0000
0040
0000
0000
0000
,
0000
0033
0000
0000
;

//---------------dance-single - BR, BU, FS, RH+, JA, XO--, XMOD----------------
#NOTES:
     dance-single:
     hee hoo:
     Edit:
     19:
     0.916644,1.192617,0.274340,0.259099,1.516491,842.000000,806.000000,36.000000,34.000000,4.000000,0.000000,0.916644,1.192617,0.274340,0.259099,1.516491,842.000000,806.000000,36.000000,34.000000,4.000000,0.000000:
0000
0000
0000
0000
,
0000
0000
0000
0000
,
1001
0000
0000
0000
0011
0000
1000
0010
0000
1000
0001
0000
1010
0001
0000
0000
,
1000
0000
0000
0000
0011
0000
1000
0100
0000
1000
0001
0000
1010
0000
0000
0000
,
0001
0000
0000
0000
1100
0000
0001
0100
0000
0001
1000
0000
0101
1000
0000
0000
,
0001
0000
0000
0000
0000
0000
0000
0000
1010
0000
0000
0000
0001
0000
0010
0000
0000
0000
0001
0000
0100
0000
0000
0000
0022
0033
0000
0000
0000
0000
0000
0000
,
1001
0000
0000
0000
1010
0000
0001
0010
0000
0001
1000
0000
0011
1000
0000
0000
,
0001
0000
0000
0000
1010
0000
0001
0100
0000
0001
1000
0000
0011
0000
0000
0000
,
2000
0000
3000
0000
0101
0000
1000
0100
0000
1000
0001
0000
1100
0001
0000
0000
,
1000
0000
0000
0000
0011
0000
1000
0010
0000
1000
0001
0000
1000
0010
0100
0001
,
1100
0000
0000
0000
0101
0000
1000
0010
0100
0001
0010
0100
1000
0001
0200
0000
,
0310
1000
0001
0010
0100
1000
0002
0000
0103
0010
1000
0001
0010
0000
0200
0000
,
1300
0000
0000
0000
0011
0000
1000
0100
0010
0001
0100
0010
1000
0001
0020
0000
,
0031
0000
0000
0000
1000
0000
0000
0000
0100
0000
0000
0000
0010
0000
0000
0000
0001
0000
0000
0000
0100
0000
0000
0000
0100
0000
0000
0000
1000
0000
0000
0000
0001
0000
0000
0000
0100
0000
0000
0000
0010
0000
0000
0000
1000
0000
0000
0000
0001
0000
0000
0000
0000
0000
0000
0000
2000
3000
0000
0000
0000
0000
0000
0000
,
1001
0000
0000
0000
1100
0000
0001
0010
0100
1000
0010
0100
0001
1000
0200
0000
,
0310
0001
1000
0010
1000
0001
0020
0000
0031
1000
0010
0100
0001
0000
0200
0000
,
0302
0003
0000
0000
0100
0001
1000
0010
1000
0001
0010
0001
1000
0100
1000
0001
,
0100
0001
1000
0100
0010
0001
0100
0010
1000
0001
0010
0100
1000
0000
0000
0000
,
2001
0000
0000
0000
0001
3000
0000
0000
,
0001
0000
0001
0000
,
2000
0000
0000
0000
0100
3000
0000
0000
,
0100
0000
0000
0000
0010
0000
0000
0001
0000
0000
0001
0000
0100
0000
0000
0000
,
0010
0000
0000
0000
1000
0000
0000
0100
0000
0000
0100
0000
0010
0001
0000
0000
,
1000
0000
0000
0000
0010
0000
0000
0100
0000
0001
1000
0000
0100
0000
0000
0000
,
0010
0001
1000
0001
0010
0100
1000
0100
,
0010
0001
1000
0010
0100
0001
1000
0100
0020
0000
0000
0000
0130
1000
0001
0100
,
0010
0000
0000
0000
0000
0000
0000
0000
0000
1000
0000
0000
0000
0000
0000
0000
0000
0000
0001
0000
0000
0000
0000
0000
0000
0000
0000
0010
0000
0000
0000
0000
0000
0000
0000
0000
0100
0000
0000
0000
0000
0000
0000
0000
0000
1000
0000
0000
0000
0000
0000
0000
0000
0000
0000
0001
0000
0000
0000
0000
0000
0000
0000
0000
0000
0000
0000
1000
0000
0000
0000
0000
0000
0000
0000
0000
0000
0000
0000
0000
0000
0000
0100
0000
0000
0000
0000
0000
0000
0000
0000
0000
0000
0000
0000
0000
0000
0000
0010
0000
0000
0000
0000
0000
0000
0000
0000
0000
0000
0000
0000
0000
0000
0000
0000
0000
0001
0000
0000
0000
0000
0000
0000
0000
0000
0000
0000
0000
0000
0000
0000
0000
0000
0000
0000
1000
0000
0000
0000
0000
0000
0000
0000
0000
0000
0000
0000
0000
0000
0000
0000
0000
0000
0000
0000
0010
0000
0000
0000
0000
0000
0000
0000
0000
0000
0000
0000
0000
0000
0000
0000
0000
0000
0000
0000
0000
0100
0000
0000
0000
0000
0000
0000
0000
0000
0000
0000
0000
0000
0000
0000
0000
,
0001
0000
0000
0000
0000
0000
0000
1000
0000
0000
0000
0000
0000
0000
1000
0000
0000
0000
0000
0000
0000
1000
0000
0000
0000
0000
0000
0000
1000
0000
0000
0000
0011
0000
0000
0000
0000
0000
0000
1000
0000
0000
0000
0000
0000
0000
1000
0000
0000
0000
0000
0000
0000
1000
0000
0000
0000
0000
0000
0000
1000
0000
0000
0000
,
0001
0000
0000
0000
0000
0000
0000
0000
0000
0000
0000
0000
0000
0000
1000
0000
0000
0000
0000
0000
0000
0000
0000
0100
0000
0000
0000
0000
0000
0000
0000
0000
0000
0010
0000
0000
0000
0000
0000
0000
0000
0000
0100
0000
0000
0000
0000
0000
0000
0000
0000
0000
0000
0000
1000
0000
0000
0000
0000
0000
0000
0000
0000
0000
0000
0000
0001
0000
0000
0000
0000
0000
0000
0000
0000
0000
0000
0000
0000
0000
0000
1000
0000
0000
0000
0000
0000
0000
0000
0000
0000
0000
0000
0000
0000
0000
0011
0000
0000
0000
0000
0000
0000
0000
0000
0000
0000
0000
0000
0000
0000
0000
0000
0000
0000
0000
0100
0000
0000
0000
0000
0000
0000
0000
0000
0000
0000
0000
0000
0000
0000
0000
0000
0000
0000
0001
0000
0000
0000
0000
0000
0000
0000
0000
0000
0000
0000
0000
0000
0000
0000
0000
0000
0000
0000
1000
0000
0000
0000
0000
0000
0000
0000
0000
0000
0000
0000
0000
0000
0000
0000
0000
0000
0000
0000
0000
0100
0000
0000
0000
0000
0000
0000
0000
0000
0000
0000
0000
0000
0000
0000
0000
,
0010
0000
0000
0000
0000
0000
0000
0001
0000
0000
0000
0000
0000
0000
0001
0000
0000
0000
0000
0000
0000
0001
0000
0000
0000
0000
0000
0000
0001
0000
0000
0000
1100
0000
0000
0000
0000
0000
0000
0001
0000
0000
0000
0000
0000
0000
0001
0000
0000
0000
0000
0000
0000
0001
0000
0000
0010
0000
0000
0001
0000
0000
0010
0000
,
0000
0000
0000
0000
0000
0000
0000
0000
0000
0000
0000
0000
0000
0000
0001
0000
0000
0000
0000
0000
0000
0000
0000
0100
0000
0000
0000
0000
0000
0000
0000
0000
0010
0000
0000
0000
0000
0000
0000
0000
1000
0000
0000
0000
0000
0000
0000
0000
0000
0000
0000
0001
0000
0000
0000
0000
0000
0000
0000
0000
0000
0000
0000
0010
0000
0000
0000
0000
0000
0000
0000
0000
0000
0000
0000
0000
0000
0100
0000
0000
0000
0000
0000
0000
0000
0000
0000
0000
0000
0000
0000
0000
0000
1000
0000
0000
0000
0000
0000
0000
0000
0000
0000
0000
0000
0000
0000
0000
0000
0000
0000
0010
0000
0000
0000
0000
0000
0000
0000
0000
0000
0000
0000
0000
0000
0000
0000
0000
0000
0000
0100
0000
0000
0000
0000
0000
0000
0000
0000
0000
0000
0000
0000
0000
0000
0000
0000
0000
0000
0000
0001
0000
0000
0000
0000
0000
0000
0000
0000
0000
0000
0000
0000
0000
0000
0000
0000
0000
0000
0000
0000
1000
0000
0000
0000
0000
0000
0000
0000
0000
0000
0000
0000
0000
0000
0000
0000
0000
0000
0000
0000
0000
,
0100
0000
0000
0000
0000
0000
0000
0010
0000
0000
0000
0000
0000
0000
0010
0000
0000
0000
0000
0000
0000
0010
0000
0000
0000
0000
0000
0000
0010
0000
0000
0000
0101
0000
0000
0000
0000
0000
0000
0010
0000
0000
0000
0000
0000
0000
0010
0000
0000
0000
0000
0000
0000
0010
0000
0000
0000
0000
0000
0000
0010
0000
0000
0000
,
0001
0000
0000
0000
0000
0000
0000
0000
0000
0000
0000
0000
0000
0000
1000
0000
0000
0000
0000
0000
0000
0000
0000
0010
0000
0000
0000
0000
0000
0000
0000
0000
0000
0100
0000
0000
0000
0000
0000
0000
0000
0000
0010
0000
0000
0000
0000
0000
0000
0000
0000
0000
0000
0000
1000
0000
0000
0000
0000
0000
0000
0000
0000
0000
0000
0001
0000
0000
0000
0000
0000
0000
0000
0000
0000
0000
0000
0000
0000
0010
0000
0000
0000
0000
0000
0000
0000
0000
0000
0000
0000
0000
0000
0000
0000
0000
0101
0000
0000
0000
0000
0000
0000
0000
0000
0000
0000
0000
0000
0000
0000
0000
0000
0000
1000
0000
0000
0000
0000
0000
0000
0000
0000
0000
0000
0000
0000
0000
0000
0000
0000
0000
0000
0010
0000
0000
0000
0000
0000
0000
0000
0000
0000
0000
0000
0000
0000
0000
0000
0000
0000
0000
0000
1000
0000
0000
0000
0000
0000
0000
0000
0000
0000
0000
0000
0000
0000
0000
0000
0000
0000
0000
0000
0000
0001
0000
0000
0000
0000
0000
0000
0000
0000
0000
0000
0000
0000
0000
0000
0000
0000
0000
,
0010
0000
0000
0000
0000
0000
0000
0100
0000
0000
0000
0000
0000
0000
0100
0000
0000
0000
0000
0000
0000
0100
0000
0000
0000
0000
0000
0000
0100
0000
0000
0000
201M
0000
0000
0000
0000
0000
0000
0000
0000
0000
0000
0000
0000
0000
0000
0000
000M
0000
0000
0000
0000
0000
0000
0000
0000
0000
0000
0000
0000
0000
0000
0000
,
3002
0000
0000
0000
0000
0000
0000
0000
0103
0000
1000
0000
0100
0010
0000
0000
,
2010
0000
0000
0000
0000
0000
0000
0000
3100
0000
0001
0000
0100
0010
0000
0000
,
0012
0000
0000
0000
0000
0000
0000
0000
0103
0000
1000
0000
0100
0001
0000
0000
,
0100
0100
0100
0001
,
1000
0001
1000
0100
0010
0000
0001
1000
0001
1000
0010
0000
0100
0001
1000
0100
,
0010
0000
0001
1000
0010
0000
0100
0001
1000
0100
0010
0000
0100
1000
0001
0100
,
0010
1000
0001
0010
0100
0000
0010
0001
1000
0010
1000
0000
0100
0010
0001
1000
,
0010
0000
0000
0000
0000
0000
0000
0000
0100
0000
0000
0000
0000
0000
0000
0000
0001
0000
0000
0000
1000
0000
0000
0000
0100
0000
0000
0000
1000
0000
0000
0000
0001
0000
0000
0000
0010
0000
0000
0000
0100
0000
0000
0000
0000
0000
0000
0000
1000
0000
0000
0000
0000
0000
0000
0000
0002
0003
0000
0000
0000
0000
0000
0000
,
0100
0000
0001
0100
0001
1000
0100
1000
0001
0010
0001
1000
0010
1000
0001
0010
,
0100
0000
1000
0100
1000
0001
0100
0001
1000
0010
0100
0001
1000
0100
0010
0000
,
0001
0000
1000
0010
0100
0001
0010
0100
1000
0001
0100
0010
1000
0100
0010
0002
,
0000
0000
0000
0000
0000
0000
0000
0000
0013
0100
1000
0001
0100
0000
0001
0100
,
0010
1000
0100
0010
0001
1000
0020
0000
0130
0001
1000
0100
0010
0001
2000
0000
,
3010
0100
0001
1000
0001
0000
0200
0000
0310
0001
0010
1000
0100
0000
1000
0010
,
0100
0001
0010
0100
1000
0001
0200
0000
0301
1000
0100
0010
0001
0100
0100
1000
,
0001
0000
0000
0000
0100
0000
0000
0000
0010
0000
0000
0000
0001
0000
0000
0000
0010
0000
0000
0000
0000
0000
0000
0000
2000
3000
0000
0000
0000
0000
0000
0000
1001
0000
0000
0000
0000
0000
0000
0000
0000
0000
0000
0000
0000
0000
0000
0000
1010
0000
0000
0000
0000
0000
0000
0000
0001
0000
0000
0000
0100
0000
0000
0000
,
0010
1000
0100
0010
0001
1000
0020
0000
0130
0001
1000
0100
1000
0001
0200
0000
,
0301
1000
0100
0010
0001
0000
0200
0000
0302
0003
0000
0000
0010
0001
1000
0100
,
1000
0001
0100
0001
1000
0010
1000
0001
0010
0001
1000
0010
0100
0001
0010
0100
,
1000
0001
0100
0010
1000
0000
0000
0000
2001
0000
0000
0000
0000
0000
0000
0000
,
0010
3000
0000
0000
0010
0000
0000
0000
,
0010
0000
2000
0000
,
0001
0000
3000
0000
0000
0000
0000
0000
0001
0000
0000
0000
0010
0000
0000
0100
,
0000
0000
0100
0000
1000
0000
0000
0000
0010
0000
0000
0000
0100
0000
0000
0001
,
0000
0000
0001
0000
1000
0001
0000
0000
0010
0000
0000
0000
0100
0000
0000
1000
,
0000
0001
0100
0000
0010
0000
0000
0000
1000
0000
0001
0000
0100
0000
0001
0000
,
1000
0000
0100
0000
0010
0000
0100
0000
1000
0001
0100
0010
0100
0001
1000
0010
,
0200
0000
0000
0000
0000
0000
0000
0000
0000
0000
0000
0000
0000
0000
0000
0000
0000
0000
0000
0000
0000
0000
0000
0000
0000
0000
0000
0000
0000
0000
0000
0000
0000
0000
0000
0000
0000
0000
0000
0000
0000
0000
0000
0000
0000
0000
0000
0000
0310
0000
0000
0000
0000
0000
0000
0000
0000
0000
0000
0000
1000
0000
0000
0000
0000
0000
0000
0000
0000
0000
0000
0000
0001
0000
0000
0000
0000
0000
0000
0000
0000
0000
0000
0000
0010
0000
0000
0000
0000
0000
0000
0000
0000
0000
0000
0000
0100
0000
0000
0000
0000
0000
0000
0000
0000
1000
0000
0000
0000
0000
0000
0000
0000
0000
0001
0000
0000
0000
0000
0000
0000
0000
0000
0100
0000
0000
0000
0000
0000
0000
0000
0000
0010
0000
0000
0000
0000
0000
0000
0000
0000
1000
0000
0000
0000
0000
0000
0000
0000
0000
0000
0001
0000
0000
0000
0000
0000
0000
0000
0000
0000
0000
0000
1000
0000
0000
0000
0000
0000
0000
0000
0000
0000
0000
0000
0000
0000
0000
0010
0000
0000
0000
0000
0000
0000
0000
0000
0000
0000
0000
0000
0000
,
0400
0300
0004
0000
4003
0000
3000
0000
0001
0000
0000
0000
1000
0100
0100
0100
,
0010
0100
0100
0100
1000
0100
0100
0100
0010
0100
0100
0100
1000
0100
0100
0100
,
0010
0100
0100
0100
1000
0100
0100
0100
0010
0001
1000
0010
0100
0001
0010
0100
,
1000
0000
0000
0000
0000
0000
0000
0000
0000
0000
0000
0000
0001
0000
0000
0000
0000
0000
0000
0000
0000
0000
0000
0000
0100
0000
0000
0000
0000
0000
0000
0000
0000
0000
0000
0000
0010
0000
0000
0000
0000
0000
0000
0000
0000
0000
0000
0000
1000
0000
0000
0000
0000
0000
0000
0000
0000
0000
0000
0000
0000
0000
0000
0000
0000
0000
0000
0000
0000
0000
0000
0000
0040
0000
0000
0000
0000
0000
0000
0000
0000
0000
0000
0000
0000
0000
0000
0000
0000
0000
0000
0000
0000
0000
0000
0000
1030
0000
0000
0000
0000
0000
0001
0000
0000
0000
0000
0000
0000
1000
0000
0000
0000
0000
0000
0000
0100
0000
0000
0000
0000
0000
0000
0010
0000
0000
0000
0000
0000
0000
0001
0000
0000
0000
0000
0000
0000
1000
0000
0000
0000
0000
0000
0000
0001
0000
0000
0000
0000
0000
0000
0100
0000
0000
0000
0000
0000
0010
0000
0000
0000
0000
0000
0000
1000
0000
0000
0000
0000
0000
0000
0001
0000
0000
0000
0000
0000
0000
0000
1000
0000
0000
0000
0000
0000
0000
0000
0100
0000
0000
0000
0000
,
0000
0000
0000
0000
0010
0000
0000
0000
0000
0000
0000
0000
0000
0001
0000
0000
0000
0000
0000
0000
0000
0000
0000
1000
0000
0000
0000
0000
0000
0000
0000
0000
0000
0010
0000
0000
0000
0000
0000
0000
0000
0000
0000
0000
0100
0000
0000
0000
0000
0000
0000
0000
0000
0000
0000
0001
0000
0000
0000
0000
0000
0000
0000
0000
0000
0000
1000
0000
0000
0000
0000
0000
0000
0000
0000
0000
0000
0000
0100
0000
0000
0000
0000
0000
0000
0000
0000
0010
0000
0000
0000
0000
0000
0000
0000
0000
0001
0000
0000
0000
0000
0000
0000
0000
0000
0000
0000
0000
1000
0000
0000
0000
0000
0000
0000
0000
0000
0000
0000
0000
0100
0000
0000
0000
0000
0000
0000
0000
0000
0000
0000
0000
0100
0000
0000
0000
0000
0000
0000
0000
0000
0000
0000
0000
0001
0000
0000
0000
0000
0000
0000
0000
0000
0000
0000
0000
0100
0000
0000
0000
0000
0000
0000
0000
0000
0000
0000
0000
0100
0000
0000
0000
0000
0000
0000
0000
0000
0000
0000
0000
0100
0000
0000
0000
0000
0000
0000
0000
0000
0000
0000
0000
,
0001
1000
0010
0010
0001
0010
0010
0010
0001
1000
0100
0100
0001
0100
0100
0100
,
0001
1000
0010
0010
0001
0010
0010
0010
0001
1000
0100
0010
0100
1000
0010
0100
,
0001
0000
0000
0000
0000
0000
0000
0000
0000
0000
0000
0000
1000
0000
0000
0000
0000
0000
0000
0000
0000
0000
0000
0000
0100
0000
0000
0000
0000
0000
0000
0000
0000
0000
0000
0000
0010
0000
0000
0000
0000
0000
0000
0000
0000
0000
0000
0000
0101
0000
0000
0000
0000
0000
0000
0000
0000
0000
0000
0000
0000
0000
0000
0000
0000
0000
0000
0000
0000
0000
0000
0000
0000
0000
0000
0000
0000
0000
0000
0000
0000
0000
0000
0000
0000
0000
0000
0000
0000
0000
0000
0000
0000
0000
0000
0000
1000
0000
0000
0000
0000
0000
0000
0000
0000
0000
0000
0000
0000
0000
0000
0000
0000
0001
0000
0000
0000
0000
0000
1000
0000
0000
0000
0000
0000
0001
0000
0000
0000
0000
0000
0000
1000
0000
0000
0000
0000
0000
0000
0000
0000
0000
0000
0000
0400
0000
0000
0000
0000
0000
0000
0000
0000
0000
0000
0000
0000
0000
0000
0000
0000
0000
0000
0000
0000
0000
0000
0000
0000
0000
0000
0000
0000
0000
0000
0000
0000
0000
0000
0000
0000
0000
0000
0000
0000
0000
0000
0000
0000
0000
0000
0000
,
0300
0000
1000
0000
0000
0000
0000
0000
0000
0000
0000
0000
0000
0000
0000
0000
0000
0000
0000
0000
0001
0000
0000
0000
0000
0000
0000
0000
0000
0000
0000
0000
0000
0000
0000
0000
0000
0000
0000
0400
0000
0000
0000
0000
0000
0000
0000
0000
0000
0000
0000
0000
0000
0000
0000
0000
0000
0000
0000
0000
0000
0000
0000
0000
0000
0000
0000
0000
0000
0000
0000
0000
0300
0000
0000
0000
0000
0000
0000
0000
0000
0000
0000
0000
M000
0000
0000
0000
0000
0000
00M0
0000
0000
0000
0000
0000
0001
0000
0000
0000
0000
0000
0000
0000
0000
0000
0000
0000
0000
0000
0000
0000
0000
0000
0000
0000
0000
0000
0000
0000
0000
0000
0000
0000
0000
0000
0000
0000
0000
0000
0000
0000
0000
0000
0000
0000
0000
0000
0000
0000
0000
0000
0000
0000
1000
0000
0000
0000
0000
0000
0000
0000
0000
0000
0000
0000
0100
0000
0000
0000
0000
0000
0000
0000
0000
0000
0000
0000
0010
0000
0000
0000
0000
0000
0000
0000
0000
0000
0000
0000
0100
0000
0000
0000
0000
0000
0000
0000
0000
0000
0000
0000
,
1000
0001
0100
0010
1000
0001
0010
0100
0010
0001
1000
0010
0100
0010
1000
0001
,
0010
0100
1000
0001
0100
0010
1000
0001
0010
0001
1000
0010
0100
0001
0010
0100
,
1000
0000
0000
0000
0000
0000
0000
0000
0000
0000
0000
0000
0010
0000
0000
0000
0000
0000
0000
0000
0000
0000
0000
0000
0100
0000
0000
0000
0000
0000
0000
0000
0000
0000
0000
0000
0001
0000
0000
0000
0000
0000
0000
0000
0000
0000
0000
0000
4000
0000
0000
0000
0000
0000
0000
0000
0000
0000
0000
0000
0000
0000
0000
0000
0000
0000
0000
0000
0000
0000
0000
0000
3010
0000
0000
0000
0000
0000
0000
0000
0000
0000
0000
0000
0100
0000
0000
0000
0000
0000
0000
0000
0000
0000
0000
0000
0001
0000
0000
0000
0000
0000
1000
0000
0000
0000
0000
0000
0000
0100
0000
0000
0000
0000
0000
0000
0010
0000
0000
0000
0000
0000
0000
0001
0000
0000
0000
0000
0000
0000
1000
0000
0000
0000
0000
0000
0000
0001
0000
0000
0000
0000
0000
0000
0100
0000
0000
0000
0000
0000
0000
0010
0000
0000
0000
0000
0000
1000
0000
0000
0000
0000
0000
0000
0001
0000
0000
0000
0000
0000
0000
1000
0000
0000
0000
0000
0000
0000
0000
0001
0000
0000
0000
0000
0000
0000
0000
0010
0000
0000
0000
0000
,
0000
0000
0000
0000
0100
0000
0000
0000
0000
0000
0000
0000
0000
1000
0000
0000
0000
0000
0000
0000
0000
0000
0000
0001
0000
0000
0000
0000
0000
0000
0000
0000
0000
0100
0000
0000
0000
0000
0000
0000
0000
0000
0000
0000
0010
0000
0000
0000
0000
0000
0000
0000
0000
0000
0000
1000
0000
0000
0000
0000
0000
0000
0000
0000
0000
0000
0001
0000
0000
0000
0000
0000
0000
0000
0000
0000
0000
0000
0010
0000
0000
0000
0000
0000
0000
0000
0000
0100
0000
0000
0000
0000
0000
0000
0000
0000
1000
0000
0000
0000
0000
0000
0000
0000
0000
0000
0000
0000
0100
0000
0000
0000
0000
0000
0000
0000
0000
0000
0000
0000
0010
0000
0000
0000
0000
0000
0000
0000
0000
0000
0000
0000
0010
0000
0000
0000
0000
0000
0000
0000
0000
0000
0000
0000
1000
0000
0000
0000
0000
0000
0000
0000
0000
0000
0000
0000
0010
0000
0000
0000
0000
0000
0000
0000
0000
0000
0000
0000
0010
0000
0000
0000
0000
0000
0000
0000
0000
0000
0000
0000
0010
0000
0000
0000
0000
0000
0000
0000
0000
0000
0000
0000
,
1000
0010
0100
0100
1000
0100
0100
0100
0010
0001
0100
0100
0010
0100
0100
0100
,
1000
0001
0010
0010
0100
0010
0010
0010
1000
0001
0010
0100
1000
0010
0100
0001
,
0010
0100
1000
0001
1010
0000
0000
0000
0002
0000
0000
0000
0040
0000
0000
0000
,
0000
0033
0000
0000
;
