#TITLE:雷切-RAIKIRI-;
#SUBTITLE:;
#ARTIST:kanone;
#TITLETRANSLIT:RAIKIRI;
#SUBTITLETRANSLIT:;
#ARTISTTRANSLIT:;
#GENRE:;
#CREDIT:;
#BANNER:RAIKIRI.png;
#BACKGROUND:RAIKIRI-bg.png;
#LYRICSPATH:;
#CDTITLE:cdtitle.png;
#MUSIC:RAIKIRI.ogg;
#OFFSET:0.728000;
#SAMPLESTART:101.089996;
#SAMPLELENGTH:15.000000;
#SELECTABLE:YES;
#BPMS:0.000000=165.000000
;
#STOPS:
;
#BGCHANGES:2.000=RAIKIRI.mp4=1.000=0=0=0=StretchNoLoop====,
99999=-nosongbg-=1.000=0=0=0 // don't automatically add -songbackground-
;
#KEYSOUNDS:;
#ATTACKS:;

//---------------dance-single - MEGAtive----------------
#NOTES:
     dance-single:
     :
     Beginner:
     5:
     0.196365,0.307603,0.111450,0.423512,0.029720,185.000000,170.000000,15.000000,57.000000,0.000000,0.000000,0.196365,0.307603,0.111450,0.423512,0.029720,185.000000,170.000000,15.000000,57.000000,0.000000,0.000000:
0000
0000
0000
0000
,
0000
0000
0000
0000
,
0000
0000
0000
0000
,
0002
0000
0000
0003
,
2000
0000
0000
3000
,
0020
0000
0000
0030
,
0200
0000
0000
0000
,
0302
0000
0000
0000
0000
0000
0000
0003
0000
0000
0000
0000
1000
0000
0000
0000
,
2000
0000
0000
0000
,
3200
0000
0000
0000
,
0320
0000
0002
0033
,
1000
1000
0010
0000
,
1000
1000
0001
0000
,
1000
1000
0100
0000
,
0010
0010
0020
0000
,
0032
0000
0203
0000
,
0320
0000
2030
0000
,
3002
0000
0000
0000
,
2000
0000
0000
3003
,
2000
0000
3001
0001
,
0010
0000
0100
0100
,
0010
0000
0001
0001
,
1000
0000
0010
0010
,
0020
0030
1000
1000
,
0010
0000
1000
1000
,
0100
0000
0010
0000
,
2002
0000
0000
0000
,
3003
1001
0001
1000
,
0010
0000
0100
0100
,
0010
0000
1000
1000
,
0001
0000
0010
0010
,
0200
0300
0010
0010
,
0001
0000
1000
1000
,
0020
0000
0000
0000
,
2030
0000
0000
0002
0000
3003
0000
0000
,
0001
0000
0001
0000
,
1000
0000
1000
0000
,
0010
0010
0010
0000
,
0100
0100
0100
0000
,
0001
0000
0001
0000
,
0010
0000
0010
0000
,
0100
0100
0100
0000
,
1000
1000
2000
3000
,
0002
0000
0000
0000
,
0203
0000
0000
0000
,
0310
0010
0010
0000
,
1000
1000
2000
0000
,
3002
0000
0000
0000
,
0023
0000
0000
0030
,
2001
0000
0000
0000
,
0000
0000
0000
0000
,
3002
0000
0000
0000
,
0000
0000
0000
0000
,
0003
0000
0000
0000
,
2001
0000
0000
0000
,
3200
0000
0000
0000
,
0320
0000
0000
0000
,
0032
0000
0000
0000
,
1003
0000
0000
0000
0000
0000
0000
1000
0000
0000
0000
0000
0000
0000
0000
0000
,
0001
0000
0000
0000
0000
0000
0000
0001
0000
0000
0000
0000
0000
0000
0000
0000
,
0010
0000
0000
0000
0000
0000
0000
0010
0000
0000
0000
0000
0000
0000
0000
0000
,
0000
2002
0000
0000
0000
3003
0000
0000
,
0220
0000
0000
0000
0000
0330
0000
0000
,
2002
0000
0000
0000
0000
3003
0000
0000
,
0220
0000
0000
0000
0000
0330
0000
0000
,
2002
0000
0000
0000
0000
0000
0000
3003
0000
0000
0000
0000
0000
0000
0000
0000
,
2000
0000
0000
0000
,
3020
0000
0000
0000
,
0230
0000
0000
0000
,
0301
0000
0000
0000
,
1000
1000
0001
0001
,
0100
0000
0010
0000
,
0100
0100
0001
0001
,
0010
0000
0000
0000
0000
0000
0000
0110
0000
0000
0000
0000
0000
0000
0000
0000
,
0000
1000
1000
0001
,
0001
0000
0100
0000
,
0010
0010
1000
1000
,
0002
0000
0000
0000
,
1003
1000
1000
0100
,
0100
0000
0010
0000
,
0001
0001
0001
1000
,
1000
0000
0000
0000
0000
0000
0000
1001
0000
0000
0000
0000
0000
0000
0000
0000
,
0001
0001
0001
0100
,
0100
0000
0110
0000
,
2001
0000
3002
0000
,
0013
0000
0000
0000
0000
0000
0000
0110
0000
0000
0000
0000
0000
0000
0000
0000
,
2001
0000
0000
0000
,
3200
0000
0000
0000
,
0320
0000
0000
0000
,
0032
0000
0000
0000
,
2000
0000
0000
0000
,
0000
0000
0000
0000
,
3003
0000
0000
0000
;

//---------------dance-single - MEGAtive----------------
#NOTES:
     dance-single:
     :
     Easy:
     9:
     0.375747,0.478494,0.170891,0.364071,0.089160,354.000000,331.000000,23.000000,49.000000,0.000000,0.000000,0.375747,0.478494,0.170891,0.364071,0.089160,354.000000,331.000000,23.000000,49.000000,0.000000,0.000000:
0000
0000
0000
0000
,
0000
0000
0000
0000
,
0000
0000
0000
0000
,
1000
0000
0000
0000
0000
0000
0000
2000
0000
0000
0000
0000
0000
0000
0000
0000
,
3001
0000
0000
0000
0000
0000
0000
0002
0000
0000
0000
0000
0000
0000
0000
0000
,
0013
0000
0000
0000
0000
0000
0000
0020
0000
0000
0000
0000
0000
0000
0000
0000
,
0130
0000
0000
0000
0000
0000
0000
0200
0000
0000
0000
0000
0000
0000
0000
0000
,
2300
0000
0000
0000
0010
0000
0000
3010
0000
0000
0000
0000
0100
0000
0000
0000
,
0001
0010
0100
1000
,
0001
0000
0000
0001
0000
0000
0001
0000
0000
0001
0000
0000
0002
0000
0000
0000
,
1003
0000
0001
0100
0002
0000
0003
0000
,
1000
0000
1000
0000
0001
0010
0001
0000
,
1000
0010
1000
0000
0001
0000
0001
0010
,
0100
0000
0100
0000
0010
0001
0010
0000
,
0001
0000
0100
0000
0001
0000
0000
0000
1000
0000
0000
1000
0000
0000
0000
0000
,
0100
0010
0001
0000
1000
0100
0010
0000
,
0001
1001
0100
0110
,
2001
0000
0020
3030
,
0100
0000
0000
0100
0000
0000
0100
0000
0000
0100
0000
0000
0000
0000
0000
0000
,
1001
0000
1000
0000
0100
0000
0010
0001
,
0010
0100
0100
1000
,
0001
0000
0001
0000
0100
0000
0010
1000
,
0010
0000
0110
0000
1000
0001
1000
0000
,
0200
0000
0310
0000
0010
0000
0100
1000
,
0100
0010
0001
0100
,
0010
0000
0010
0000
1000
0000
0001
0100
,
0002
0000
0000
0000
,
1003
0100
1000
0000
0001
0000
0010
0000
,
0100
0000
1000
0000
0010
0000
0100
0010
,
0100
0001
1000
0010
,
0100
1001
0001
1001
,
2000
0000
3100
0000
0010
0000
0001
1000
,
0001
0100
0010
1000
,
0001
0010
0100
0000
0010
0100
1000
0000
,
2002
0000
3003
0220
0000
0330
0000
0000
,
1000
1000
0001
0001
,
0010
0010
0100
0100
,
1000
0000
0001
0100
0001
0000
1000
0000
,
0100
0000
0010
0001
0010
0000
0100
0000
,
1000
1000
0010
0010
,
0100
0100
0001
0001
,
1000
0010
1000
0000
0001
0000
1000
0100
,
1000
0000
0001
0000
0100
0010
0100
0000
,
2001
0000
0000
0000
3020
0000
0130
0001
,
0020
0000
0000
0000
0230
0000
0310
0001
,
1000
1001
0001
1001
,
0100
0110
2001
0000
,
3001
0010
0001
0000
1000
0000
0010
0000
,
0100
0001
0100
0000
0010
0000
1000
0000
,
0002
0000
0000
0000
,
0000
0000
0000
0000
,
0020
0000
0000
0000
,
0000
0000
0000
0000
,
0033
0000
0000
0000
,
2001
0000
0000
0000
,
3200
0000
0000
0000
,
0320
0000
0032
0000
,
0203
0000
0000
0300
,
1001
1000
0000
0010
,
0110
0100
0000
0001
,
1001
1000
0000
0100
,
0000
0000
0100
0000
1000
0000
0000
1000
0000
0000
1000
0000
0001
0000
0000
0000
,
0200
0000
0000
0000
0010
0000
0000
0010
0000
0000
0310
0000
0000
0000
0000
0000
,
2000
0000
0000
0000
0001
0000
0000
0001
0000
0000
3001
0000
0000
0000
0000
0000
,
0020
0000
0000
0000
0100
0000
0000
0100
0000
0000
0130
0000
0000
0000
0000
0000
,
2000
0000
0000
0000
0001
0000
0000
3001
0000
0000
0000
0000
0000
0000
0000
0000
,
0001
0000
0000
0001
0000
0000
0001
0000
0000
0001
0000
0000
0002
0000
0000
0000
,
1003
0000
0000
1000
0000
0000
1000
0000
0000
1000
0000
0000
2000
0000
0000
0000
,
3010
0000
0010
0000
0100
0001
1000
0000
,
0100
0000
0000
0100
0000
0000
0010
0000
0000
0010
0000
0000
0000
0000
0000
0000
,
1001
0000
0001
0000
0100
0000
0010
1000
,
0001
0000
1000
0000
0100
0000
0010
0001
,
0010
0000
0100
0000
1000
0000
0001
0100
,
0020
0000
0000
0000
0100
0000
0000
0130
0000
0000
0000
0000
0002
0000
0000
0000
,
0003
0000
1001
0000
1000
0000
0100
0010
,
0100
0000
1000
0000
0001
0000
0100
0010
,
0100
0000
0001
0000
0010
0000
0100
1000
,
0020
0000
0030
0110
,
1001
0000
0001
0010
0001
0000
1000
0010
,
1000
0000
0100
0000
0100
0000
0010
0001
,
1000
0000
1000
0010
1000
0000
0001
0010
,
0002
0000
0000
0000
1000
0000
0000
1003
0000
0000
0000
0000
0020
0000
0000
0000
,
1030
0000
1000
0001
1000
0000
0100
0010
,
0200
1000
1300
0001
,
0100
0010
0100
0000
0001
1000
0001
0000
,
0020
0000
0000
0000
0100
0000
0000
0130
0000
0000
0000
0000
0000
0000
0000
0000
,
2001
0000
3020
0000
,
0230
0000
0302
0000
,
0023
0000
0230
0000
,
0320
0000
0000
0000
,
0002
0000
0000
0000
,
0000
0000
0000
0000
,
0033
0000
0000
0000
;

//---------------dance-single - MEGAtive----------------
#NOTES:
     dance-single:
     :
     Medium:
     13:
     0.650658,0.717741,0.200611,0.534962,0.375216,613.000000,586.000000,27.000000,72.000000,0.000000,0.000000,0.650658,0.717741,0.200611,0.534962,0.375216,613.000000,586.000000,27.000000,72.000000,0.000000,0.000000:
0000
0000
0000
0000
,
0000
0000
0000
0000
,
0000
0000
0000
0000
,
1000
0000
0100
0000
0020
0000
0000
0001
0000
0000
0031
0000
0100
0000
0000
0000
,
0001
0000
1000
0000
0020
0000
0000
0100
0000
0000
0130
0000
0001
0000
0000
0000
,
0100
0000
0001
0000
0020
0000
0000
0100
0000
0000
0130
0000
1000
0000
0000
0000
,
0100
0000
1000
0000
0002
0000
0000
0100
0000
0000
0103
0000
0010
0000
0000
0000
,
1000
0000
1000
0000
0001
0010
0000
0020
0000
0000
0100
0000
0130
0000
0000
0000
,
1001
0000
1000
0010
0100
0100
0001
0000
,
1000
0100
0000
1000
0100
0000
0010
0001
0000
0010
0001
0000
0200
0000
0000
0000
,
0310
0010
1000
0001
1000
0100
0020
0000
,
0130
1000
0001
1000
0010
0100
0002
0000
,
0103
0010
1000
0001
1000
0100
0020
0000
,
0130
1000
0001
0100
0010
1000
0200
0000
,
0310
0000
0001
0000
1000
0000
0001
0000
0100
0000
0000
1010
0000
0000
0000
0000
,
1000
0000
0001
0000
0010
0000
0100
0000
1000
0000
0000
1000
0000
0000
0001
0000
,
0100
0010
0100
0010
1000
0001
1000
0001
0010
0100
0010
0100
,
2000
0000
3002
0000
,
1003
0010
0000
0010
1000
0000
0001
0010
0000
0010
0001
0000
1000
0000
0000
0000
,
1002
0000
0013
0100
1000
0002
0103
0020
,
0130
0001
1000
0100
0010
0001
0200
0000
,
0310
1000
0001
1000
0100
0020
0031
2000
,
3001
0000
0100
0010
0200
0000
0000
0001
0000
0301
0010
0001
0000
1000
0010
0000
,
2000
0000
3010
0100
0001
0020
0130
2000
,
3100
0010
0001
0100
0010
1000
0020
0000
,
0130
0001
1000
0100
0010
0002
0013
0200
,
2300
0000
0000
0000
3001
0100
0010
0100
,
0001
0001
0001
1000
0100
0020
1030
0020
,
0031
0100
0010
1000
0100
0001
0200
0000
,
0310
0001
0100
0020
0031
0020
0130
0001
,
1000
0000
0100
0010
0200
0000
0000
1000
0000
1300
0010
1000
0000
0001
0010
0000
,
0200
0000
0310
0001
1000
0020
0031
0020
,
0130
0001
1000
0100
0001
0100
2000
0000
,
3010
0100
0001
0010
0100
0001
0100
1000
,
0001
1000
0001
1000
0000
0000
0010
0100
0010
0100
0000
0000
0002
0000
0000
0000
,
1003
0000
1000
0100
0010
0100
1000
0001
,
0100
0000
0100
0010
1000
0010
0100
0001
,
0010
0011
1000
1010
,
0001
0000
0101
0000
1000
0100
0010
0001
,
0100
0000
0100
0010
0100
0001
1000
0100
,
0010
0000
0010
0100
0010
0001
1000
0010
,
0100
0000
0101
0000
1000
0000
1000
0100
,
0010
0100
1000
0001
0100
0000
1010
0000
,
0001
0000
0020
0000
0000
0100
0000
0100
0000
0001
0000
0031
1000
0000
0010
0000
,
0100
0000
0000
0100
0001
0000
0020
0000
0000
0100
0000
0130
0010
0000
0001
0000
,
1000
0010
0100
1000
0100
0010
1000
0001
,
0010
0100
0001
0100
0020
0000
0000
0030
,
0011
0000
0000
1001
0000
0000
1000
0010
0000
0010
0100
0000
0001
0000
1000
0000
,
1100
0000
0000
0100
1000
0000
0010
0000
0001
0000
1000
0000
0100
0000
0010
0000
,
0210
0000
0001
0001
,
0000
0000
0010
0000
,
0302
0000
1000
0010
,
0000
0000
0010
0000
,
1003
0000
0000
0001
,
1001
0000
1000
0100
0010
0000
0100
1000
,
0010
0000
0100
0001
0010
0000
0100
0000
,
0011
0000
0001
0100
0010
0000
0100
0001
,
0020
0000
0130
0100
,
1001
0000
0000
0000
1020
0000
0000
0100
0000
0130
0000
0000
1001
0000
0000
0000
,
0011
0000
0000
0000
1200
0000
0000
0010
0000
0310
0000
0000
1001
0000
0000
0000
,
1010
0000
0000
0000
0201
0000
0000
0010
0000
0310
0000
0000
2002
0000
0000
0000
,
3003
0000
1000
0000
1000
0100
0000
0001
0000
0000
0100
0000
1000
0000
0001
0000
,
0020
0000
0000
0000
0130
1000
0000
0010
0000
0010
0200
0000
0000
0000
0000
0000
,
0302
0000
0000
0000
1003
0010
0000
0010
0000
0100
0001
0000
0020
0000
0000
0000
,
0230
0000
0000
0000
1300
0001
0000
0010
0000
0010
0200
0000
0000
0000
0000
0000
,
2300
0000
0000
0000
3001
0100
0000
0220
0000
0000
0000
0000
0000
0000
0330
0000
,
0010
1000
0001
0010
0100
0001
0100
1000
,
0001
0100
0010
0001
0010
1000
0002
0000
,
1003
0100
0001
1000
0010
0001
0100
0010
,
1000
0001
0000
0001
1000
0000
0100
0010
0000
0010
0100
0000
2000
0000
0000
0000
,
3001
0000
0100
0000
0010
0000
1000
0200
0000
0000
0310
0000
0100
0000
0010
0000
,
0001
0000
0001
0000
0100
0010
0000
2000
0000
0000
3010
0000
0010
0000
0100
0000
,
0001
0000
1000
0000
0100
0010
0000
0100
0010
0000
0001
0000
1000
0000
0010
0000
,
0100
0000
0100
0000
0100
0010
0000
2001
0000
0000
0000
0000
3100
0000
0010
0000
,
0002
0000
0000
0000
0103
0000
0010
2000
0000
0000
3001
0000
0010
0000
0001
0000
,
1000
0000
0100
0000
0010
0001
0000
2000
0000
0000
3010
0000
0010
0000
0100
0000
,
0001
0000
0100
0010
0100
0000
0001
0000
0001
0000
0010
0000
1000
0000
0010
0000
,
0001
0000
0001
0000
0001
0100
0000
0100
0000
0000
0010
0000
2001
0000
0000
0000
,
3100
0000
0010
0000
0001
1000
0001
0000
0100
0000
0010
0000
1000
0001
1000
0000
,
0100
0000
0100
0000
0010
0001
0000
1000
0020
0000
0000
0000
0130
0000
0010
0000
,
1000
1000
0010
0100
0001
0010
1000
0001
,
0100
0000
0100
0000
0100
0010
0000
0002
0000
0000
0000
0000
1003
0000
1000
0000
,
0010
0000
0100
0000
0001
1000
0001
0000
0010
0000
0100
0000
1000
0001
1000
0000
,
0010
0000
0010
0000
0100
0001
0100
0001
2000
0000
0000
0000
3100
0000
0010
0000
,
0001
0001
0100
0010
1000
0100
0001
1000
,
0010
0000
0010
0000
0010
0100
0000
2000
0000
0000
0000
0000
3010
0000
0000
0000
,
1001
0000
1000
0010
0100
0000
0001
0000
,
1000
0100
0010
0000
0100
0000
1000
0001
,
0001
0000
0100
0010
1000
0000
0001
0000
,
1000
0000
0100
0000
1000
0000
0001
0000
0100
0000
0020
0000
,
2000
0000
0000
0000
,
0000
0000
0000
0000
,
3030
0000
0000
0000
;

//---------------dance-single - MEGAtive----------------
#NOTES:
     dance-single:
     :
     Hard:
     16:
     0.847023,0.991166,0.245191,0.423512,0.861883,798.000000,765.000000,33.000000,57.000000,0.000000,0.000000,0.847023,0.991166,0.245191,0.423512,0.861883,798.000000,765.000000,33.000000,57.000000,0.000000,0.000000:
0000
0000
0000
0000
,
0000
0000
0000
0000
,
0000
0000
0000
0000
,
1000
0000
1000
0000
0010
0100
0000
0002
0000
0000
0010
0000
0010
0000
0013
0000
,
0001
0000
0001
0000
0010
0100
0000
2000
0000
0000
0010
0000
0010
0000
3010
0000
,
0100
0000
0100
0000
0001
0010
0000
0020
0000
0000
0100
0000
0130
0000
1000
0000
,
0010
0000
0010
0000
0100
0001
0000
0002
0000
0000
1000
0000
1003
0000
0100
0000
,
0010
0001
0010
0000
0100
0010
0000
0110
0000
0000
1001
0000
1000
0000
0010
0000
,
0100
0000
0100
0000
0001
0010
0000
0010
0001
0000
0001
0000
0100
0000
0010
0000
,
1000
0001
0000
0001
1000
0000
0100
0010
0000
0010
0100
0000
2000
0000
0000
0000
,
3010
0100
0010
0100
0010
0000
1000
0000
0001
0010
0100
1000
0002
0000
0000
0000
,
1003
1000
0010
0100
1000
1000
0100
0010
,
1000
0000
1000
0000
0100
0000
0010
0000
0001
0000
1000
0010
1000
0000
0001
0010
,
0001
0001
0010
0100
0001
0001
0100
0010
,
0001
0000
0001
0000
0100
0000
0010
0000
1000
0000
0000
1001
0000
0000
0000
0000
,
0001
0000
0010
0000
0100
0000
1000
0000
0001
0000
0000
0101
0000
0000
1000
0000
,
1000
0100
1000
0001
0100
0010
1000
0001
0010
0100
1000
0001
,
0200
0000
0000
0000
0000
0000
0020
0000
0000
0000
0330
0000
,
0100
0010
0000
1000
0001
0000
0010
0100
0000
1000
0001
0000
1000
0000
0000
0000
,
2100
0000
0000
0000
3001
0000
0100
0010
0100
0000
2000
0000
3100
0000
0002
0000
,
0013
0000
0100
0000
0100
0000
0010
0001
0010
0000
0100
0000
1000
0010
1000
0000
,
0002
0000
0100
0000
1003
0010
0000
0010
1000
0000
0001
0000
0010
0000
1000
0000
,
0001
0000
0100
0010
0100
0000
1000
0001
0000
0100
0010
0100
0000
0010
1000
0001
,
0020
0000
0000
0000
0031
0000
1000
0100
1000
0000
0200
0000
0301
0000
0200
0000
,
1300
0000
0010
0000
0100
0000
0001
0010
0001
0000
1000
0000
0100
0010
0100
0000
,
2000
0000
0100
0000
3001
0010
0000
0010
0001
0000
0100
0000
0010
0000
0001
0010
,
2000
0000
0000
0000
0000
0000
0000
0000
3100
0000
0010
0000
0010
0001
0010
0001
,
0100
0100
1001
0001
0010
2000
3010
0002
,
0103
0000
1000
0000
1000
0000
0100
0010
0100
0000
0001
0000
1000
0000
0100
0000
,
0020
0000
0001
0000
0130
1000
0000
1000
0100
0000
0001
0000
0100
0000
0010
0000
,
0001
0000
0100
0010
0100
0000
0001
1000
0000
0100
0010
0100
0000
0100
1000
0001
,
0200
0000
0000
0000
0310
0000
1000
0001
1000
0000
0200
0000
0301
0000
0200
0000
,
1300
0000
0010
0000
0100
0000
1000
0000
0100
0000
0001
0000
0010
0100
0010
0000
,
0001
1000
0020
0000
0130
0001
2000
0000
3100
0010
0002
0000
1003
0010
0200
0000
,
0301
1000
0100
0001
0000
0000
0001
0100
1000
0010
0000
0000
0200
0000
0300
0000
,
1001
0000
0001
0000
0100
0000
0010
0000
1000
0000
0001
0000
0010
0000
0100
0010
,
0100
0000
1000
0000
0001
0000
0100
0010
0100
0000
0010
0000
1000
0000
0001
0000
,
0010
0000
0100
1000
0100
0000
0010
0000
0001
0000
1000
0010
1000
0000
0001
0000
,
0100
0000
0010
1000
0010
0000
0100
0000
0001
0000
1000
0100
1000
0000
0001
0000
,
0001
0000
1000
0000
0100
0000
0010
0000
0100
0000
1000
0000
0001
0000
0100
0010
,
0100
0000
0001
0000
1000
0000
0100
0010
0100
0000
1000
0000
0010
0000
0100
0000
,
0001
0010
1000
0001
0100
1000
0010
0001
,
1000
0000
0100
0010
0100
0000
0010
1000
0001
0000
0010
0000
0011
0000
0000
0000
,
1100
0000
1000
0000
0000
0001
0100
0010
0000
0010
0000
0010
1000
0000
0001
0010
,
0100
0000
0000
0010
0001
1000
0020
0000
0000
0130
0000
0100
0001
0000
1000
0100
,
0010
0000
0100
1000
0100
0000
0010
0001
0000
0001
0000
0001
0100
0000
0010
1000
,
0010
0000
0100
0001
0000
0001
0010
0100
2000
0000
0000
0000
0001
0000
0000
0000
,
3010
0100
0000
0001
0010
0000
0100
1000
0010
0000
0100
0001
0100
0001
1000
0100
,
1000
0000
0001
0010
0100
0010
0001
1000
0010
0100
0001
1000
0001
0010
0100
1000
,
0002
0000
0100
1000
,
0000
0000
1000
0100
,
0023
0000
0100
0001
,
0000
0000
0000
0000
0001
0001
0000
0000
,
0130
0000
0000
1000
,
1001
0000
0000
0001
0100
0000
0010
0000
0100
0000
1000
0000
1000
0000
0100
0000
,
0010
0000
1000
0000
1000
0000
0001
0000
0010
0000
0000
0000
0100
1000
0100
1000
,
0001
0000
0000
0001
0010
0000
0100
0000
1000
0000
0000
0001
0100
0000
0010
0000
,
2000
0000
0000
0000
0000
0000
3100
0010
0002
0000
0103
0010
2000
0000
3000
0000
,
2010
0000
0001
0000
3001
0000
0000
0010
0000
0010
0001
0000
0011
0000
0000
0000
,
2100
0000
0001
0000
3001
0000
0000
0100
0000
0100
0001
0000
0101
0000
0000
0000
,
0102
0000
1000
0000
1003
0000
0000
0100
0000
0100
1000
0000
1100
0000
0000
0000
,
0000
0000
0011
0000
0010
0001
0000
0011
0000
0000
1000
0000
1001
0000
0001
0000
,
0100
0010
1000
0000
0100
0001
0000
0001
0000
0100
2000
0000
0000
0000
0000
0000
,
3001
0100
0010
0000
0100
1000
0000
1000
0000
0100
0002
0000
1000
0000
0000
0000
,
0013
0100
1000
0000
0010
0001
0000
0001
0000
0010
0200
0000
0000
0000
0000
0000
,
0301
0010
0100
0000
0010
1000
0000
1020
0000
0000
0000
0000
0000
0000
0000
0000
,
0031
0000
0010
0001
0000
0001
0000
1000
0100
0010
0000
0001
0100
0010
0100
0010
,
1000
0000
0001
0010
0000
0100
1000
0000
0001
0100
0000
0010
2000
0000
0000
0000
,
3010
0100
0010
0100
0010
0100
0010
0100
0001
1000
0001
1000
0001
1000
0001
1000
,
0001
0010
0000
0100
1000
0000
0010
0100
0000
0001
0010
0000
0100
0000
0000
0000
,
1100
0000
1000
0000
0001
1000
0100
0020
0000
0000
0001
0000
0001
0000
0130
0000
,
1000
0000
0010
0000
0100
0001
0000
0020
0000
0000
0130
1000
0001
1000
0020
0000
,
0130
0000
0100
0000
0010
1000
0000
0001
0010
0000
0100
0000
0001
0000
0100
0000
,
1100
0000
1000
0000
0010
0100
0000
0201
0000
0000
0310
1000
0001
1000
0100
0000
,
0020
0000
0000
0000
0031
1000
0010
0200
0000
0000
0001
0000
0001
0000
0310
0000
,
1000
0000
0100
0000
0010
0001
0000
0200
0000
0000
0310
1000
0001
1000
0200
0000
,
0310
0000
0010
0001
0010
0000
0100
0000
1100
0000
0001
0100
0010
0000
1000
0000
,
1010
0000
0010
0000
0100
0001
0000
0102
0000
0000
1003
0000
1100
0000
0000
0000
,
2001
0000
3010
0000
0100
0001
1000
0100
0001
0000
0001
0000
0100
1000
0001
0100
,
0010
0000
1000
0000
0010
0100
0000
0001
0010
0100
0000
0010
0001
0100
0010
1000
,
0001
0000
0001
0000
0010
0100
1000
0001
0100
0000
0010
0100
0010
0000
1000
0000
,
1010
0000
0010
0000
0100
0001
0000
0021
0000
0000
0130
1000
0001
0010
0100
0010
,
0001
0000
0001
0000
0100
0010
1000
0100
0001
0000
0001
0000
0100
0010
0100
1000
,
0001
0000
0101
0000
0100
0010
1000
0100
0020
0000
0000
0130
1000
0000
0001
0000
,
0100
0000
0100
0000
0010
0000
0010
0000
0100
0001
1000
0100
0010
0001
0100
0010
,
1000
0000
0010
0100
0001
0010
0000
0210
0000
0000
0000
0000
1300
0000
0000
0000
,
1001
0000
0000
0001
0100
0000
0010
0000
0100
0000
1000
0000
1000
0000
0100
0000
,
0001
0010
0010
0100
1000
0001
1000
0010
,
0100
0000
0000
0100
0001
0000
0010
0000
0100
0000
0001
0000
0001
0000
0100
0000
,
1000
0000
0000
0000
0001
0000
0000
0000
0100
0000
0000
0000
0010
0000
0000
0000
1000
0000
0000
0000
0001
1000
0001
1000
,
0002
0000
0000
0000
,
0000
0000
0000
0000
,
0003
0000
0000
0000
;

//---------------dance-single - MEGAtive----------------
#NOTES:
     dance-single:
     :
     Challenge:
     18:
     1.063555,1.162056,0.482952,0.438372,1.415420,1002.000000,937.000000,65.000000,59.000000,8.000000,0.000000,1.063555,1.162056,0.482952,0.438372,1.415420,1002.000000,937.000000,65.000000,59.000000,8.000000,0.000000:
// measure 0
0000
0000
0000
0000
,  // measure 1
0000
0000
0000
0000
,  // measure 2
0000
0000
0000
0000
,  // measure 3
1002
0000
0100
0000
0103
0010
0000
1010
0000
0000
1000
0000
1000
0000
0001
0000
,  // measure 4
0010
0000
0100
0000
0100
1000
0000
2100
0000
0000
0001
0000
3001
0000
0010
0000
,  // measure 5
2001
0000
0100
0000
3100
0010
0000
0011
0000
0000
0001
0000
0001
0000
1000
0000
,  // measure 6
0010
0000
0100
0000
0100
0001
0000
0102
0000
0000
1000
0000
1003
0000
0010
0000
,  // measure 7
0100
0001
0010
0000
0100
1000
0000
1001
0000
0000
0201
0000
0010
0000
0310
0000
,  // measure 8
2001
0000
0100
0000
3100
0010
0000
0001
0100
0000
0010
0000
0100
0000
0100
0000
,  // measure 9
0010
1000
0000
0001
0010
0000
0100
1000
0000
0010
0100
0000
0002
0000
0000
0000
,  // measure 10
0103
0010
0100
0010
1000
0001
1000
0001
0010
1000
0010
0001
1000
0000
0000
0000
,  // measure 11
1100
0000
1000
0000
0010
0100
0010
1000
0001
0000
0001
0000
0010
0100
0010
0001
,  // measure 12
1000
0000
1000
0000
0010
0100
0001
1000
0100
0000
0100
0000
0010
0100
1000
0001
,  // measure 13
0100
0000
0100
0000
0010
0100
0001
1000
0001
0000
0001
0000
0010
0100
1000
0001
,  // measure 14
1000
0000
1000
0000
0001
0100
0010
1000
0001
0000
0010
0011
0000
0000
0110
0000
,  // measure 15
1001
0000
1000
0000
0010
0000
0010
0000
0110
0000
0100
0001
1000
0000
1100
0000
,  // measure 16
0011
0001
0100
0010
1000
0100
0110
0010
0001
0100
0010
1000
,  // measure 17
2002
0000
0000
3003
0220
0000
0000
0330
,  // measure 18
1000
1000
0000
0100
0100
0000
0010
0010
0000
0001
0001
0000
0200
0000
0000
0300
,  // measure 19
0102
0000
0000
0000
0103
0010
0100
0001
1000
0100
0020
0000
0130
1000
0020
0000
,  // measure 20
0130
0001
1000
0001
0010
0M00
0010
1000
0100
0010
0100
0010
0001
0000
1000
0100
,  // measure 21
0010
0001
0100
0010
0200
0000
0310
0100
0001
0010
0100
0010
0001
1000
0010
0100
,  // measure 22
0001
0000
0000
0000
0000
0000
0000
0000
0000
0000
0000
0000
0000
0000
0000
0000
0000
0000
0000
0000
0000
0000
0000
0000
0010
0000
0000
0000
0000
0000
0000
0000
0100
0000
0000
0000
0000
0000
0000
0000
0010
0000
0000
0000
0000
0000
0000
0000
0001
0000
0000
0000
0000
0000
0000
0000
0000
0000
0000
0000
0000
0000
0000
0000
0000
0000
0000
0000
0000
0000
0000
0000
0001
0000
0000
0000
0000
0000
0000
0000
0000
0000
0000
0000
1001
0000
0000
0000
0000
0000
0000
0000
0000
0000
0000
0000
0000
0000
0000
0000
0000
0000
0000
0000
0000
0000
0000
0000
1000
0000
0000
0000
0000
0000
0000
0000
0000
0000
0000
0000
0010
0000
0000
0000
0000
0000
0M00
0000
0000
0000
0000
0000
0010
0000
0000
0000
0000
0000
0000
0000
0000
0000
0000
0000
0001
0000
0000
0000
0000
0000
0000
0000
0000
0000
0000
0000
1000
0000
0000
0000
0000
0000
0000
0000
0000
0000
0000
0000
0100
0000
0000
0000
0000
0000
00M0
0000
0000
0000
0000
0000
0100
0000
0000
0000
0000
0000
0000
0000
0000
0000
0000
0000
,  // measure 23
0002
0000
0000
0000
0013
0100
0010
0001
1000
0010
0200
0000
0310
1000
0200
0000
,  // measure 24
0310
0001
1000
0001
0100
00M0
0100
1000
0010
0100
0010
0100
0001
0010
0100
1000
,  // measure 25
0001
0010
0001
1000
0010
0100
0010
1000
0001
0010
0100
0010
0001
1000
0010
0100
,  // measure 26
0201
0000
0310
0000
0100
0000
0001
0000
0020
0000
0100
0000
0130
1000
0001
0100
,  // measure 27
0010
0000
0110
0000
1002
0000
0013
0000
0100
1000
0001
1000
0010
0100
0001
0010
,  // measure 28
0100
1000
0001
1000
0010
0000
0001
0010
0100
0010
1000
0001
0010
0100
0010
0100
,  // measure 29
1000
0001
1000
0001
0100
0000
0100
0000
0010
1000
0001
1000
0100
0010
0001
1000
,  // measure 30
0001
0000
0000
0000
0000
0000
0000
0000
0000
0000
0000
0000
0000
0000
0000
0000
0000
0000
0000
0000
0000
0000
0000
0000
0100
0000
0000
0000
0000
0000
0000
0000
0010
0000
0000
0000
0000
0000
0000
0000
1000
0000
0000
0000
0000
0000
0000
0000
0001
0000
0000
0000
0000
0000
0000
0000
0000
0000
0000
0000
0000
0000
0000
0000
0000
0000
0000
0000
0000
0000
0000
0000
1000
0000
0000
0000
0000
0000
0000
0000
0000
0000
0000
0000
1100
0000
0000
0000
0000
0000
0000
0000
0000
0000
0000
0000
0000
0000
0000
0000
0000
0000
0000
0000
0000
0000
0000
0000
0001
0000
0000
0000
0000
0000
0000
0000
0000
0000
0000
0000
0010
0000
0000
0000
0000
0000
0M00
0000
0000
0000
0000
0000
0010
0000
0000
0000
0000
0000
0000
0000
0000
0000
0000
0000
1000
0000
0000
0000
0000
0000
0000
0000
0000
0000
0000
0000
0001
0000
0000
0000
0000
0000
0000
0000
0000
0000
0000
0000
0100
0000
0000
0000
0000
0000
00M0
0000
0000
0000
0000
0000
0100
0000
0000
0000
0000
0000
0000
0000
0000
0000
0000
0000
,  // measure 31
2000
0000
0001
0000
3001
0100
0010
0100
0010
1000
0100
0010
0001
0000
0100
0010
,  // measure 32
0100
1000
0100
0010
1000
0001
0010
0100
1000
0010
0100
0001
1000
0100
0010
0001
,  // measure 33
1000
0100
1000
0100
0000
0000
0010
0001
0010
0001
0000
0000
1000
0010
1000
0010
0000
0000
0100
0001
0100
0001
0000
0000
,  // measure 34
0010
0000
0000
0001
0000
0000
1000
0000
0000
1020
0000
0000
0000
0000
0000
0000
0000
0000
0130
0000
0000
0001
0000
0000
1000
0000
0000
1100
0000
0000
0000
0000
0000
0000
0000
0000
0100
0000
0010
0000
0100
0000
0010
0000
0000
0000
0000
0000
,  // measure 35
1002
0000
0103
0000
0010
0000
2000
0000
0001
0000
3100
0000
0010
0000
0001
1000
,  // measure 36
0001
0000
0100
0000
0010
0000
1000
0100
1000
0000
0010
0000
0100
0000
0001
0000
,  // measure 37
1000
0000
0100
0010
0100
0000
1000
0000
0010
0000
0100
0001
0100
0000
0010
0000
,  // measure 38
1000
0000
0000
0001
0010
0001
0010
0000
0000
0100
0000
0000
1000
0000
0000
0010
0100
0010
0100
0000
0000
0001
0000
0000
,  // measure 39
2000
0000
3100
0000
0010
0000
0002
0000
0100
0000
1003
0000
0010
0000
0100
0001
,  // measure 40
1000
0000
0100
0000
0010
0000
0100
1000
0100
0000
0010
0000
0001
0000
0100
0000
,  // measure 41
0010
1000
0001
1000
0100
0010
0001
1000
0001
0100
0010
1000
0001
1000
0100
0010
,  // measure 42
0001
0100
0010
1000
0001
0010
0100
0010
0001
0100
1000
0100
0010
0000
0000
0000
,  // measure 43
1001
0000
0011
0000
0000
0100
1000
0010
0000
0110
0000
1000
0001
0000
0100
0010
,  // measure 44
1000
0000
0000
0000
0000
0000
0000
0000
0000
0100
0000
0000
0010
0000
0000
0100
0000
0000
1000
0000
0001
0000
1000
0000
0000
0000
0000
0010
0000
0000
0000
0000
0000
0010
0000
0000
1000
0000
0000
0001
0000
0000
0010
0000
0000
0100
0000
0000
,  // measure 45
1000
0000
0000
0000
0010
0M00
0010
0000
0001
0000
0000
0000
0011
0000
0000
0000
1000
0000
0000
0000
0100
00M0
0100
0000
0001
0000
0000
0000
0101
0000
0000
0000
,  // measure 46
1000
0000
0000
0000
0000
0000
0010
0000
0100
0000
0010
0000
0100
0000
0000
0000
0000
0000
0001
0000
1000
0000
0001
0000
2000
0000
0000
0000
0000
0000
0000
0000
0000
0000
0000
0000
3100
0000
0000
0010
0000
0000
0100
0000
0000
0010
0000
0000
,  // measure 47
0001
0100
0010
0100
1000
0001
0010
2000
0000
0001
3001
0010
0100
0000
0110
0000
,  // measure 48
1001
0000
1000
0100
0010
0100
0001
1000
0010
0100
0010
0001
0100
0010
1000
0001
,  // measure 49
2000
0000
0010
0001
,  // measure 50
0000
0000
0001
0100
,  // measure 51
3002
0000
0010
1000
,  // measure 52
0000
0000
0000
0000
1000
0100
0000
0000
,  // measure 53
0103
0000
0000
0001
,  // measure 54
1001
0000
0000
0000
0000
0000
0000
0000
0000
1000
0000
0000
0100
0000
0000
0000
0000
0000
0010
0000
0000
0000
0000
0000
0100
0000
0000
0000
0000
0000
1000
0000
0001
0000
1000
0000
0001
0000
0000
0000
0000
0000
0100
0000
0000
0000
0000
0000
,  // measure 55
0010
0000
0000
0000
0000
0000
1000
0000
0001
0000
1000
0000
0001
0000
0000
0000
0000
0000
0010
0000
0000
0000
0000
0000
0100
0000
0000
0000
0000
0000
0000
0000
0000
0000
0000
0000
0010
0000
0000
0001
0000
0000
1000
0000
0000
0001
0000
0000
,  // measure 56
0100
0000
0000
0010
0100
0000
0001
0000
1000
0000
0000
0100
0010
0000
0100
0000
,  // measure 57
2000
0000
0000
0000
0000
0000
0000
0000
0000
0000
0000
0000
0000
0000
0000
0000
0000
0000
3001
0000
1000
0000
0001
0000
1000
0000
0000
0000
0000
0000
0010
0000
0000
0100
0000
0000
0010
0000
0000
0000
0000
0000
0000
0000
0000
0000
0000
0000
,  // measure 58
1002
0000
0010
0000
0013
0000
0000
0100
0000
0100
0010
0000
0011
0000
0000
0000
,  // measure 59
1002
0000
0100
0000
0103
0000
0000
0010
0000
0010
0100
0000
0101
0000
0000
0000
,  // measure 60
2001
0000
0100
0000
3100
0000
0000
0010
0000
0010
0100
0000
2100
0000
0000
0000
,  // measure 61
3000
0000
0110
0000
1000
0001
0000
0011
0000
0000
1100
0000
1001
0000
0101
0000
,  // measure 62
0100
0000
0001
0000
1000
0000
0100
0000
0000
0000
0000
0000
0010
0000
0000
0010
0000
0000
0000
0000
0000
2001
0000
0000
0000
0000
0000
0100
0000
0000
3100
0000
0000
0000
0000
0000
0020
0000
0000
0000
0000
0000
0000
0000
0000
0000
0000
0000
,  // measure 63
0130
0000
1000
0000
0001
0000
0100
0000
0000
0000
0000
0000
0010
0000
0000
0010
0000
0000
0000
0000
0000
1002
0000
0000
0000
0000
0000
0100
0000
0000
0103
0000
0000
0000
0000
0000
0010
0000
0000
0000
0000
0000
0010
0000
0000
0000
0000
0000
,  // measure 64
1000
0000
0100
0000
0010
0000
0001
0000
0000
0000
0000
0000
0100
0000
0000
0100
0000
0000
0000
0000
0000
2010
0000
0000
0000
0000
0000
0001
0000
0000
3001
0000
0000
0000
0000
0000
0020
0000
0000
0000
0000
0000
0000
0000
0000
0000
0000
0000
,  // measure 65
0031
0000
0100
0000
0010
0000
1000
0000
0000
0000
0000
0000
0100
0000
0000
0100
0000
0000
0000
0000
0000
0021
0000
0000
0000
0000
0000
0000
0000
0000
0100
0000
0000
0000
0000
0000
0130
0000
0000
1000
0000
0000
0020
0000
0000
0000
0000
0000
,  // measure 66
0130
0001
1000
0100
0010
0001
1000
0001
0100
0010
1000
0001
0010
0100
1000
0001
,  // measure 67
1000
0010
0100
0001
1000
0100
0010
0001
1000
0001
0100
0010
0002
0000
0000
0000
,  // measure 68
0013
0100
0010
1000
0001
0010
0100
1000
0010
0001
0010
0100
0001
1000
0100
0010
,  // measure 69
1000
1000
0000
0010
0010
0000
0001
0001
0000
0100
0100
0000
0010
0000
0000
0000
,  // measure 70
0102
0000
0013
0000
0100
1000
0010
0002
0000
0000
0013
0000
0010
0000
0100
0001
,  // measure 71
0010
0000
0000
0000
0000
0000
0100
0000
0000
0000
0000
0000
1000
0000
0000
0100
0000
0000
0000
0000
0000
0002
0000
0000
0000
0000
0000
0103
0000
0000
0010
0000
0000
0100
0000
0000
1000
0000
0001
0000
1000
0000
0010
0000
0100
0000
0010
0000
,  // measure 72
1000
0000
0000
0000
0000
0000
0001
0000
0000
0000
0000
0000
0100
0000
0000
1000
0000
0000
0000
0000
0000
1000
0000
0000
0100
0000
0000
0010
0000
0000
1000
0000
0000
0001
0000
0000
0010
0000
0100
0000
0010
0000
0100
0000
1000
0000
0001
0000
,  // measure 73
0010
0000
0000
0000
0000
0000
1100
0000
0000
0000
0000
0000
0010
0000
0000
0001
0000
0000
0000
0000
0000
1002
0000
0000
0000
0000
0000
0000
0000
0000
0103
0000
0010
0000
0100
0000
0010
0000
0000
0000
0000
0000
1000
0000
0001
0000
1000
0000
,  // measure 74
0002
0000
0010
0000
0013
0001
0100
2000
0000
0000
3100
0000
0100
0000
0010
1000
,  // measure 75
0001
0000
0000
0000
0000
0000
0010
0000
0000
0000
0000
0000
0100
0000
0000
0010
0000
0000
0000
0000
0000
2000
0000
0000
0000
0000
0000
3010
0000
0000
0100
0000
0000
0010
0000
0000
0001
0000
1000
0000
0001
0000
0100
0000
0010
0000
1000
0000
,  // measure 76
0001
0000
0000
0000
0000
0000
0001
0000
0000
0010
0000
0000
0001
0000
0000
0000
0000
0000
0001
0000
0000
0000
0000
0000
1001
0000
0000
0000
0000
0000
1000
0000
0000
0010
0000
0000
0100
0000
0001
0000
1000
0000
0001
0000
0010
0000
0100
0000
,  // measure 77
1000
0000
0011
0000
0100
0010
0000
2001
0000
3010
0100
0010
1000
0000
1000
0000
,  // measure 78
1010
0000
0010
0000
0100
0001
0010
1000
0010
0000
0010
0000
0100
1000
0001
0100
,  // measure 79
1000
0000
0000
0000
0000
0000
1000
0000
0000
0000
0000
0000
0100
0000
0000
0010
0000
0000
0000
0000
0000
0010
0000
0000
1000
0000
0000
0100
0000
0000
0000
0000
0000
0100
0000
0000
0010
0000
0001
0000
1000
0000
0100
0000
0010
0000
0001
0000
,  // measure 80
1000
0000
1000
0000
0010
0100
0010
1000
0001
0010
0100
1000
0010
0100
0001
1000
,  // measure 81
1100
0000
0000
0000
0000
0000
0011
0000
0000
0000
0000
0000
0100
0000
0000
0010
0000
0000
0000
0000
0000
2001
0000
0000
0000
0000
0000
0000
0000
0000
3001
0000
0010
0000
0001
0000
0100
0000
0000
0010
0000
0000
1000
0000
0000
0001
0000
0000
,  // measure 82
0010
0000
0010
0000
0100
1000
0010
0001
0010
0000
0010
0000
0100
0001
1000
0100
,  // measure 83
0001
0000
0101
0000
0001
0100
0010
0100
1000
0000
0000
0001
0201
0000
0310
1000
,  // measure 84
0100
0000
0000
0000
0000
0000
0100
0000
0000
0000
0000
0000
0010
0000
0000
0000
0000
0000
0010
0000
0000
0000
0000
0000
0001
0000
0000
0100
0000
0000
0010
0000
0000
1000
0000
0000
0100
0000
0010
0000
0100
0000
0010
0000
0001
0000
1000
0000
,  // measure 85
0001
0000
0001
0100
1000
0100
0000
0210
0000
0000
0000
0000
0301
0000
0000
0000
,  // measure 86
2001
0000
0000
0000
0000
0000
0000
0000
0000
3100
0000
0000
0010
0000
0000
0000
0000
0000
0100
0000
0000
0000
0000
0000
1000
0000
0000
0000
0000
0000
0001
0000
1000
0000
0001
0000
1000
0000
0000
0000
0000
0000
0010
0000
0000
0000
0000
0000
,  // measure 87
0100
0000
0000
0010
0100
0010
0100
0000
0000
0001
0000
0000
0001
0000
0000
1000
0000
0000
1000
0000
0000
0100
0000
0000
,  // measure 88
0200
0000
0000
0000
0000
0000
0000
0000
0000
0310
0000
0000
0001
0000
0000
0000
0000
0000
1000
0000
0000
0000
0000
0000
0010
0000
0000
0000
0000
0000
0100
0000
0010
0000
0100
0000
0010
0000
0000
0000
0000
0000
1000
0000
0000
0000
0000
0000
,  // measure 89
1000
0000
0000
0000
0100
0000
0000
0000
0010
0000
0000
0000
0001
0000
0000
0000
0100
0000
0000
0000
0010
1000
0001
1000
,  // measure 90
0200
0000
0000
0000
,  // measure 91
0000
0000
0000
0000
,  // measure 92
0300
0000
0000
0000
;
