#TITLE:Predator's Crypto;
#SUBTITLE:;
#ARTIST:96;
#TITLETRANSLIT:;
#SUBTITLETRANSLIT:;
#ARTISTTRANSLIT:;
#GENRE:;
#CREDIT:;
#MUSIC:Predator's Crypto.ogg;
#BANNER:Predator's Crypto.png;
#BACKGROUND:Predator's Crypto-bg.png;
#CDTITLE:;
#SAMPLESTART:84.678;
#SAMPLELENGTH:15.000;
#SELECTABLE:YES;
#OFFSET:1.765;
#BPMS:0.000=136.000;
#STOPS:;
#BGCHANGES:;
#FGCHANGES:;

//--------------- dance-single - forcednature ----------------
#NOTES:
     dance-single:
     forcednature:
     Beginner:
     3:
     0,0,0,0,0:
0000
0000
0000
0000
,
0000
0000
0000
0000
,
0000
0000
0000
0000
,
0000
0000
0000
0000
,
0000
0000
0000
0000
,
1001
0000
0000
0000
,
0110
0000
0000
0000
0000
0000
0000
0010
0000
0000
0000
0000
0000
0000
0000
0000
,
0000
0000
0000
0000
,
1000
0000
0001
0100
,
0001
0000
0010
0000
,
0100
1000
0100
0000
,
0010
0000
0001
0000
,
1000
0010
1000
0000
,
0100
0000
0010
0000
,
0001
1000
0001
0000
,
0100
0000
0010
0000
,
1000
0100
1000
0000
,
0001
0000
0001
0000
,
0001
0000
0010
0100
,
1000
0000
1000
0000
,
1000
0000
0010
0000
,
2002
0000
0000
0000
,
0000
0000
0000
0000
,
0000
3003
0000
0220
0000
0000
0000
0000
,
0000
0000
0000
0000
,
0000
0000
0000
0330
0000
1001
0000
0000
,
1000
0000
0000
0000
0000
0000
0000
0001
,
0000
0000
0000
0100
,
0000
0000
0000
0000
0000
0010
0000
0000
,
0000
0000
1000
0000
,
0000
0000
0000
0100
0000
0000
0000
0000
,
0000
0010
0000
0000
,
0000
0001
0000
0001
0000
0000
1000
0000
,
0010
0000
0100
0000
,
0000
0000
0001
0000
,
0010
0000
0100
0000
,
1000
1000
1000
0000
,
0010
0000
0100
0000
,
0000
0000
0001
0000
,
1000
0000
0100
0000
,
0010
0010
0010
0000
,
0001
0000
0000
0001
0000
0000
0000
0000
,
1000
0000
0000
1000
0000
0000
0000
0000
,
0010
0000
0000
0010
0000
0000
0000
0000
,
0100
0001
1000
0000
,
0100
0000
0000
0100
0000
0000
0000
0000
,
0010
0000
0000
0010
0000
0000
0000
0000
,
0001
0001
0001
0000
,
1000
1000
1000
0000
,
1001
0000
0001
0000
,
0100
0000
0000
0000
,
0010
0000
1000
0000
,
0100
0000
0000
0000
,
0010
0000
0001
0000
,
1000
0000
0000
0000
,
0010
0000
0100
0000
,
0001
0000
0001
0000
,
1000
0000
1000
0000
,
0100
0000
0010
0000
,
2002
0000
3003
0000
,
0001
0000
0000
0000
,
1000
0000
0000
0000
,
0010
0000
0000
0000
,
0100
0000
0001
0000
,
1000
0000
0100
0000
,
1000
0000
0001
0000
,
0100
0000
0001
0000
,
0010
0000
0000
0000
,
0110
0000
1000
0000
,
0001
0000
1000
0000
,
0010
0000
0100
0000
,
0001
0000
1001
0000
;

//--------------- dance-single - forcednature ----------------
#NOTES:
     dance-single:
     forcednature:
     Easy:
     7:
     0,0,0,0,0:
0000
0000
0000
0000
,
0000
0000
0000
0000
,
0000
0000
0000
0000
,
0000
0000
0000
0000
,
0000
0000
0000
0000
,
1000
0000
0000
0001
0000
1000
0000
0000
0000
0000
0000
0000
0000
0000
0000
0000
,
0001
0000
0000
1000
0000
0001
0000
2000
0000
0000
0000
0000
0000
0000
0000
3000
,
0000
0000
0000
0000
,
0010
0010
0100
0001
,
0010
0000
0000
0100
0000
0000
1000
0000
0000
0000
0001
0000
0000
0000
0000
0000
,
0100
0100
0010
1000
,
0001
0000
0000
0010
0000
0000
0001
0000
0000
0000
0100
0000
0000
0000
0000
0000
,
0010
1000
0100
1000
,
0010
0000
0000
0100
0000
0000
0001
0000
0000
0000
1000
0000
0000
0000
0000
0000
,
0100
0010
0001
0100
,
0010
0000
0000
1000
0000
0000
0001
0000
0000
0000
0010
0000
0000
0000
0000
0000
,
0100
0000
0100
0000
1000
0001
1000
0000
,
0010
0000
0000
0010
0000
0000
0000
0000
0010
0000
0000
0010
0000
0000
0000
0000
,
0010
0000
0000
0010
0000
0000
0000
0000
0100
0000
0000
0100
0000
0000
0000
0000
,
0001
0000
0000
0001
0000
0000
0000
0000
0001
0000
0000
0001
0000
0000
0000
0000
,
0001
0000
0000
0001
0000
0000
0000
0000
1000
0000
1000
0000
0000
0000
0000
0000
,
2002
0000
0000
0000
,
0000
0000
0000
0000
,
0000
3003
0000
0220
0000
0000
0000
0000
,
0000
0000
0000
0000
,
0000
0000
0000
0330
0000
0001
1000
0000
,
1001
0000
0001
0000
0100
0000
0001
1000
,
0000
0100
0000
1000
0000
0010
0100
0000
,
0001
0000
0100
0000
0001
1000
0000
0100
,
0000
0000
1000
0000
0000
0000
0100
0000
0010
0000
0000
0001
0000
0000
0000
0000
,
0010
0000
0001
0100
0000
0010
0000
0100
,
0001
0000
0000
0000
1000
0000
0000
0001
0000
0000
1000
0000
0001
0000
0000
0000
,
0010
0000
0000
0010
0000
0100
0000
0000
1000
0000
0000
0000
1001
0000
0000
0000
,
0001
0000
0000
0100
0000
0000
0010
0000
2000
0000
0000
0000
0000
0000
0000
0000
,
0000
0000
3000
0000
0001
0010
0000
0010
,
0100
0000
0000
1000
0000
0000
0001
0000
0000
0000
0000
0000
0100
0000
0000
0100
,
0000
0010
0000
1000
0000
0001
0000
0000
,
0010
0000
0000
0100
0000
0000
1000
0000
0020
0000
0000
0000
0000
0000
0000
0000
,
0000
0030
0000
0100
0002
0000
0003
0010
,
0200
0000
0000
0000
1000
0000
0000
0000
1000
0000
0000
0000
1300
0000
0000
0100
,
0000
0010
0000
0002
0000
0000
0003
0000
,
0100
0000
0000
0001
0000
0000
0202
0000
0000
0000
0000
0000
0303
0000
0000
0000
,
0010
0000
0000
1000
0000
0000
2020
0000
0000
0000
0000
0000
3030
0000
0000
0000
,
0001
0000
0000
0010
0000
0000
0022
0000
0000
0000
0000
0000
0033
0000
0000
0000
,
1000
0100
1000
0010
,
0100
0000
0000
0001
0000
0000
2002
0000
0000
0000
0000
0000
3003
0000
0000
0000
,
0100
0000
0000
1000
0000
0000
2002
0000
0000
0000
0000
0000
3003
0000
0000
0000
,
0010
0000
0000
0100
0000
0000
0220
0000
0000
0000
0000
0000
0330
0000
0000
0000
,
0001
0000
0000
1000
0000
0000
0001
0000
1000
0000
0000
0000
0001
0000
0000
0000
,
0100
0000
0000
0001
0000
0000
0100
0000
0000
0000
0101
0000
0000
0000
0000
0000
,
2000
3020
0230
0302
,
1003
0000
0000
0100
0000
0000
1000
0000
0000
0000
1100
0000
0000
0000
0000
0000
,
0002
0203
0320
2030
,
3100
0000
0000
0010
0000
0000
0100
0000
0000
0000
0110
0000
0000
0000
0000
0000
,
2000
3002
0023
0032
,
0103
0000
0000
0010
0000
0000
0100
0000
0000
0000
0110
0000
0000
0000
0000
0000
,
0002
1000
0100
0010
,
2003
0001
0100
0010
,
3200
0320
0032
0103
,
0110
0000
0000
0000
1000
0001
1000
0000
,
0001
0000
0000
0010
0000
0000
0100
0000
0000
0000
1000
0000
0000
0000
0000
0000
,
0001
0000
0000
0100
0000
0000
0010
0000
0000
0000
1000
0000
0000
0000
0000
0000
,
0100
0000
0000
0010
0000
0000
0001
0000
0000
0000
1000
0000
0000
0000
0000
0000
,
0010
0000
0000
0100
0000
0000
0001
0000
0000
0000
1000
0000
0000
0000
0000
0000
,
0100
0000
0000
1000
0000
0000
0010
0000
0000
0000
1000
0000
0000
0000
0000
0000
,
0001
0000
0000
0100
0000
0000
0001
0000
0000
0000
0010
0000
0000
0000
0000
0000
,
0100
0000
0000
1000
0000
0000
0001
0000
0000
0000
0100
0000
0000
0000
0000
0000
,
0110
0000
0000
0000
0001
1000
0001
0000
,
0010
0000
0000
0010
0000
0000
0000
0000
0010
0000
0000
0010
0000
0000
0000
0000
,
0010
0000
0000
0010
0000
0000
0000
0000
0100
0000
0000
1000
0000
0000
0001
0000
,
0100
0000
0000
0100
0000
0000
0000
0000
0100
0000
0000
0100
0000
0000
0000
0000
,
0100
0000
0000
0100
0000
0000
0000
0000
0001
0000
1000
0000
0000
0000
0000
0000
;

//--------------- dance-single - forcednature ----------------
#NOTES:
     dance-single:
     forcednature:
     Medium:
     11:
     0,0,0,0,0:
0000
0000
0000
0000
,
0000
0000
0000
0000
,
0000
0000
0000
0000
,
0000
0000
0000
0000
,
0000
0000
0000
0000
,
1000
0000
0000
1000
0000
1000
0000
0000
0000
0000
0000
0000
0000
0000
0000
0000
,
0001
0000
0000
0001
0000
0001
0000
0200
0000
0000
0000
0000
0000
0000
0000
0300
,
0000
0000
0000
0000
,
0110
0000
1000
0001
0100
0010
2000
0000
,
3001
0000
0000
0010
0000
0000
0011
0000
0000
0000
2200
0000
0000
0000
3300
0000
,
1000
1000
0010
0001
0010
0100
0002
0000
,
1003
0000
0000
0010
0000
0000
1010
0000
0000
0000
0202
0000
0000
0000
0303
0000
,
0001
0001
0010
1000
0010
0100
1000
0001
,
0100
0000
0000
0010
0000
0000
0110
0000
0000
0000
2002
0000
0000
0000
3003
0000
,
0001
0001
0010
0100
0001
0100
2000
0000
,
3010
0000
0000
0100
0000
0000
0110
0000
0000
0000
2002
0000
0000
0000
3003
0000
,
1000
0010
0001
0010
0200
0000
0000
0300
,
0000
0000
0001
0100
0000
0001
0100
0000
0000
0000
0010
1000
0000
0010
1000
0000
,
0000
0000
0001
0100
0000
0001
0100
0000
0010
0000
0000
0010
0000
0000
0010
0000
,
0000
0000
1000
0100
0000
1000
0100
0000
0000
0000
0010
0001
0000
0010
0001
0000
,
0000
0000
1000
0100
0000
1000
0100
0000
0010
0000
0010
0001
0000
0000
0000
0000
,
2002
0000
0000
0000
,
0000
0000
0000
0000
,
0000
3003
0000
0220
0000
0000
0000
0000
,
0000
0000
0000
0000
,
0000
0000
0000
0330
0000
1000
0001
0100
,
0010
0000
0000
1000
0000
0001
0000
1000
0000
0000
0100
0000
0010
0000
0001
0000
,
0000
0100
0000
0001
0000
0010
0000
0000
0100
0000
1000
0000
0001
0000
0000
0100
,
0000
0010
0000
1000
0000
0000
0001
0000
0010
0000
0100
0000
0000
0010
0000
0001
,
0000
1000
0000
0000
0010
0000
0100
0000
0001
0000
0010
0000
0001
0000
0100
0000
,
0001
0000
0010
0000
0001
0000
0000
1000
0000
0010
0000
1000
0000
0100
0000
1000
,
0000
0000
0010
0000
1000
0000
0001
0000
0000
0010
0000
0100
0000
1000
0000
0000
,
0001
0000
0100
0000
0000
0010
0000
0020
0000
0000
0000
0000
1030
0000
0000
0000
,
0002
0000
0000
0023
0000
0000
0230
0000
2300
0000
0000
0000
0010
0000
0000
0000
,
0100
0000
0000
0000
3010
0000
1000
0000
0002
0000
0000
0023
0000
0000
0230
0000
,
0320
0000
0000
0000
0001
0000
0032
0000
0000
0000
0103
0000
0100
0001
0000
1000
,
0000
0010
0001
0010
0100
0001
0001
0010
,
0200
0000
0000
2300
0000
0000
3020
0000
2030
0000
0000
0000
0100
0000
0000
0000
,
0001
0000
3010
1000
0002
0010
0000
2003
,
3200
0000
0000
0000
0010
0000
0000
0000
1000
0000
0000
0000
0310
0001
0000
0001
,
0000
1000
0010
0100
0100
0100
0001
1000
,
0001
0000
0000
0011
0000
0000
2100
0000
0000
0000
3100
0000
0010
0000
0001
0000
,
1000
0000
0000
1010
0000
0000
0102
0000
0000
0000
1003
0000
0001
0000
0010
0000
,
0100
0000
0000
0110
0000
0000
2001
0000
0000
0000
3001
0000
0100
0000
1000
0000
,
0100
0010
1000
0001
0010
0001
0100
0010
,
1000
0000
0000
1100
0000
0000
1020
0000
0000
0000
1030
0000
0100
0000
1000
0000
,
0001
0000
0000
0101
0000
0000
0011
0000
0010
0000
0100
0000
0001
0000
0100
0000
,
0010
0010
1000
0010
0010
0001
0100
0100
,
0010
0000
0000
0110
0000
0000
0100
0000
0001
1000
0000
0000
1000
0001
0000
0000
,
0101
0000
0000
0011
0000
0000
1100
0000
0000
0000
2002
0000
0000
0000
3003
0000
,
1000
0100
0010
0100
1000
0001
0100
0001
,
0011
0000
0000
0110
0000
0000
1100
0000
0000
0000
2002
0000
0000
0000
3003
0000
,
0001
0010
1000
0010
0100
1000
0001
0100
,
0110
0000
0000
1001
0000
0000
0101
0000
0000
0000
0022
0000
0000
0000
0033
0000
,
0001
0100
1000
0100
0010
1000
0001
0010
,
1100
0000
0000
1010
0000
0000
0101
0000
0000
0000
2200
0000
0000
0000
3300
0000
,
1000
0000
0010
0000
0100
0000
0001
0000
1000
0100
1000
0000
0001
0000
0100
0000
,
0001
0000
0010
0000
0100
0000
1000
0000
0001
0100
0001
0000
1000
0000
0000
0000
,
0200
0320
0032
1003
,
0102
0000
0000
0000
0013
0000
0000
0000
1000
0001
1000
0001
1000
0000
0000
0000
,
0020
0000
0000
0230
0000
0000
0302
0000
1003
0000
0010
0000
0100
0000
0010
0000
,
2000
0000
0000
3002
0000
0000
0023
0000
0130
0000
1000
0000
0100
0000
0010
0000
,
0002
0000
0000
2003
0000
0000
3020
0000
0130
0000
0001
0000
1000
0000
0100
0000
,
0020
0000
0000
0230
0000
0000
2300
0000
3001
0000
0100
0000
1000
0000
0100
0000
,
0020
0000
0000
0100
0000
0000
1030
0000
0010
0000
0100
0000
0001
0000
1000
0000
,
0200
0000
0000
1000
0000
0000
0310
0000
0100
0000
1000
0000
0001
0000
0100
0000
,
0002
0000
0000
0010
0000
0000
1003
0000
0001
0000
0100
0000
0010
0000
1000
0000
,
0100
0001
0001
0100
1000
0010
0220
0000
,
0330
0000
1000
0010
0000
1000
0100
0000
0000
0000
1000
0010
0000
1000
0100
0000
,
0000
0000
1000
0010
0000
1000
0100
0000
0010
0000
0000
0110
0000
0000
1001
0000
,
0000
0000
0001
0010
0000
0001
0100
0000
0000
0000
0001
0010
0000
0001
0100
0000
,
0000
0000
0001
0010
0000
0001
0100
0000
0010
0000
0010
1000
0000
0000
0000
0000
;

//--------------- dance-single - forcednature ----------------
#NOTES:
     dance-single:
     forcednature:
     Hard:
     14:
     0,0,0,0,0:
0000
0000
0000
0000
,
0000
0000
0000
0000
,
0000
0000
0000
0000
,
0000
0000
0000
0000
,
0000
0000
0000
0000
,
1000
0100
0000
1000
0000
0010
0000
0000
0000
0000
0000
0000
0000
0000
0000
0000
,
0001
0100
0000
0001
0000
0010
0000
0220
0000
0000
0000
0000
0000
0000
0000
0330
,
0000
0000
0000
0000
,
0100
0000
1000
0010
1000
0000
0001
0010
0001
0000
0100
0000
0001
0010
0100
1000
,
0010
0000
0000
0010
1000
0000
0100
0000
0010
0000
0001
0000
0100
0000
0000
0000
,
0001
0010
0001
0010
0001
0000
1000
0000
0010
0000
0100
0000
0001
0010
0100
0000
,
1000
0000
0000
1000
0010
0000
0100
0000
0001
0000
1000
0000
0001
0000
0010
0000
,
0100
1000
0100
1000
0100
0000
0010
0000
0000
0001
0100
0000
0010
1000
0010
0000
,
0100
0000
0000
0100
0001
0000
1000
0000
0100
0000
1000
0000
0010
0000
0000
0000
,
0100
0001
0100
0001
0100
0000
0010
0000
1000
0000
0001
0000
0010
0100
0010
0000
,
0001
0000
0000
0001
1000
0000
0010
0000
0100
0000
0001
0000
0010
0000
0000
0001
,
0100
0010
1000
0001
0020
0000
0030
0000
,
0001
0000
0100
0001
0000
0010
0100
0000
1000
0000
0100
1000
0000
0010
0100
0000
,
0001
0000
0100
0001
0000
0010
0100
0000
0110
0000
0000
1001
0000
0000
0110
0000
,
1000
0000
0010
1000
0000
0100
0010
0000
0001
0000
0010
0001
0000
0100
0010
0000
,
1000
0000
0010
1000
0000
0100
0010
0000
0001
0100
0010
1000
0000
0000
0000
0000
,
1002
0100
1000
0100
,
1000
0010
1000
0010
,
1000
0000
0000
0000
0013
0100
2000
0000
0000
0000
0100
0000
0000
0000
0001
0000
,
0000
0100
0000
0001
0000
0010
0000
0001
,
0000
0000
0010
0000
0000
0000
0001
0000
0000
0000
3010
1000
0010
1000
0001
0000
,
0010
0100
0000
0100
0000
0010
0000
0100
1000
0000
1000
0000
0010
0000
0100
0001
,
0000
0001
0000
0010
0000
0100
1000
0000
1000
0000
0001
0000
1000
0010
0000
0100
,
0000
0100
0000
0001
0010
0000
0010
0000
0100
0000
1000
0001
0000
0010
0000
0001
,
0000
0100
0010
0000
1000
0000
1000
0000
0001
0010
0001
0010
0100
0000
1000
0000
,
0100
0000
0100
0000
0010
0000
0001
1000
0000
0010
0000
0001
0000
0001
0010
0000
,
0100
0000
0001
0000
1000
0000
0100
0010
0000
0010
0000
0001
1000
0000
0010
0000
,
0100
1000
0000
1000
0000
0100
0000
0110
0000
0000
0010
1000
0002
0000
0000
0000
,
1003
0000
0001
0100
0000
0010
0100
0000
0001
0000
1000
0000
0100
0010
0100
0000
,
1000
0000
0010
0000
0100
0000
0001
1000
0010
0000
1010
0000
1000
0000
1010
0000
,
0010
0000
0100
0000
0001
0010
0001
0000
0100
0000
0010
0000
0001
0010
1000
0000
,
0001
0000
0011
0000
0010
0001
0100
0000
0010
0000
1000
0100
1000
0100
0010
0000
,
0001
0000
1000
0010
0000
1000
0100
0000
0010
0000
0001
0000
1000
0010
1000
0000
,
0001
0000
0010
0000
0100
0000
1000
0001
0010
0000
0011
0000
0001
0000
0010
0100
,
1000
0000
0001
0000
1000
0010
1000
0000
0100
0000
0010
0000
1000
0010
0000
0011
,
0000
0001
0100
0000
0010
0000
1000
0001
0010
0100
1000
0001
0100
0000
0010
0000
,
0101
0000
0000
1010
0000
0000
2001
0000
0000
0000
3001
0000
0010
0000
0100
0000
,
1100
0000
0000
0011
0000
0000
1002
0000
0000
0000
2003
0000
3020
0000
0032
0000
,
0013
0000
0000
0110
0000
0000
2001
0000
0000
0000
3001
0000
1000
0000
0010
0000
,
0100
0001
0100
0000
0100
0000
0010
1000
0000
1000
0100
0010
0001
0000
0001
0100
,
0001
0000
0000
1010
0000
0000
2001
0000
0000
0000
3001
0000
0010
0000
0100
0000
,
1100
0000
0000
0011
0000
0000
1002
0000
1003
0000
0100
0000
0001
0000
0100
0000
,
0010
0000
0100
1000
0000
1000
0010
0000
0100
0001
0100
0000
0100
0010
1000
0000
,
1010
0000
0000
1100
0000
0000
0101
0000
0010
0100
0000
0000
0100
0010
0000
0000
,
1001
0000
0000
0001
0100
0000
1010
0000
0000
1000
0100
0000
0010
0000
0001
0000
,
1000
0010
1000
0000
0010
0100
0010
0000
0100
0001
0100
0000
0001
1000
0001
0000
,
1001
0000
0000
1000
0100
0000
0011
0000
0000
0001
0100
0000
0010
0000
1000
0000
,
0100
0000
0001
0000
0100
1000
0100
0000
0010
0000
0001
0100
0010
1000
0001
0000
,
1001
0000
0000
1000
0010
0000
0101
0000
0000
0001
0010
0000
0100
0000
1000
0000
,
0001
0010
0001
0000
0010
0100
0010
0000
0100
1000
0100
0000
1000
0001
1000
0000
,
1001
0000
0000
0001
0010
0000
1100
0000
0000
1000
0010
0000
0100
0000
0001
0000
,
1000
0000
0010
0000
0001
0000
0010
0000
1000
0010
1000
0010
0100
0001
0100
0000
,
0001
0000
0010
0000
1000
0000
0010
0000
0001
0010
0001
0010
0100
1000
0100
0000
,
0120
0032
2003
3010
,
0001
0100
0001
0000
1000
0000
0010
0000
1000
0100
0010
0001
0100
0000
0000
0000
,
0011
0000
0000
1000
0000
0001
0010
0000
0001
0100
0001
0000
1000
0010
1000
0000
,
0101
0000
0000
1000
0000
0001
0100
0000
0001
0010
0001
0000
1000
0100
1000
0000
,
1010
0000
0000
1000
0000
0001
0010
0000
0001
1000
0100
0000
1000
0001
0100
0000
,
0101
0000
0000
1000
0000
0001
0010
0000
0100
0000
1000
0001
0100
0010
1000
0000
,
0001
0000
0010
0100
0000
0100
1000
0000
0001
0100
0001
0000
1000
0010
1000
0000
,
0100
0000
0010
0001
0000
0001
1000
0000
0100
1000
0100
0000
0010
0001
0010
0000
,
0100
0000
1000
0001
0000
0001
0100
0000
0010
1000
0001
0000
0010
0001
1000
0000
,
1001
0000
0001
0000
0001
0100
0010
0000
1000
0100
0010
0001
0200
0000
0000
0000
,
0310
0000
1000
0100
0000
0001
0100
0000
0010
0000
0001
0100
0000
1000
0100
0000
,
0010
0000
1000
0100
0000
0001
0100
0000
0110
0000
0000
1001
0000
0000
0110
0000
,
0100
0000
0010
1000
0000
0010
0001
0000
0100
0000
0010
0001
0000
0010
1000
0000
,
0100
0000
0010
1000
0000
0010
0001
0000
1000
0010
0100
0001
0000
0000
0000
0000
;

//--------------- dance-double - forcednature ----------------
#NOTES:
     dance-double:
     forcednature:
     Easy:
     8:
     0,0,0,0,0:
00000000
00000000
00000000
00000000
,
00000000
00000000
00000000
00000000
,
00000000
00000000
00000000
00000000
,
00000000
00000000
00000000
00000000
,
00000000
00000000
00000000
00000000
,
00001000
00000000
00000000
00010000
00000000
00001000
00000000
00000000
00000000
00000000
00000000
00000000
00000000
00000000
00000000
00000000
,
00010000
00000000
00000000
00001000
00000000
00010000
00000000
00002000
00000000
00000000
00000000
00000000
00000000
00000000
00000000
00003000
,
00000000
00000000
00000000
00000000
,
00100000
00100000
01000000
10000000
,
00010000
00000000
00000000
01000000
00000000
00000000
00001000
00000000
00000000
00000000
00010000
00000000
00000000
00000000
00000000
00000000
,
00000100
00000100
00001000
00000010
,
00000100
00000000
00000000
00000001
00000000
00000000
00000100
00000000
00000000
00000000
00000010
00000000
00000000
00000000
00000000
00000000
,
00010000
00001000
00100000
00001000
,
00010000
00000000
00000000
00100000
00000000
00000000
01000000
00000000
00000000
00000000
00100000
00000000
00000000
00000000
00000000
00000000
,
10000000
01000000
00100000
00010000
,
01000000
00000000
00000000
00001000
00000000
00000000
00010000
00000000
00000000
00000000
00001000
00000000
00000000
00000000
00000000
00000000
,
00000010
00000000
00000010
00000000
00000100
00001000
00000100
00000000
,
00010000
00000000
00000000
00010000
00000000
00000000
00000000
00000000
00010000
00000000
00000000
00010000
00000000
00000000
00000000
00000000
,
00010000
00000000
00000000
00010000
00000000
00000000
00000000
00000000
00001000
00000000
00000000
00011000
00000000
00000000
00000000
00000000
,
00001000
00000000
00000000
00001000
00000000
00000000
00000000
00000000
00001000
00000000
00000000
00001000
00000000
00000000
00000000
00000000
,
00001000
00000000
00000000
00001000
00000000
00000000
00000000
00000000
00010000
00000000
00010000
00000000
00000000
00000000
00000000
00000000
,
00200000
00000000
00000000
00000000
,
00000000
00000000
00000000
00000000
,
00000000
00300000
00000000
20020000
00000000
00000000
00000000
00000000
,
00000000
00000000
00000000
00000000
,
00000000
00000000
00000000
30030000
00000000
10000000
01000000
00000000
,
01100000
00000000
00100000
00000000
00001000
00000000
00010000
00000010
,
00000000
00001000
00000000
00000010
00000000
00010000
00001000
00000000
,
00000010
00000000
00000100
00000000
00000010
00000001
00000000
00001000
,
00000000
00000000
00000001
00000000
00000000
00000000
00000100
00000000
00000010
00000000
00000000
00000010
00000000
00000000
00000000
00000000
,
00001000
00000000
00000100
00010000
00000000
00001000
00000000
01000000
,
00010000
00000000
00000000
00000000
00100000
00000000
00000000
01000000
00000000
00000000
00100000
00000000
01000000
00000000
00000000
00000000
,
10000000
00000000
00000000
10000000
00000000
00010000
00000000
00000000
01000000
00000000
00000000
00000000
00011000
00000000
00000000
00000000
,
00000100
00000000
00000000
00001000
00000000
00000000
00000010
00000000
00002000
00000000
00000000
00000000
00000000
00000000
00000000
00000000
,
00000000
00000000
00003000
00000000
00000100
00010000
00000000
00010000
,
00001000
00000000
00000000
01000000
00000000
00000000
00010000
00000000
00000000
00000000
00000000
00000000
00100000
00000000
00000000
00100000
,
00000000
01000000
00000000
10000000
00000000
00010000
00000000
00000000
,
01000000
00000000
00000000
00001000
00000000
00000000
00010000
00000000
00000020
00000000
00000000
00000000
00000000
00000000
00000000
00000000
,
00000000
00000030
00000000
00000100
00000002
00000000
00000003
00000010
,
00000200
00000000
00000000
00000000
00001000
00000000
00000000
00000000
00001000
00000000
00000000
00000000
00001300
00000000
00000000
00000100
,
00000000
00010000
00000000
00022000
00000000
00000000
00033000
00000000
,
01000000
00000000
00000000
00001000
00000000
00000000
02002000
00000000
00000000
00000000
00000000
00000000
03003000
00000000
00000000
00000000
,
00000100
00000000
00000000
00010000
00000000
00000000
00020200
00000000
00000000
00000000
00000000
00000000
00030300
00000000
00000000
00000000
,
00100000
00000000
00000000
00001000
00000000
00000000
00202000
00000000
00000000
00000000
00000000
00000000
00303000
00000000
00000000
00000000
,
00001000
00010000
00000100
00001000
,
00000010
00000000
00000000
00010000
00000000
00000000
00020020
00000000
00000000
00000000
00000000
00000000
00030030
00000000
00000000
00000000
,
00100000
00000000
00000000
00001000
00000000
00000000
00202000
00000000
00000000
00000000
00000000
00000000
00303000
00000000
00000000
00000000
,
00001000
00000000
00000000
00010000
00000000
00000000
00022000
00000000
00000000
00000000
00000000
00000000
00033000
00000000
00000000
00000000
,
01000000
00000000
00000000
01000000
00000000
00000000
00010000
00000000
00100000
00000000
00000000
00000000
00100000
00000000
00000000
00000000
,
01000000
00000000
00000000
10000000
00000000
00000000
01000000
00000000
00000000
00000000
01100000
00000000
00000000
00000000
00000000
00000000
,
00200000
00302000
00023000
00030020
,
00000130
00000000
00000000
00000001
00000000
00000000
00000100
00000000
00000000
00000000
00000110
00000000
00000000
00000000
00000000
00000000
,
00000020
00020030
00032000
00203000
,
01300000
00000000
00000000
10000000
00000000
00000000
01000000
00000000
00000000
00000000
01100000
00000000
00000000
00000000
00000000
00000000
,
00200000
00302000
00023000
00030020
,
00001030
00000000
00000000
00000001
00000000
00000000
00001000
00000000
00000000
00000000
00001100
00000000
00000000
00000000
00000000
00000000
,
00000200
00001000
00000010
00001000
,
00020300
00000010
00001000
00000100
,
00032000
02003000
03020000
00130000
,
01100000
00000000
00000000
00000000
01000000
10000000
01000000
00000000
,
00100000
00000000
00000000
00001000
00000000
00000000
00010000
00000000
00000000
00000000
00000010
00000000
00000000
00000000
00000000
00000000
,
00000100
00000000
00000000
00001000
00000000
00000000
00000100
00000000
00000000
00000000
00000001
00000000
00000000
00000000
00000000
00000000
,
00000010
00000000
00000000
00000100
00000000
00000000
00000010
00000000
00000000
00000000
00001000
00000000
00000000
00000000
00000000
00000000
,
00010000
00000000
00000000
00100000
00000000
00000000
01000000
00000000
00000000
00000000
00100000
00000000
00000000
00000000
00000000
00000000
,
10000000
00000000
00000000
01000000
00000000
00000000
00010000
00000000
00000000
00000000
01000000
00000000
00000000
00000000
00000000
00000000
,
00100000
00000000
00000000
00001000
00000000
00000000
00010000
00000000
00000000
00000000
00100000
00000000
00000000
00000000
00000000
00000000
,
00010000
00000000
00000000
00001000
00000000
00000000
00010000
00000000
00000000
00000000
00000100
00000000
00000000
00000000
00000000
00000000
,
00000110
00000000
00000000
00000000
00000010
00000001
00000010
00000000
,
00000100
00000000
00000000
00010000
00000000
00000000
00000000
00000000
00000100
00000000
00000000
00010000
00000000
00000000
00000000
00000000
,
00000100
00000000
00000000
00010000
00000000
00000000
00000000
00000000
00001000
00000000
00000000
00001000
00000000
00000000
00001000
00000000
,
01000000
00000000
00000000
00001000
00000000
00000000
00000000
00000000
01000000
00000000
00000000
00001000
00000000
00000000
00000000
00000000
,
01000000
00000000
00000000
00001000
00000000
00000000
00000000
00000000
00100000
00000000
00100000
00000000
00000000
00000000
00000000
00000000
;

//--------------- dance-double - forcednature ----------------
#NOTES:
     dance-double:
     forcednature:
     Medium:
     12:
     0,0,0,0,0:
00000000
00000000
00000000
00000000
,
00000000
00000000
00000000
00000000
,
00000000
00000000
00000000
00000000
,
00000000
00000000
00000000
00000000
,
00000000
00000000
00000000
00000000
,
00001000
00000000
00000000
00001000
00000000
00001000
00000000
00000000
00000000
00000000
00000000
00000000
00000000
00000000
00000000
00000000
,
00010000
00000000
00000000
00010000
00000000
00010000
00000000
00200000
00000000
00000000
00000000
00000000
00000000
00000000
00000000
00300000
,
00000000
00000000
00000000
00000000
,
01100000
00000000
01000000
00010000
01000000
00001000
00020000
00000000
,
00030100
00000000
00000000
00001000
00000000
00000000
00001010
00000000
00000000
00000000
00020200
00000000
00000000
00000000
00030300
00000000
,
00010000
00010000
00001000
00100000
01000000
00100000
00020000
00000000
,
01030000
00000000
00000000
00001000
00000000
00000000
00101000
00000000
00000000
00000000
00020200
00000000
00000000
00000000
00030300
00000000
,
00000100
00000100
00001000
00000010
00000001
00000010
00000100
00001000
,
00010000
00000000
00000000
00000100
00000000
00000000
00001100
00000000
00000000
00000000
00220000
00000000
00000000
00000000
00330000
00000000
,
00100000
00100000
01000000
00010000
00001000
00010000
00200000
00000000
,
01300000
00000000
00000000
00001000
00000000
00000000
00011000
00000000
00000000
00000000
00000220
00000000
00000000
00000000
00000330
00000000
,
00000001
00000010
00000100
00000010
00002000
00000000
00000000
00003000
,
00000000
00000000
00010000
00000100
00000000
00010000
00000100
00000000
00000000
00000000
00100000
00001000
00000000
00100000
00001000
00000000
,
00000000
00000000
00010000
00000010
00000000
00010000
00000010
00000000
00001000
00000000
00000000
00001000
00000000
00000000
00001000
00000000
,
00000000
00000000
00000100
00010000
00000000
00000100
00010000
00000000
00000000
00000000
00001000
01000000
00000000
00001000
01000000
00000000
,
00000000
00000000
00010000
00100000
00000000
00010000
00100000
00000000
01000000
00000000
01000000
10000000
00000000
00000000
00000000
00000000
,
20020000
00000000
00000000
00000000
,
00000000
00000000
00000000
00000000
,
00000000
30030000
00000000
02002000
00000000
00000000
00000000
00000000
,
00000000
00000000
00000000
00000000
,
00000000
00000000
00000000
03003000
00000000
00001000
00010000
00000100
,
00001000
00000000
00000000
00000001
00000000
00000100
00000000
00000001
00000000
00000000
00000010
00000000
00000100
00000000
00001000
00000000
,
00000000
00000010
00000000
00010000
00000000
00001000
00000000
00000000
00100000
00000000
00010000
00000000
01000000
00000000
00000000
00100000
,
00000000
10000000
00000000
00010000
00000000
00000000
00100000
00000000
01000000
00000000
00100000
00000000
00000000
00001000
00000000
00010000
,
00000000
00000010
00000000
00000000
00000100
00000000
00001000
00000000
00000100
00000000
00000001
00000000
00000010
00000000
00000001
00000000
,
00000100
00000000
00000001
00000000
00000010
00000000
00000000
00000100
00000000
00001000
00000000
00000100
00000000
00010000
00000000
00000100
,
00000000
00000000
00001000
00000000
00000010
00000000
00010000
00000000
00000000
00001000
00000000
00100000
00000000
00010000
00000000
00000000
,
01000000
00000000
00100000
00000000
00000000
10000000
00000000
20000000
00000000
00000000
00000000
00000000
31000000
00000000
00000000
00000000
,
00020000
00000000
00000000
00032000
00000000
00000000
00003020
00000000
00000230
00000000
00000000
00000000
00001000
00000000
00000000
00000000
,
00000010
00000000
00000000
00000000
00001300
00000000
00000100
00000000
00000020
00000000
00000000
00000032
00000000
00000000
00000203
00000000
,
00000320
00000000
00000000
00000000
00001000
00000030
00002000
00000000
00000000
00000000
00003100
00000000
00000100
00010000
00000000
00001000
,
00000000
01000000
00100000
01000000
10000000
01000000
01000000
00010000
,
00200000
00000000
00000000
00302000
00000000
00000000
00023000
00000000
00030020
00000000
00000000
00000000
00001000
00000000
00000000
00000000
,
00000100
00000000
00001030
00000001
00000020
00000100
00000000
00020030
,
00032000
00000000
00000000
00000000
01000000
00000000
00000000
00000000
00010000
00000000
00000000
00000000
00103000
00001000
00000000
00001000
,
00000000
00010000
00100000
01000000
01000000
01000000
00010000
10000000
,
01000000
00000000
00000000
01100000
00000000
00000000
10020000
00000000
00000000
00000000
01030000
00000000
00001000
00000000
00010000
00000000
,
00000100
00000000
00000000
00001100
00000000
00000000
00000012
00000000
00000000
00000000
00000103
00000000
00001000
00000000
00010000
00000000
,
00100000
00000000
00000000
01100000
00000000
00000000
20010000
00000000
00000000
00000000
31000000
00000000
00010000
00000000
00001000
00000000
,
01000000
00010000
00100000
00001000
00010000
00000010
00001000
00000100
,
00000010
00000000
00000000
00000110
00000000
00000000
00020100
00000000
00000000
00000000
00030010
00000000
00001000
00000000
00000100
00000000
,
00010000
00000000
00000000
01001000
00000000
00000000
00201000
00000000
00000000
00000000
01300000
00000000
10000000
00000000
01000000
00000000
,
00010000
00010000
00001000
00000010
00000010
00001000
00010000
00100000
,
01000000
00000000
00000000
01100000
00000000
00000000
00100000
00000000
10000000
01000000
00000000
00000000
01000000
00010000
00000000
00000000
,
00011000
00000000
00000000
00010100
00000000
00000000
00001010
00000000
00000000
00000000
00000202
00000000
00000000
00000000
00000303
00000000
,
00000001
00000010
00000100
00000010
00001000
00010000
00100000
01000000
,
01010000
00000000
00000000
00110000
00000000
00000000
01100000
00000000
00000000
00000000
20020000
00000000
00000000
00000000
30030000
00000000
,
10000000
01000000
00010000
01000000
00100000
00001000
00010000
00000010
,
00001010
00000000
00000000
00011000
00000000
00000000
01010000
00000000
00000000
00000000
00220000
00000000
00000000
00000000
00330000
00000000
,
00010000
01000000
10000000
01000000
00010000
00100000
00001000
00010000
,
00010100
00000000
00000000
00010010
00000000
00000000
00001001
00000000
00000000
00000000
00000220
00000000
00000000
00000000
00000330
00000000
,
00000001
00000000
00000100
00000000
00001000
00000000
00000100
00000000
00000010
00001000
00000010
00000000
00010000
00000000
00001000
00000000
,
00100000
00000000
01000000
00000000
00100000
00000000
00010000
00000000
10000000
00100000
10000000
00000000
01000000
00000000
00000000
00000000
,
00020000
00032000
00003020
00000130
,
00001002
00000000
00000000
00000000
00000103
00000000
00000000
00000000
00001000
00000010
00001000
00000010
00001000
00000000
00000000
00000000
,
00000200
00000000
00000000
00020300
00000000
00000000
00032000
00000000
01003000
00000000
00010000
00000000
00100000
00000000
00010000
00000000
,
02000000
00000000
00000000
03200000
00000000
00000000
20300000
00000000
31000000
00000000
00010000
00000000
01000000
00000000
00100000
00000000
,
00002000
00000000
00000000
00023000
00000000
00000000
00030020
00000000
00000130
00000000
00001000
00000000
00000100
00000000
00000001
00000000
,
00000020
00000000
00000000
00000230
00000000
00000000
00020300
00000000
00031000
00000000
00100000
00000000
01000000
00000000
00100000
00000000
,
00020000
00000000
00000000
01000000
00000000
00000000
10000000
00000000
00130000
00000000
00010000
00000000
01000000
00000000
00001000
00000000
,
00020000
00000000
00000000
00000100
00000000
00000000
00001000
00000000
00030010
00000000
00010000
00000000
00001000
00000000
00000010
00000000
,
00000200
00000000
00000000
00000001
00000000
00000000
00000010
00000000
00001300
00000000
00000100
00000000
00010000
00000000
00001000
00000000
,
01000000
00010000
00100000
10000000
00100000
01000000
02200000
00000000
,
03300000
00000000
00100000
00001000
00000000
00010000
00000100
00000000
00000000
00000000
00100000
00001000
00000000
00010000
00000100
00000000
,
00000000
00000000
00100000
00001000
00000000
00010000
00000100
00000000
00001000
00000000
00000000
00001010
00000000
00000000
00010010
00000000
,
00000000
00000000
00000010
00010000
00000000
00001000
01000000
00000000
00000000
00000000
00000010
00010000
00000000
00001000
01000000
00000000
,
00000000
00000000
00000010
00010000
00000000
00001000
01000000
00000000
00010000
00000000
00010000
00100000
00000000
00000000
00000000
00000000
;

//--------------- dance-double - forcednature ----------------
#NOTES:
     dance-double:
     forcednature:
     Hard:
     14:
     0,0,0,0,0:
00000000
00000000
00000000
00000000
,
00000000
00000000
00000000
00000000
,
00000000
00000000
00000000
00000000
,
00000000
00000000
00000000
00000000
,
00000000
00000000
00000000
00000000
,
00001000
00010000
00000000
00000100
00000000
00010000
00000000
00000000
00000000
00000000
00000000
00000000
00000000
00000000
00000000
00000000
,
00001000
00010000
00000000
00000010
00000000
00010000
00000000
00020200
00000000
00000000
00000000
00000000
00000000
00000000
00000000
00030300
,
00000000
00000000
00000000
00000000
,
00000100
00000000
00000001
00000010
00000001
00000000
00001000
00000010
00001000
00000000
00000100
00000000
00010000
00001000
01000000
00010000
,
01000000
00000000
00000000
01000000
00100000
00000000
10000000
00000000
01000000
00000000
00010000
00000000
00001000
00000000
00000000
00000000
,
00100000
00010000
00100000
00010000
00100000
00000000
01000000
00000000
00010000
00000000
00001000
00000000
00010000
00000100
00001000
00000000
,
00000010
00000000
00000000
00000010
00000100
00000000
00000001
00000000
00000010
00000000
00000100
00000000
00010000
00000000
00000010
00000000
,
00001000
00000100
00001000
00000100
00001000
00000000
00000010
00000000
00000000
00010000
00001000
00000000
00100000
00010000
00100000
00000000
,
01000000
00000000
00000000
01000000
10000000
00000000
00010000
00000000
01000000
00000000
00001000
00000000
00010000
00000000
00000000
00000000
,
00000100
00001000
00000100
00001000
00000100
00000000
00000010
00000000
00000001
00000000
00000100
00000000
00000010
00001000
00000010
00000000
,
00000100
00000000
00000000
00000100
00001000
00000000
00010000
00000000
00001000
00000000
01000000
00000000
00010000
00000000
00000000
00010000
,
00100000
01000000
10000000
01000000
00020000
00000000
00030000
00000000
,
00001000
00000000
00010000
00000100
00000000
00001000
00000010
00000000
00010000
00000000
00001000
01000000
00000000
00010000
00100000
00000000
,
00001000
00000000
00010000
00000100
00000000
00001000
00000010
00000000
00000100
00000000
00000000
00010000
00000000
00000000
01000000
00000000
,
00001000
00000000
00100000
00010000
00000000
01000000
00001000
00000000
00010000
00000000
00000010
00001000
00000000
00000100
00010000
00000000
,
00001000
00000000
00100000
00010000
00000000
01000000
00001000
00000000
00010000
00000100
00001000
00000100
00000000
00000000
00000000
00000000
,
00010200
00001000
00010000
00001000
,
00000010
00001000
00000010
00001000
,
00010000
00000000
00000000
00000000
00001300
00000100
00020000
00000000
00000000
00000000
00000010
00000000
00000000
00000000
00001000
00000000
,
00000000
00000010
00000000
00001000
00000000
01000000
00000000
00001000
,
00000000
00000000
01000000
00000000
00000000
00000000
00001000
00000000
00000000
00000000
00030010
00010000
00000010
00010000
00001000
00000000
,
00100000
00010000
00000000
00010000
00000000
01000000
00000000
00100000
10000000
00000000
10000000
00000000
01000000
00000000
00010000
00001000
,
00000000
00001000
00000000
00100000
00000000
00010000
01000000
00000000
01000000
00000000
00001000
00000000
00010000
00000100
00000000
00001000
,
00000000
00001000
00000000
00000010
00000100
00000000
00000100
00000000
00000001
00000000
00000010
00000100
00000000
00010000
00000000
00001000
,
00000000
00100000
01000000
00000000
10000000
00000000
10000000
00000000
00010000
01000000
00010000
01000000
00001000
00000000
00010000
00000000
,
00000100
00000000
00000100
00000000
00001000
00000000
00000010
00000100
00000000
00001000
00000000
00000100
00000000
00000100
00000001
00000000
,
00000010
00000000
00000100
00000000
00010000
00000000
00001000
01000000
00000000
01000000
00000000
00010000
00100000
00000000
01000000
00000000
,
10000000
01000000
00000000
01000000
00000000
00010000
00000000
00011000
00000000
00000000
00001000
00100000
00020000
00000000
00000000
00000000
,
01030000
00000000
10000000
01000000
00000000
00100000
01000000
00000000
00010000
00000000
00100000
00000000
00001000
00010000
00001000
00000000
,
00000010
00000000
00000100
00000000
00001000
00000000
00000001
00000100
00000010
00000000
00010000
00000000
00100000
00000000
00010000
00000000
,
00000010
00000000
00001000
00000000
00000100
00000010
00000100
00000000
00010000
00000000
00001000
00000000
00000100
00001000
00010000
00000000
,
00100000
00000000
01100000
00000000
01000000
00010000
00100000
00000000
01000000
00000000
10000000
00010000
10000000
00010000
01000000
00000000
,
00001000
00000000
00010000
00000010
00000000
00001000
00000010
00000000
00000100
00000000
00000001
00000000
00000010
00000100
00000010
00000000
,
00001000
00000000
00010000
00000000
00100000
00000000
01000000
00010000
10000000
00000000
00100000
00000000
00010000
00000000
00100000
01000000
,
00001000
00000000
00010000
00000000
00000100
00000010
00000100
00000000
00001000
00000000
00000010
00000000
00000001
00000010
00000000
00001010
,
00000000
00001000
00000100
00000000
00010000
00000000
00001000
01000000
00010000
01000000
00100000
10000000
00010000
00000000
00100000
00000000
,
01100000
00000000
00000000
10100000
00000000
00000000
21000000
00000000
00000000
00000000
30100000
00000000
00010000
00000000
00001000
00000000
,
00011000
00000000
00000000
00010100
00000000
00000000
00001020
00000000
00000000
00000000
00000032
00000000
00000023
00000000
00000230
00000000
,
00000301
00000000
00000000
00000011
00000000
00000000
00001200
00000000
00000000
00000000
00010300
00000000
00001000
00000000
01000000
00000000
,
00010000
00100000
00010000
00000000
00010000
00000000
01000000
00100000
00000000
01000000
00010000
01000000
00001000
00000000
00010000
00000000
,
00010100
00000000
00000000
00001010
00000000
00000000
00000102
00000000
00000000
00000000
00000013
00000000
00000100
00000000
00010000
00000000
,
00010010
00000000
00000000
00011000
00000000
00000000
00201000
00000000
00310000
00000000
00100000
00000000
01000000
00000000
00010000
00000000
,
01000000
00000000
10000000
00100000
00000000
00100000
01000000
00000000
00001000
00010000
00001000
00000000
00001000
00010000
00000100
00000000
,
00001100
00000000
00000000
00010010
00000000
00000000
00101000
00000000
00010000
01000000
00000000
00000000
10000000
01000000
00000000
00000000
,
01100000
00000000
00000000
00100000
10000000
00000000
11000000
00000000
00000000
01000000
00010000
00000000
00001000
00000000
00000010
00000000
,
00000001
00000100
00000001
00000000
00000010
00000100
00000010
00000000
00000100
00010000
00000100
00000000
00010000
00001000
00010000
00000000
,
00101000
00000000
00000000
00100000
01000000
00000000
11000000
00000000
00000000
10000000
00100000
00000000
01000000
00000000
00001000
00000000
,
00010000
00000000
00000100
00000000
00001000
00000010
00001000
00000000
00000100
00000000
00000010
00000001
00000100
00000010
00001000
00000000
,
00001100
00000000
00000000
00000100
00010000
00000000
00011000
00000000
00000000
00001000
00000100
00000000
00000010
00000000
00001000
00000000
,
00000100
00010000
00000100
00000000
00010000
00001000
00010000
00000000
00001000
01000000
00001000
00000000
01000000
00100000
01000000
00000000
,
10100000
00000000
00000000
10000000
01000000
00000000
01010000
00000000
00000000
00010000
00001000
00000000
00100000
00000000
00010000
00000000
,
01000000
00000000
00001000
00000000
00000100
00000000
00001000
00000000
00010000
00000010
00010000
00000010
00010000
00000010
00010000
00000000
,
00000100
00000000
00010000
00000000
01000000
00000000
00010000
00000000
00001000
00100000
00001000
00100000
00001000
00100000
00001000
00000000
,
00020000
02030000
03200000
00301000
,
00010000
00000010
00010000
00000000
00001000
00000000
00000010
00000000
00000100
00001000
00000001
00001000
00000010
00000000
00000000
00000000
,
00000110
00000000
00000000
00000100
00000000
00001000
00010000
00000000
00001000
01000000
00001000
00000000
00100000
00010000
00100000
00000000
,
01100000
00000000
00000000
01000000
00000000
10000000
00100000
00000000
01000000
00010000
01000000
00000000
00001000
00010000
00001000
00000000
,
00010100
00000000
00000000
00000100
00000000
00001000
00000010
00000000
00000100
00000001
00000100
00000000
00001000
00010000
00001000
00000000
,
00101000
00000000
00000000
00100000
00000000
01000000
10000000
00000000
00100000
00000000
01000000
00010000
01000000
00001000
00010000
00000000
,
00000100
00000000
00001000
00000010
00000000
00000010
00000100
00000000
00000001
00000010
00000001
00000000
00001000
00000100
00001000
00000000
,
00000010
00000000
00010000
00001000
00000000
00001000
00100000
00000000
01000000
10000000
01000000
00000000
00010000
00001000
00010000
00000000
,
00100000
00000000
01000000
00001000
00000000
00001000
00010000
00000000
00000100
00001000
00000100
00000000
00000010
00000001
00000010
00000000
,
00000110
00000000
00000100
00000000
00000100
00010000
00001000
00000000
01000000
00010000
10000000
00010000
00200000
00000000
00000000
00000000
,
01300000
00000000
00010000
00001000
00000000
00010000
00000010
00000000
00000100
00000000
00001000
00010000
00000000
00001000
00100000
00000000
,
01000000
00000000
00010000
00001000
00000000
00010000
00000010
00000000
00000110
00000000
00000000
00001001
00000000
00000000
00000110
00000000
,
00000100
00000000
00001000
00010000
00000000
00001000
00100000
00000000
01000000
00000000
00010000
00001000
00000000
00010000
00000010
00000000
,
00000100
00000000
00001000
00010000
00000000
00001000
00100000
00000000
01000000
00010000
01000000
10000000
00000000
00000000
00000000
00000000
;
