#VERSION:0.83;
#TITLE:Precious!!!;
#SUBTITLE:;
#ARTIST:mommy;
#TITLETRANSLIT:;
#SUBTITLETRANSLIT:;
#ARTISTTRANSLIT:;
#GENRE:FUSION;
#CREDIT:;
#MUSIC:Precious!!!.ogg;
#BANNER:Precious!!!.png;
#BACKGROUND:Precious!!!-bg.png;
#CDTITLE:;
#SAMPLESTART:6.974;
#SAMPLELENGTH:16.901;
#SELECTABLE:YES;
#OFFSET:1.477;
#BPMS:0.000=142.000;
#STOPS:;
#SPEEDS:0.000=1.000=0.000=0;
#SCROLLS:0.000=1.000;
#TICKCOUNTS:0.000=4;
#TIMESIGNATURES:0.000=4=4;
#LABELS:0.000=Song Start;
#COMBOS:0.000=1;
#ORIGIN:;
#PREVIEWVID:;
#JACKET:Precious!!!-jacket.png;
#CDIMAGE:;
#DISCIMAGE:;
#BGCHANGES:1.000=Precious!!!.mp4=1.000=0=0=1===CrossFade_Faster==,
99999.000=-nosongbg-=1.000=0=0=0=StretchNoLoop====
;
#FGCHANGES:;

//--------------- dance-single - chrononical ----------------
#NOTEDATA:;
#STEPSTYPE:dance-single;
#DESCRIPTION:chrononical;
#DIFFICULTY:Beginner;
#METER:5;
#RADARVALUES:0,0,0,0,0;
#NOTES:
0000
0000
0000
0000
,
0000
0000
0000
0000
,
0000
0000
0000
0000
,
0000
0000
0000
0000
,
1000
0000
0000
0001
0000
0200
0000
0000
,
0302
0000
0000
0000
0000
0000
0000
1003
0000
0000
0000
1000
0000
0000
0000
0000
,
0100
0000
0000
0100
0000
0000
0000
0010
0000
0000
0000
0001
0000
0000
0000
0000
,
2000
0000
0000
0000
0000
0000
0000
3001
0000
0000
0000
0001
0000
0000
0000
0000
,
0100
0000
0000
0100
0000
0000
0000
0001
0000
0000
0000
1000
0000
0000
0000
0000
,
0002
0000
0000
0000
0000
0000
0000
1003
0000
0000
0000
1000
0000
0000
0000
0000
,
0010
0000
0000
0010
0000
0000
0000
0100
0000
0000
0000
0001
0000
0000
0000
0000
,
2000
0000
0000
0000
0000
0000
0000
3001
0000
0000
0000
0001
0000
0000
0000
0000
,
0010
0000
0000
0010
0000
0000
0000
0200
0000
0000
0000
0000
0300
0000
0000
0000
,
0110
0000
0000
1001
0000
0000
0110
0000
,
0000
2002
0000
0000
0000
0000
3003
0000
,
1000
0000
0000
0000
0000
0000
0000
0020
0000
0000
0000
0130
0000
0000
0000
0001
,
0000
0000
0000
0000
0000
0000
0000
0020
0000
0000
0000
0130
0000
0000
0000
0000
,
1000
0000
0000
0000
0000
0000
0000
0020
0000
0000
0000
0130
0000
0000
0000
0001
,
0000
0000
0000
0000
0000
0000
0000
0020
0000
0000
0000
0130
0000
0000
0000
0000
,
0000
1000
0000
0000
1000
0000
0000
0002
0000
0003
0000
0000
0000
0000
0000
0200
,
0000
0300
0000
0000
0000
0000
0000
0010
0000
0000
0000
1000
0000
0000
0000
0000
,
0000
0001
0000
0000
0001
0000
0000
2000
0000
3000
0000
0000
0000
0000
0000
0200
,
0000
0300
0000
0000
0000
0000
0000
0010
0000
0000
0000
0001
0000
0000
0000
0000
,
0000
1000
0000
0000
0010
0000
0000
0200
0000
0300
0000
0000
0000
0000
0000
0002
,
0000
0003
0000
0000
0000
0000
0000
0010
0000
0000
0000
0100
0000
0000
0000
2000
,
0000
3000
0001
0000
0001
0000
1000
0000
,
0100
0000
0000
2002
0000
0000
3003
0000
,
0220
0000
0330
0000
,
2002
0000
3003
0000
,
1000
1000
0010
0010
,
0100
0100
0020
0030
,
0220
0000
0330
0000
,
2002
0000
0000
3003
,
0001
0001
0010
0010
,
0100
0100
2000
3000
,
1000
0000
0000
0001
0000
0020
0000
0000
,
0032
0000
0000
0000
0000
0000
0000
1003
0000
0000
0000
1000
0000
0000
0000
0000
,
0010
0000
0000
0010
0000
0000
0000
0100
0000
0000
0000
0001
0000
0000
0000
0000
,
2000
0000
0000
0000
0000
0000
0000
3001
0000
0000
0000
0001
0000
0000
0000
0000
,
0010
0000
0000
0010
0000
0000
0000
0001
0000
0000
0000
1000
0000
0000
0000
0000
,
0020
0000
0000
0000
0000
0000
0000
0130
0000
0000
0000
0100
0000
0000
0000
0000
,
0001
0000
0000
0001
0000
0000
0000
0010
0000
0000
0000
0100
0000
0000
0000
0000
,
0020
0000
0000
0000
0000
0000
0000
0130
0000
0000
0000
0100
0000
0000
0000
0000
,
1000
0000
0000
1000
0000
0000
0000
0020
0000
0000
0000
0000
0000
0000
0000
0000
,
0130
0100
0002
0000
,
1003
0000
0200
0000
,
0310
0001
0020
0000
,
2030
0000
3200
0000
,
0301
0000
0200
0000
,
0310
0010
0020
0000
,
1030
0000
0200
0000
,
0310
0000
2002
0000
,
3003
0000
0010
0100
,
0010
0000
2002
0000
,
3003
0000
0100
0010
,
0100
0000
1001
0000
,
1000
0000
1001
0000
,
0001
0000
0110
0000
,
1000
0000
0110
0000
,
2002
0000
0000
3003
,
0000
2000
0000
0000
0000
0000
0000
3001
0000
0000
0000
0001
0000
0000
0000
0000
,
0100
0000
0000
0100
0000
0000
0000
0010
0000
0000
0000
1000
0000
0000
0000
0000
,
0002
0000
0000
0000
0000
0000
0000
1003
0000
0000
0000
1000
0000
0000
0000
0000
,
0100
0000
0000
0100
0000
0000
0000
1000
0000
0000
0000
0001
0000
0000
0000
0000
,
0200
0000
0000
0000
0000
0000
0000
0310
0000
0000
0000
0010
0000
0000
0000
0000
,
1000
0000
0000
1000
0000
0000
0000
0100
0000
0000
0000
0010
0000
0000
0000
0000
,
0200
0000
0000
0000
0000
0000
0000
0310
0000
0000
0000
0010
0000
0000
0000
0000
,
0001
0000
0000
0001
0000
0000
0000
0200
0000
0000
0000
0000
0300
0000
0000
0000
,
0110
0000
0000
1001
0000
0000
0110
0000
,
0000
2002
0000
0000
0000
0000
0000
0000
,
3003
0000
0000
0000
,
0000
0220
0000
0000
0330
0000
0000
0000
;

//--------------- dance-single - chrononical ----------------
#NOTEDATA:;
#STEPSTYPE:dance-single;
#DESCRIPTION:chrononical;
#DIFFICULTY:Easy;
#METER:9;
#RADARVALUES:0,0,0,0,0;
#NOTES:
0000
0000
0000
0000
,
0000
0000
0000
0000
,
0000
0000
0000
0000
,
0000
0000
0000
0000
,
1000
0000
0000
0010
0000
0000
0100
0000
0000
0000
2002
0000
0000
0000
3003
0000
,
2000
0000
0000
0000
0000
0000
0000
3001
0000
0010
0000
0002
0000
0000
0000
0000
,
1003
0000
0000
0100
0000
0000
0000
0010
0000
0001
0000
1000
0000
0002
0000
0000
,
2003
0000
0000
0000
0000
0000
0000
3001
0000
0100
0000
0002
0000
0000
0000
0000
,
1003
0000
0000
0100
0000
0010
0000
0002
0000
2000
0000
0000
3003
0000
0000
0000
,
0002
0000
0000
0000
0000
0000
0000
1003
0000
0010
0000
2000
0000
0000
0000
0000
,
3001
0000
0000
0100
0000
0000
0000
0010
0000
1000
0000
0001
0000
2000
0000
0000
,
3002
0000
0000
0000
0000
0000
0000
1003
0000
0100
0000
2000
0000
0000
0000
0000
,
3001
0000
0000
0010
0000
0100
0000
2000
0000
0002
0000
0000
0000
0000
0003
0000
,
3001
0000
0000
0100
0000
0000
0010
0000
0000
1000
0000
0000
0100
0000
0000
0010
,
0000
2002
0000
0000
0000
0000
0000
3003
,
1000
0000
0010
0000
0000
0010
0000
0200
0000
0000
0000
0301
0000
2000
0000
3001
,
0000
0010
0000
0000
0000
0010
0000
0100
0000
1000
0000
0002
0000
0000
0000
0000
,
1003
0000
0100
0000
0000
0100
0000
0020
0000
0000
0000
0031
0000
2000
0000
3001
,
0000
0100
0000
0000
0000
0100
0000
0010
0000
1000
0000
0001
0000
0000
0000
0000
,
0000
1000
0000
0000
0100
0000
0000
0020
0000
0130
0000
0000
0000
1000
0000
0020
,
0000
0130
0000
0000
0000
0001
0000
0010
0000
0100
0000
1000
0000
0002
0000
0000
,
0000
1003
0000
0000
0010
0000
0000
0200
0000
0310
0000
0000
0000
1000
0000
0200
,
0000
0310
0000
0000
0000
0001
0000
0100
0000
0010
0000
1000
0000
0001
0000
0000
,
0000
0001
0000
0000
0010
0000
0000
0200
0000
0310
0000
0000
0000
0001
0000
0200
,
0000
0310
0000
0000
0000
1000
0000
0100
0000
0010
0000
0001
0000
1000
0000
0002
,
0000
0103
0010
1000
0001
0000
0010
0000
,
0100
0000
0000
1000
0000
0000
2002
0000
0000
0000
0000
0000
0000
0000
3003
0000
,
0001
0000
0000
0100
0000
0000
0000
0010
0000
0000
0020
0000
0000
0000
0030
0000
,
1000
0000
0000
0100
0000
0000
0000
0010
0000
0000
0020
0000
0000
0000
0031
0000
,
1000
0001
0100
0000
0001
1000
0100
0000
,
1000
0001
0010
0000
0001
1000
0010
0000
,
0100
0000
0000
0010
0000
0000
0000
0100
0000
0000
2000
0000
0000
0000
3000
0000
,
0100
0000
0000
0001
0000
0000
0000
0010
0000
0000
2000
0000
0000
0000
3010
0000
,
0100
1000
0001
0000
0100
0001
1000
0000
,
0010
1000
0001
0000
0010
0001
1000
0000
,
0001
0000
0000
0100
0000
0000
0010
0000
0000
0000
2002
0000
0000
0000
3003
0000
,
0002
0000
0000
0000
0000
0000
0000
1003
0000
0100
0000
2000
0000
0000
0000
0000
,
3001
0000
0000
0010
0000
0000
0000
0100
0000
1000
0000
0001
0000
2000
0000
0000
,
3002
0000
0000
0000
0000
0000
0000
1003
0000
0010
0000
2000
0000
0000
0000
0000
,
3001
0000
0000
0100
0000
0010
0000
2000
0000
0002
0000
0000
3003
0000
0000
0000
,
2000
0000
0000
0000
0000
0000
0000
3100
0000
0010
0000
0002
0000
0000
0000
0000
,
0103
0000
0000
0010
0000
0000
0000
1000
0000
0001
0000
0010
0000
0200
0000
0000
,
2300
0000
0000
0000
0000
0000
0000
3010
0000
0100
0000
0002
0000
0000
0000
0000
,
0013
0000
0000
0100
0000
1000
0000
0002
0000
0000
0000
0000
0000
0000
0000
0000
,
0103
0010
2000
0000
,
3100
0010
0002
0000
,
0103
0010
2000
0010
,
3002
0010
2003
0000
,
3100
0010
0002
0103
,
0020
0130
0002
0013
,
0100
0010
0002
0103
,
0010
0000
0100
0000
0220
0000
0000
0330
,
2002
0000
0000
3003
1000
0000
0100
0000
,
0010
0000
0100
0000
0220
0000
0000
0330
,
2002
0000
0000
3003
0001
0000
0100
0000
,
0010
1000
1010
0010
,
0100
0001
0011
0010
,
0100
1000
1000
0110
,
0001
0110
2001
0000
,
3020
0000
0000
0000
,
0000
2030
0000
0000
0000
0000
0000
3001
0000
0100
0000
0002
0000
0000
0000
0000
,
1003
0000
0000
0100
0000
0000
0000
0010
0000
0001
0000
1000
0000
0002
0000
0000
,
2003
0000
0000
0000
0000
0000
0000
3001
0000
0010
0000
0002
0000
0000
0000
0000
,
1003
0000
0000
0010
0000
0100
0000
0002
0000
2000
0000
0000
3003
0000
0000
0000
,
0002
0000
0000
0000
0000
0000
0000
0013
0000
0100
0000
2000
0000
0000
0000
0000
,
3010
0000
0000
0100
0000
0000
0000
0001
0000
0010
0000
0100
0000
1000
0000
0000
,
0002
0000
0000
0000
0000
0000
0000
0103
0000
0010
0000
2000
0000
0000
0000
0000
,
3100
0000
0000
0010
0000
0001
0000
2000
0000
0002
0000
0000
0000
0000
3003
0000
,
1000
0000
0000
0010
0000
0000
0100
0000
0000
0001
0000
0000
0010
0000
0000
0100
,
0000
2002
0000
0000
0000
0000
0000
0000
,
3003
0000
0000
0000
,
0000
0220
0000
0000
0330
0000
0000
0000
;

//--------------- dance-single - chrononical ----------------
#NOTEDATA:;
#STEPSTYPE:dance-single;
#DESCRIPTION:chrononical;
#DIFFICULTY:Medium;
#METER:13;
#RADARVALUES:0,0,0,0,0;
#NOTES:
0000
0000
0000
0000
,
0000
0000
0000
0000
,
0000
0000
0000
0000
,
0000
0000
0000
0000
,
1001
0000
0000
0101
0000
0000
0011
0000
0000
0000
2002
0000
0000
0000
3003
0000
,
0001
0020
0000
0000
0000
0000
0000
1030
0000
0010
0000
0002
0000
0000
1003
0001
,
1000
0000
0010
0100
0000
0001
1000
0100
0000
0010
0000
0001
0000
2000
0000
0000
,
3001
0200
0000
0000
0000
0000
0000
1300
0000
0100
0000
0002
0000
0000
1003
0001
,
1000
0000
0100
0010
0000
0001
0000
1000
0000
0010
0100
0001
0000
0000
0001
0000
,
1000
0200
0000
0000
0000
0000
0000
0301
0000
0100
0000
2000
0000
0000
3001
1000
,
0001
0000
0100
0010
0000
1000
0001
0010
0000
0100
0000
1000
0000
0002
0000
0000
,
1003
0020
0000
0000
0000
0000
0000
0031
0000
0010
0000
2000
0000
0000
3001
1000
,
0001
0000
0010
0100
0000
1000
0000
0002
0000
0000
0000
0000
0000
0000
0003
0000
,
1001
0000
0000
0010
0000
0000
1001
0000
0000
0010
0000
0000
1001
0000
0000
0010
,
0000
2002
0000
0000
0000
0000
0000
3003
,
1000
0000
0010
0000
0000
0100
0000
0001
0000
0010
0000
0100
0000
1000
0000
0001
,
0000
0100
0000
0000
0000
0010
0000
1000
0000
0100
0000
0001
0000
0100
0000
0000
,
1000
0000
0100
0000
0000
0010
0000
0001
0000
0100
0000
0010
0000
1000
0000
0001
,
0000
0010
0000
0000
0000
0100
0000
1000
0000
0010
0100
0010
0000
0000
0000
0000
,
0000
1000
0001
0000
0010
0001
0000
2000
0000
3020
0000
0000
0000
0130
0000
0002
,
0000
0023
0000
0000
0000
0130
0000
1000
0000
0001
0000
0100
0000
0002
0000
0023
,
0000
0031
1000
0000
0200
0000
0310
0002
0000
0203
0000
0000
0000
0310
0000
2000
,
0000
3200
0000
0000
0000
0310
0000
1000
0000
0010
0000
0001
0000
0200
0000
0000
,
0000
0301
1000
0000
0010
1000
0000
0002
0000
0023
0000
0000
0000
0130
0000
1000
,
0000
0020
0000
0000
0000
0130
0000
0001
0000
1000
0000
0100
0000
1000
0000
0020
,
0000
0000
0130
0000
0001
0000
0010
0000
1000
0000
0010
0100
0000
1000
0000
0001
,
1000
0000
0010
0100
0000
0001
2000
0000
0000
0000
0000
0000
0000
0000
0000
0000
,
3001
0000
0100
0010
0000
1000
0001
0010
0000
0000
0200
0000
0000
0000
0300
0000
,
1000
0000
0100
0010
0000
0001
1000
0010
0000
0000
0200
0000
0000
0000
0301
1000
,
0001
0010
0100
1000
0001
0100
0010
1000
,
0001
0100
0001
0100
0010
0100
0010
1000
,
0100
0000
0010
0100
0000
1000
0001
0100
0000
0000
2000
0000
0000
0000
3000
0000
,
0100
0000
0010
0100
0000
0001
1000
0100
0000
0000
0002
0000
0000
0000
0103
1000
,
0001
0100
0010
1000
0001
0010
0100
1000
,
0001
0010
0001
0010
0100
0010
0100
1000
,
1001
0000
0000
1010
0000
0000
1100
0000
0000
0000
2002
0000
0000
0000
3003
0000
,
1000
0020
0000
0000
0000
0000
0000
0031
0000
0010
0000
2000
0000
0000
3001
1000
,
0001
0000
0010
0100
0000
1000
0001
0100
0000
0010
0000
1000
0000
0002
0000
0000
,
1003
0200
0000
0000
0000
0000
0000
0301
0000
0100
0000
2000
0000
0000
3001
1000
,
0001
0000
0100
0010
0000
1000
0000
0001
0000
0010
0100
1000
0000
0000
1000
0000
,
0001
0200
0000
0000
0000
0000
0000
1300
0000
0100
0000
0002
0000
0000
0103
0010
,
1000
0000
0100
0010
0000
0100
1000
0001
0000
0100
0000
0010
0000
2000
0000
0000
,
3001
0020
0000
0000
0000
0000
0000
1030
0000
0010
0000
0002
0000
0000
0013
0100
,
1000
0000
0010
0100
0000
0001
0000
2000
0000
0000
0000
0000
0000
0000
0000
0000
,
3001
0000
0100
0010
0000
1000
0000
0200
0000
0000
0000
0000
0000
0000
0000
0000
,
0310
0000
0001
0000
1000
0000
0002
0000
0000
0000
0000
0000
,
1003
0000
0010
0100
0000
0001
0000
0020
0000
0000
0000
0000
2030
0000
0000
0000
,
3010
0000
0001
0000
1000
0000
0020
0000
0000
0000
0000
0000
,
0130
0000
0000
0000
0000
0000
0001
0000
0000
1000
0000
0000
0000
0000
0000
0100
0000
0000
0000
0000
0000
0020
0000
0000
0000
0000
0000
0000
0000
0000
0000
0000
0000
0000
0000
0000
0031
0000
0000
0000
1000
0000
0000
0000
0001
0000
0000
0000
,
0100
0000
0010
0000
0100
0000
0001
0000
1000
0000
0001
0000
0020
0000
0000
0000
0000
0000
0130
0000
0000
1000
0000
0000
,
0010
0000
1000
0001
0000
0100
0000
0020
0000
0000
0000
0000
1030
0000
0100
0000
,
0010
0000
0001
0000
0100
0010
0000
0000
0220
0000
0000
0000
0000
0000
0330
0000
,
2002
0000
0000
3003
1000
0010
0100
0001
,
1000
0000
0000
0000
0100
0000
0000
0000
0010
0000
0000
0000
0220
0000
0000
0000
0000
0000
0000
0000
0000
0330
0000
0000
,
2002
0000
0000
3003
1000
0000
1001
0000
,
0001
0000
0000
0000
0000
0000
0000
0000
0100
0000
0000
0000
0000
0000
0000
0000
0020
0000
0000
0000
0000
0000
0000
0000
0000
0000
0000
0130
0000
0000
0001
0000
0000
0000
0000
0000
1000
0000
0000
0100
0000
0000
0000
0000
0000
0010
0000
0000
,
0100
0000
1000
0001
0000
0200
0000
0000
0000
0310
1000
0000
0001
0010
0000
0100
,
0010
0000
0001
1000
0000
0020
0000
0000
1030
0000
0000
0000
0110
0000
0000
0000
,
0001
0000
0000
0110
0000
0000
2002
0000
0000
3000
0103
0010
,
2000
0000
0000
0000
,
0000
3200
0000
0000
0000
0000
0000
0301
0000
0100
0000
2000
0000
0000
3001
1000
,
0001
0000
0100
0010
0000
1000
0001
0010
0000
0100
0000
1000
0000
0002
0000
0000
,
1003
0020
0000
0000
0000
0000
0000
0031
0000
0010
0000
2000
0000
0000
3001
1000
,
0001
0000
0010
0100
0000
1000
0000
0001
0000
0100
0010
1000
0000
0000
1000
0000
,
0001
0020
0000
0000
0000
0000
0000
1030
0000
0010
0000
0002
0000
0000
0103
0001
,
1000
0000
0010
0100
0000
0001
0010
0100
0000
0100
0000
1000
0000
2000
0000
0000
,
3001
0200
0000
0000
0000
0000
0000
1300
0000
0100
0000
0002
0000
0000
0013
0001
,
1000
0000
0100
0010
0000
0010
0000
0002
0000
0000
0000
0000
0000
0000
0003
0000
,
1001
0000
0000
0100
0000
0000
1001
0000
0000
0100
0000
0000
1001
0000
0000
0100
,
0000
2002
0000
0000
0000
0000
0000
0000
,
3003
0000
0000
0000
,
0000
0220
0000
0000
0330
0000
0000
0000
;

//--------------- dance-single - chrononical ----------------
#NOTEDATA:;
#STEPSTYPE:dance-single;
#DESCRIPTION:chrononical;
#DIFFICULTY:Hard;
#METER:16;
#RADARVALUES:0,0,0,0,0,0,0,0,0,0,0,0,0,0,0,0,0,0,0,0,0,0,0,0,0,0,0,0;
#CHARTNAME:;
#CHARTSTYLE:;
#CREDIT:;
#NOTES:
0000
0000
0000
0000
,
0000
0000
0000
0000
,
0000
0000
0000
0000
,
0000
0000
0000
0000
,
1001
0000
0000
1010
0000
0000
1100
0000
0000
0100
0010
0001
1000
0001
0100
0010
,
1000
0001
0010
0100
0010
0001
0020
1000
0000
0100
0000
0032
0000
0000
1003
0001
,
1000
0100
0010
0100
1000
0010
0200
1000
0000
0010
0000
0010
0000
0302
0000
0000
,
1003
0001
0100
0010
0100
0001
0200
1000
0000
0010
0000
0302
0000
0000
1003
0001
,
1000
0100
0020
1000
0000
0100
0000
0230
0000
0310
0100
1000
0000
0001
1000
0000
,
0001
1000
0010
0100
0010
1000
0020
0001
0000
0100
0000
2030
0000
0000
3001
1000
,
0001
0100
0010
0100
0001
0010
0200
0001
0000
0010
0000
0010
0000
2300
0000
0000
,
3001
1000
0100
0010
0100
1000
0200
0001
0000
0010
0000
2300
0000
0000
3001
1000
,
0001
0100
0020
0001
0000
0130
0000
1001
0000
0001
0100
0010
0100
0010
1000
0001
,
1000
0100
0010
0100
0000
0000
0100
0010
0001
0010
0000
0000
0010
0001
1000
0001
,
0000
0100
0002
0000
0000
0000
0000
0000
0000
0000
0000
0000
0000
0000
2003
0000
,
3001
0010
0100
0000
0000
0010
0100
1000
0000
0001
1000
0010
0000
0100
0000
0002
,
0000
0013
0000
0100
0010
0001
1000
0010
0000
1000
0001
0100
0010
0100
0001
1000
,
0001
0100
0010
0000
0000
0100
0010
1000
0000
0001
1000
0100
0000
0010
0000
0002
,
0000
0103
0000
0010
0100
0001
1000
0010
0000
1000
0100
1000
0000
0000
0000
0000
,
0000
1000
0001
0000
1000
0100
0000
0002
0000
0203
0000
0000
1300
0010
0100
2000
,
0000
3200
0000
0000
0000
0310
1000
0001
0010
0100
0010
0001
1000
0002
0000
0203
,
0000
0301
1000
0000
0002
0000
0013
2000
0000
3020
0000
0000
0031
0100
0010
0002
,
0000
0023
0000
0000
0000
0130
0001
1000
0100
1000
0100
0010
0001
0020
0000
0000
,
0000
0031
1000
0000
0010
0100
0010
0002
0000
0023
0000
0000
1030
0100
0010
2000
,
0000
3020
0000
0000
0000
0130
1000
0001
0100
0010
0100
0001
0000
0010
0000
0210
,
0000
0000
0310
0000
0001
1000
0010
0100
1000
0100
0010
1000
0000
0100
0000
0010
,
0100
1000
0001
0100
0000
0010
0200
0000
0000
0000
0000
0000
0000
0310
1000
0001
,
1000
0100
0010
0001
0010
0100
1000
0001
0000
0001
0200
0000
0000
0000
0300
0000
,
0001
0100
0010
1000
0010
0100
0001
1000
0000
1000
0200
0000
0000
0000
0310
0001
,
1000
0100
0010
0001
1000
0010
0100
0001
1000
0100
0010
0001
1000
0010
0100
0001
,
0100
0010
0100
0010
1000
0001
1000
0001
0010
0100
0010
0100
1000
0001
1000
0001
,
0100
0010
1000
0001
0010
0100
1000
0100
0000
0100
0002
0000
0000
0000
0003
0000
,
0100
0010
0001
1000
0010
0100
0001
0100
0000
0100
2000
0000
0000
0000
3100
0001
,
1000
0010
0100
0001
1000
0100
0010
0001
1000
0010
0100
0001
1000
0100
0010
0001
,
0010
0100
0010
0100
1000
0001
1000
0001
0100
0010
0100
0010
1000
0001
1000
0000
,
1001
0000
0000
0101
0000
0000
0011
0000
0000
0010
0100
1000
0001
1000
0010
0100
,
0001
1000
0100
0010
0100
1000
0200
0001
0000
0010
0000
2300
0000
0000
3001
1000
,
0001
0010
0100
0010
0001
0100
0020
0001
0000
0100
0000
0100
0000
2030
0000
0000
,
3001
1000
0010
0100
0010
1000
0020
0001
0000
0100
0000
2030
0000
0000
3001
1000
,
0001
0010
0200
0001
0000
0010
0000
0320
0000
0130
0010
0001
0000
1000
0001
0000
,
1000
0001
0100
0010
1000
0010
0200
1000
0000
0010
0000
0302
0000
0000
1003
0100
,
0010
0001
1000
0100
1000
0001
0100
0020
0000
0100
0000
0100
0000
2030
0000
0000
,
3001
1000
0100
0010
0001
0010
0200
0001
0000
0010
0000
2300
0000
0000
3001
0100
,
0010
1000
0001
0020
0000
0100
0000
0130
0010
0000
0001
1000
0010
0000
1000
0010
,
0002
0000
0013
0100
0000
0010
0000
1000
0010
0000
1000
0001
0010
0000
0001
1000
,
0010
0000
0000
0000
0000
0000
0000
0000
0110
0000
0000
0000
0000
0000
0000
0000
1001
0000
0000
0000
0000
0000
0000
0000
1100
0000
0000
0000
0000
0000
1000
0000
0000
0001
0000
0000
0100
0000
0000
0000
0000
0000
0001
0000
0000
0010
0000
0000
,
2000
0000
3010
0100
0000
0010
0000
0001
0010
0000
0001
0100
1000
0000
1000
0100
,
0010
0000
0000
0000
0000
0000
0000
0000
0110
0000
0000
0000
0000
0000
0000
0000
1001
0000
0000
0000
0000
0000
0000
0000
2100
0000
0000
0000
0000
0000
0000
0000
0000
0000
0000
0000
0000
0000
0000
3100
0000
0000
0010
0000
0000
0001
0000
0000
,
1000
0000
0000
0010
0000
0000
0100
0000
0000
1000
0000
0000
0000
0000
0000
0100
0000
0000
0000
0000
0000
0020
0000
0000
0000
0000
0000
0000
0000
0000
0000
0000
0000
0000
0000
0000
1030
0000
0000
0000
0100
0000
0000
0000
0001
0000
0000
0000
,
1000
0000
0000
0000
0010
0000
0000
0000
0001
0000
0000
0000
1000
0000
0000
0000
0010
0000
0000
0000
0001
0000
0000
0000
0020
0000
0000
0000
0000
0000
0000
0000
0000
0130
0000
0000
0001
0000
0000
1000
0000
0000
0010
0000
0000
0100
0000
0000
,
0001
1000
0100
0001
0000
0100
0000
0020
0000
0000
0000
0130
1000
0001
0100
0010
,
0100
0010
1000
0010
1000
0100
0000
0000
2002
0000
0000
0000
3003
0000
0001
0100
,
2000
0000
3100
0010
0000
0100
0000
0001
0100
0000
0001
1000
0100
0000
1000
0001
,
0100
0000
0000
0000
0000
0000
0000
0000
0110
0000
0000
0000
0000
0000
0000
0000
1010
0000
0000
0000
0000
0000
0000
0000
2002
0000
0000
0000
0000
0000
0000
0000
0000
0000
0000
0000
3003
0000
0000
0001
0000
0000
0010
0000
0000
0100
0000
0000
,
0002
0000
0103
0010
0000
0100
0000
1000
0100
0000
1000
0010
0001
0000
0001
0010
,
0100
0000
0000
0000
0000
0000
0000
0000
0110
0000
0000
0000
0000
0000
0000
0000
0102
0000
0000
0000
0000
0000
0000
0000
0000
0000
0000
1003
0000
0000
0100
0000
0000
0010
0000
0000
0001
0000
0000
0010
0000
0000
0100
0000
0000
0010
0000
0000
,
0002
0000
1003
0010
0000
0210
0000
0000
0000
0301
0100
0010
1000
0010
0100
0001
,
2000
0000
3100
0010
0000
0110
0000
0000
2100
0000
3010
0000
0100
0000
0001
0000
,
0102
0000
0000
0013
0000
0000
0100
0000
0000
1000
0000
0000
1001
0000
0000
0001
0000
0000
0100
0000
0001
0000
1000
0000
,
0200
0000
0000
0310
0001
0000
0001
1000
0010
0100
0001
1000
0100
0010
0002
0000
,
0000
0203
0000
0000
0000
0000
0000
1000
0000
0010
0000
0302
0000
0000
1003
0001
,
1000
0010
0100
0010
1000
0100
0020
1000
0000
0100
0000
0100
0000
0032
0000
0000
,
1003
0001
0010
0100
0010
0001
0020
1000
0000
0100
0000
0032
0000
0000
1003
0001
,
1000
0010
0200
1000
0000
0010
0000
0320
0000
0130
0010
1000
0000
0001
1000
0000
,
0001
1000
0100
0010
0001
0100
0020
0001
0000
0100
0000
2030
0000
0000
3001
0010
,
0100
1000
0010
0100
0001
0010
0001
0200
0000
0010
0000
0010
0000
0302
0000
0000
,
1003
0001
0010
0100
1000
0010
0200
1000
0000
0010
0000
0302
0000
0000
1003
0100
,
0010
0001
0100
0010
0000
0100
0000
1001
0000
1000
0100
0010
0100
0010
0001
1000
,
0001
0100
0010
0100
0000
0000
0100
0010
1000
0010
0000
0000
0010
1000
0001
1000
,
0000
0100
2000
0000
0000
0000
0000
0000
0000
0000
0000
0000
0000
3001
1000
0000
,
1001
0000
0001
0100
0010
0100
0010
1000
0001
1000
0001
0010
0100
0010
0100
1000
,
0000
2002
0000
0000
3003
0000
0000
0000
;
