#VERSION:0.83;
#TITLE:Pre Paid Pog Punk Panic;
#SUBTITLE:;
#ARTIST:Hercelot;
#TITLETRANSLIT:;
#SUBTITLETRANSLIT:;
#ARTISTTRANSLIT:;
#GENRE:;
#CREDIT:;
#MUSIC:Pre Paid Pog Punk Panic.ogg;
#BANNER:Pre Paid Pog Punk Panic-bn.png;
#BACKGROUND:Pre Paid Pog Punk Panic-bg.png;
#CDTITLE:;
#SAMPLESTART:5.055;
#SAMPLELENGTH:15.000;
#SELECTABLE:YES;
#OFFSET:1.261;
#BPMS:0.000=190.000;
#STOPS:;
#BGCHANGES:;
#FGCHANGES:;

//--------------- dance-single - ----------------
#NOTEDATA:;
#STEPSTYPE:dance-single;
#DESCRIPTION:;
#DIFFICULTY:Hard;
#METER:14;
#RADARVALUES:0,0,0,0,0;
#CREDIT:Talkion;
#NOTES:
0000
0000
0000
0000
,
0000
0000
0000
0000
,
0000
0000
0000
0000
,
0000
0000
0000
0000
,
0000
0000
0000
0000
,
0001
0100
0010
1000
0000
0001
0010
0100
,
0010
0001
0000
0110
0000
1000
0010
0100
,
0001
0100
0010
1000
0000
0001
1000
0100
,
0020
0000
0000
0230
0000
0000
0302
0000
0000
0203
0000
0000
0310
0000
0001
0000
,
1000
0010
0100
0001
0000
1000
0001
0010
,
0100
0000
1000
0000
1000
0000
0001
0010
0001
0000
1000
0010
1000
0000
0001
0000
,
0100
0010
0100
0001
1000
0010
0100
0010
,
0001
0010
0000
0010
0100
0000
0010
1000
0000
0000
2001
0000
0000
0000
3010
0000
,
1000
0000
0100
0000
0010
0000
0002
0000
0000
0000
1003
0000
0100
0000
1000
0001
,
1000
0000
0010
0000
0000
0000
0002
0000
0000
0000
0013
0000
1000
0001
1000
0000
,
0100
0010
0001
0110
0000
1000
0001
0100
,
0010
0000
2000
0000
0000
3001
0000
0001
0020
0000
0000
0000
2030
0000
0000
0000
,
3010
0100
1000
0001
0000
0100
0010
0100
,
0001
1000
0000
0110
0001
0001
0010
0100
,
1000
0001
0100
0100
0010
0010
1000
1000
,
0100
0010
1000
0010
0100
0001
0100
0010
,
0001
0001
0001
0001
,
1000
0020
0100
0030
0100
0000
0100
0000
,
0001
0001
0001
0001
,
1002
0100
0010
0103
,
1020
0000
0000
0000
0031
0000
0021
0000
0000
0000
2030
0000
0000
3100
0000
0000
,
1200
0000
0000
0000
0301
0000
0201
0000
0000
0000
2300
0000
0000
3010
0000
0000
,
1020
0000
0000
0000
0031
0000
0021
0000
0000
0000
2030
0000
0000
0100
0000
0000
,
3001
0001
0001
MMMM
,
0001
1000
0010
0100
0010
1000
0002
0013
,
0100
1000
0100
0010
0010
0001
1000
0010
,
0100
0010
0002
0013
0100
0001
0100
0010
,
2000
0000
3001
0000
0010
0000
0100
0000
1000
0000
0100
0000
0010
0000
0001
1000
,
0002
0000
0103
0000
0010
0000
1000
0000
0010
0100
0010
0000
0002
0000
0013
0000
,
0100
0001
2000
0100
3001
1000
0010
0100
,
0002
1000
0013
0100
1000
0001
0100
0001
,
1000
0100
0010
1000
0001
0100
0010
0001
,
0000
1000
0010
0100
0010
1000
1000
0001
,
0010
0100
2000
0001
3010
0100
0001
1000
,
0100
0010
2000
3010
0100
1000
0001
0200
,
0310
0000
1000
0000
0010
0000
0100
0000
2000
0000
0000
0000
3100
0000
0001
1000
,
0002
0000
0013
0000
0100
0000
1000
0000
0001
0010
0001
0000
1000
0000
0001
0000
,
0100
0010
0100
0001
0020
0130
1000
0010
,
0100
0001
0001
0100
0010
1000
0001
0010
,
2000
0000
3001
0200
0000
1300
0002
0000
,
MMM0
0003
1001
1000
0010
0001
0010
1000
,
0100
0001
0100
1000
0020
0000
0130
0000
,
1001
0001
0010
1000
0010
0001
0100
1000
,
0100
0010
0100
0010
0100
0000
0001
0000
0010
0000
1000
0000
0010
0000
0001
0000
,
0201
0000
1300
1200
0000
0301
0021
0000
,
1030
1020
0000
0031
0201
0000
1300
0100
,
0001
0000
0010
0000
0100
0000
1000
0000
0100
0000
0010
0000
0001
1000
0001
1000
,
0020
0000
0000
0000
0000
0000
MM0M
0030
,
1002
0000
0000
0000
0013
0000
0200
0000
0000
0000
0310
0000
0001
1000
0001
0000
,
0100
0010
0100
2000
0000
3100
0020
0000
,
2030
0000
0000
0000
3002
0000
0000
0010
0000
0000
1003
0000
2100
0000
0000
0000
,
3001
0110
0000
1000
0110
0000
2001
0000
,
3100
0010
0200
0000
0010
0000
1300
2000
,
0000
0001
0000
3020
0000
0230
0000
0310
,
0001
0010
0100
0010
1000
0001
0020
0000
,
0130
0100
0001
0000
0201
0000
0310
0001
,
2000
0000
0000
0000
3010
0000
0200
0000
0000
0000
0310
0000
1000
0001
1000
0000
,
0100
0000
0000
0001
0000
0000
1000
0000
0000
0010
0000
0000
0002
0000
1000
0000
,
0203
0000
0320
1000
0000
0130
0002
0000
,
2003
0000
0000
0100
0000
0000
3001
0000
0010
0000
0100
0000
0010
0000
0001
0000
,
2000
0000
3010
0100
0001
0100
0020
0000
,
1030
1000
0002
0000
0013
0200
0000
0310
,
0001
0000
0000
0000
,
1000
1000
2000
0000
,
3001
0000
0000
0000
0100
0000
0010
0100
,
0002
0000
1000
0003
,
0001
0010
0100
2000
0001
0000
0000
0010
,
0000
0010
0000
3002
0010
0000
0003
0000
,
1000
1000
0200
0000
,
0320
0000
0032
0000
,
1003
0020
1000
0000
0100
0000
0000
2030
,
0000
0001
0000
0000
3100
0000
0100
0010
,
0001
0000
0001
0000
1000
0020
0000
0230
,
0000
0302
0000
0203
0000
0320
0000
1030
,
0002
0000
0013
0200
0000
2300
0000
3100
,
0020
0000
0031
2000
0000
3010
0000
0020
,
0000
0000
0230
0000
0000
0000
0302
0000
0000
0000
1003
0000
0000
0100
0000
0100
,
0010
0000
0001
0000
1000
0000
0000
0010
0000
0010
0100
0000
0001
0000
1000
0000
,
0100
0100
0010
0100
0100
1000
0002
0000
,
00M3
0000
00M0
0000
00M0
0001
0110
0000
,
1000
0010
0100
0002
0000
1003
0010
1000
,
0001
0010
0100
0002
0000
0103
0010
0001
,
1000
0010
0100
0100
0001
0001
1000
1000
,
0100
0010
1000
0001
0100
0010
0002
0000
,
0010
0000
0000
0100
0000
0000
0023
0000
0000
0000
0130
0000
2000
0000
0000
0000
,
3001
0100
0010
0002
0000
0013
0100
0001
,
1000
0100
0010
0010
0001
0001
0100
0100
,
0010
0000
0010
0000
1000
0000
1000
0000
0001
0010
0100
0010
0001
0000
0000
0000
,
2000
0000
0010
0000
3001
0000
2000
0000
0010
0000
3001
0000
0010
0100
1000
0000
,
0002
0010
1003
0100
0010
2000
0MMM
0000
,
3020
0000
0100
0000
0031
0000
0020
0000
0100
0000
0031
0000
1000
0010
0100
0000
,
0002
0100
1003
0010
0100
2000
0MMM
0000
,
3200
0010
0301
0020
0100
0032
MMM0
0000
,
2003
0000
0100
0000
3010
0000
0100
0000
0001
0000
0000
0100
0000
0100
0010
0000
,
0002
0000
0000
2003
0000
0000
3100
0000
,
0001
0000
1000
0100
0010
0001
2000
0000
0000
0000
0001
0000
0000
0001
0000
0000
,
0000
3020
0000
0000
0000
0000
0000
0000
0230
0000
0000
0000
0000
0000
0000
0000
,
0000
0000
0000
0300
,
2002
0000
0000
0000
,
0000
0000
0000
0000
,
3003
0000
0000
0000
;

//--------------- dance-single - ----------------
#NOTEDATA:;
#STEPSTYPE:dance-single;
#DESCRIPTION:;
#DIFFICULTY:Challenge;
#METER:16;
#RADARVALUES:0,0,0,0,0;
#CREDIT:Talkion;
#NOTES:
0000
0000
0000
0000
,
0000
0000
0000
0000
,
0000
0000
0000
0000
0020
0000
0000
0030
,
1002
0000
0013
0100
1000
0001
0100
0020
,
0000
0031
0010
0100
0002
1000
0000
M003
,
0011
0010
0100
1000
0000
0001
0100
0010
,
0100
1000
000M
1020
0030
1000
0010
1000
,
0001
0010
0100
1000
0000
0001
0100
0010
,
2000
0000
0000
3200
0000
0000
0302
0000
0000
0203
0000
0000
1300
0000
0010
0000
,
0100
0001
0100
0010
0000
1000
0001
0010
,
0100
0000
0001
M000
0001
0000
0010
0100
0010
0000
0001
1000
0001
0000
0010
0000
,
0100
1000
0010
0100
0001
0100
0010
0001
,
1000
0100
0000
0100
0010
0000
0100
0001
0000
0000
2001
0000
0000
0000
3010
0000
,
1000
0000
0100
0000
0010
0000
0002
0000
0000
0000
0013
0000
0100
0000
1000
0001
,
1000
0001
0100
0000
0000
0000
2000
0000
0000
0000
3100
0000
0001
1000
0100
1000
,
0001
0000
0010
0000
1000
000M
1200
0000
0300
0000
1000
0000
0100
0000
1000
0000
,
0001
0000
0100
0010
1000
0001
0000
0001
1000
0100
1000
0100
0020
0000
0000
0000
,
0031
0100
0010
1000
0000
0001
0010
0100
,
0010
1000
000M
1200
1300
0001
0100
0010
,
1000
0010
0100
0001
0001
0001
0001
0001
,
0010
1000
0010
0001
0100
1000
0100
0001
,
0010
0010
0010
0010
,
0100
2000
0001
3000
0001
0000
0001
0000
,
0100
0100
0100
0100
,
2001
0010
0100
3010
,
1000
0010
0100
0000
0001
0000
1000
0010
0100
0000
0002
0000
0000
0013
0000
0000
,
0001
0010
0100
0000
1000
0000
0001
0010
0100
0000
2000
0000
0000
3010
0000
0000
,
1000
0010
0100
0000
0001
0000
1000
0010
0100
0000
0002
0000
0000
0013
0000
0000
,
0100
0100
0100
MMMM
,
0001
1000
0010
0100
1000
0100
0020
1030
,
0001
0010
0100
0001
0001
0100
0010
0001
,
1000
0100
1002
0103
0010
0100
1000
0100
,
2010
0000
3001
0000
0010
0000
0100
0000
1000
0000
0010
0000
0100
0000
0001
1000
,
0002
0000
0013
0000
0100
0000
0010
0000
1000
0010
0100
0000
1200
0000
0310
0000
,
0001
0100
0020
0001
0130
0001
0010
0100
,
0020
1000
0130
1000
0010
0100
0010
0001
,
0010
0100
0010
0000
1000
0001
1000
0000
0100
0010
0001
0000
0010
0100
1000
0000
,
0001
0100
0010
0001
1000
0100
0100
0010
,
1000
0100
0020
1000
0031
1000
0010
0100
,
1000
0001
0021
0000
0130
0001
0010
0200
,
1300
0000
0100
0000
0010
0000
0001
0000
1000
0001
0100
0001
1000
0000
0010
0100
,
0002
0000
0103
0000
0010
0000
0100
0000
1000
0100
0010
0000
1020
0000
0130
0000
,
0001
0010
0200
0001
1300
0001
0100
0010
,
0200
1000
0301
1000
0100
0010
0100
0001
,
0100
0010
0100
0010
0100
0000
1000
0001
1000
0001
1000
0000
0020
0000
0000
0000
,
MM0M
0030
1001
1000
0200
0010
2300
0001
,
3020
0100
0032
0010
2003
0000
3100
0000
,
0002
1000
0203
0010
0302
1000
0013
0100
,
0001
0100
0001
0100
0020
0000
1000
0000
0230
0000
1000
0000
0310
0000
0001
0000
,
1000
0010
0100
0000
0001
0000
1000
0010
0100
0000
0001
0000
1000
0100
0010
0000
,
0001
0000
1000
0100
0010
0000
0001
1000
0001
0100
0000
0100
0010
0000
1000
0000
,
0001
0000
0001
0000
0010
0000
0010
0000
0100
0000
0100
0000
1000
0001
1000
0010
,
0200
0000
0000
0000
0000
0000
M0MM
0300
,
1000
0000
1000
0000
0001
0000
1000
0000
1000
0000
0100
0000
1000
0001
1000
0010
,
0100
0000
0001
0000
0100
0000
0010
0000
1000
0001
1000
0001
0020
0000
0000
0000
,
0130
1000
0100
0000
0020
0000
0000
0031
0000
0001
0100
0000
2010
0000
0000
0000
,
3001
0110
0000
1000
0110
0000
2001
0000
,
3010
0000
1000
0001
0000
0001
1000
0000
0200
0000
0000
0310
0000
0020
0000
0000
,
0031
0000
1000
0010
0100
0000
0010
0000
1000
0001
0000
0001
0010
0000
0100
1000
,
0100
0000
0010
0000
0001
0000
0000
0001
0200
0000
0000
0000
0310
0000
1000
0001
,
1000
0000
0100
0000
0001
0000
0000
0000
0201
0000
0000
0000
0310
0000
0100
0010
,
0001
0000
0001
0000
1000
0000
0001
0000
0001
0000
0100
0000
0010
0100
0010
0000
,
0001
0000
0000
1000
0000
0000
0100
0000
0000
0001
0000
0000
0020
0000
0001
0000
,
0130
0000
1000
0000
0001
0000
0100
0010
0000
0010
0100
0000
0001
0000
0000
0000
,
2000
0000
0000
3100
0000
0100
0010
0000
0001
0000
1000
0000
0001
0000
0001
0000
,
0100
0010
0100
0000
0001
0000
0010
0100
0010
0000
0001
0000
2000
0000
0000
0000
,
3010
0000
0010
0000
0010
0100
0001
0000
1000
0000
0200
0000
0010
0000
0000
0000
,
1300
0000
0000
0000
,
0001
0001
0002
0000
,
1003
0000
0000
0000
0010
0000
0100
0010
,
2000
0000
0001
3000
,
1000
0100
0010
0002
1000
0000
0000
0100
,
0000
0100
0000
2003
0100
0000
3000
0000
,
0001
0001
0020
0000
,
0230
0000
2300
0000
,
3001
0200
0001
0000
0010
0000
0000
0302
,
0000
1000
0000
0000
0013
0000
0010
0100
,
1000
0000
1000
0000
0001
0200
0000
0320
,
0000
0032
0000
0023
0000
0230
0000
0301
,
2000
0000
3100
0020
0000
2030
0000
3010
,
0200
0000
0310
0002
0000
0103
0000
0200
,
0000
0000
0320
0000
0000
0000
2030
0000
0000
0000
3001
0000
0010
0100
0000
0100
,
0010
0000
0001
0000
1000
0000
0001
0100
0000
0100
0010
0100
0001
0000
1000
0000
,
0001
0000
0001
0000
0010
0000
0001
0000
0001
0000
1000
0000
0100
0010
0001
0000
,
M000
0000
M000
0000
M000
0001
0110
0000
,
1000
0010
0100
0002
0000
1003
0010
1000
,
0001
0000
0010
0000
0100
0000
0002
0000
0000
0000
0103
0000
0010
0000
0001
1000
,
0001
0100
0010
0010
1000
1000
0001
0001
,
0010
0000
0100
0000
0001
0000
1000
0000
0010
0000
0100
0000
1000
0001
1000
0001
,
0100
0000
0001
1000
0010
1000
0001
0000
0000
0010
0100
0000
1000
0001
0010
0001
,
1000
0000
0010
0000
0100
0000
2000
0000
0000
0000
3100
0000
0010
0000
1000
0001
,
1000
0100
0010
0001
0001
0001
0001
0001
,
0100
0000
0010
0000
1000
0001
1000
0000
0100
0010
0001
0010
0100
0000
0000
0000
,
2000
0000
0010
0000
3001
0000
2000
0000
0010
0000
3001
0000
0010
0100
1000
0000
,
0002
0000
0010
0000
1003
0000
0001
1000
0010
0100
1000
000M
2010
0000
3000
0000
,
0002
0000
0010
0000
1003
0000
0002
0000
0010
0000
1003
0000
0010
0100
0001
0000
,
2000
0000
0010
0000
3001
0000
1000
0001
0010
0100
0001
M000
0012
0000
0003
0000
,
1000
0000
0001
0010
0001
0000
1000
0010
0100
0000
1000
000M
2000
0000
0000
0000
,
3001
0000
1000
0010
1000
0000
0001
0010
0100
0000
1000
0010
0100
0001
0010
0000
,
2000
0000
0000
3002
0000
0000
0103
0000
,
1000
0100
0010
0001
0100
0010
2000
0000
0000
0000
0001
0000
0000
0001
0000
0000
,
0000
3200
0000
0000
0000
0000
0000
0000
0320
0000
0000
0000
0000
0000
0000
0000
,
0000
0000
0000
0030
,
2002
0000
0000
0000
,
0000
0000
0000
0000
,
3003
0000
0000
0000
;
