#VERSION:0.83;
#TITLE:Pixel Perfect;
#SUBTITLE:;
#ARTIST:Mameyudoufu;
#TITLETRANSLIT:;
#SUBTITLETRANSLIT:;
#ARTISTTRANSLIT:;
#GENRE:;
#ORIGIN:;
#CREDIT:;
#BANNER:STPlatinum.png;
#BACKGROUND:STPlatinum-bg.png;
#PREVIEWVID:;
#JACKET:STPlatinum-jacket.png;
#CDIMAGE:;
#DISCIMAGE:;
#LYRICSPATH:;
#CDTITLE:;
#MUSIC:Pixel Perfect.ogg;
#OFFSET:0.062000;
#SAMPLESTART:44.969997;
#SAMPLELENGTH:15.000000;
#SELECTABLE:YES;
#BPMS:0.000=128.000;
#STOPS:;
#DELAYS:;
#WARPS:;
#TIMESIGNATURES:0.000=4=4;
#TICKCOUNTS:0.000=4;
#COMBOS:0.000=1;
#SPEEDS:0.000=1.000=0.000=0;
#SCROLLS:0.000=1.000;
#FAKES:;
#LABELS:0.000=Song Start;
#BGCHANGES:;
#KEYSOUNDS:;
#ATTACKS:
;

//---------------dance-single - DS FS XO-----------------
#NOTEDATA:;
#CHARTNAME:;
#STEPSTYPE:dance-single;
#DESCRIPTION:DS FS XO-;
#CHARTSTYLE:;
#DIFFICULTY:Challenge;
#METER:15;
#RADARVALUES:0.614169,0.747184,0.122615,0.659054,0.919611,561.000000,545.000000,16.000000,86.000000,17.000000,0.000000,0.000000,0.000000,0.000000,0.614169,0.747184,0.122615,0.659054,0.919611,561.000000,545.000000,16.000000,86.000000,17.000000,0.000000,0.000000,0.000000,0.000000;
#CREDIT:Kingly;
#NOTES:
0000
0000
0000
0000
,
0000
0000
0000
0000
,
0000
0000
0000
0000
,
0000
0000
0000
0000
,
1000
0000
0001
0100
0002
0000
0010
0000
1003
0000
0000
0000
0100
0010
0001
0000
,
1000
0000
0000
1000
0000
0010
0200
0000
0000
0000
0301
0000
1000
0000
0000
0000
,
0001
0000
1000
0100
1000
0002
0010
0000
1003
0000
0000
0000
0001
0100
0010
0100
,
0001
0000
0000
0001
0000
1000
0200
0000
0310
0000
0001
1000
0001
1000
0010
0100
,
0001
0000
1000
0100
2000
0000
3010
0000
0101
0000
0000
0000
0100
0010
1000
0000
,
1010
0000
0000
0001
0000
0010
0200
0000
0000
0000
1300
0000
1100
0000
0000
0000
,
1000
0000
0001
0100
0001
1000
0010
0000
0101
0000
0000
0000
1000
0100
0010
0100
,
1000
0000
0000
1000
0000
0001
0200
0000
0310
0000
1000
0000
1010
0000
0000
0000
,
1000
0000
0001
0100
0002
0000
0013
0000
1100
0000
0000
0000
0100
0010
0001
0000
,
0011
0000
0000
1000
0000
0010
0200
0000
0000
0000
0301
0000
0101
0000
0000
0000
,
0001
0000
1000
0100
1000
0001
0010
0000
1100
0000
0000
0000
0001
0100
0010
0100
,
0001
0000
0000
0001
0000
1000
0200
0000
0310
0000
0001
0100
0001
1000
0100
1000
,
0020
0000
0000
0000
,
0230
0000
0000
0000
,
0302
0000
0000
2003
0000
0000
3200
0000
,
0000
0000
0000
0000
,
0320
0000
0000
0000
,
0032
0000
0000
0000
,
2003
0000
0000
3020
0000
0000
0032
0000
,
0000
0000
0000
0000
0013
0100
0000
0000
0001
1000
0010
1000
0100
0010
0001
1000
,
0020
0000
0000
0000
2030
0001
0000
3100
00M0
0100
0001
0000
2000
0001
0000
3100
,
00M0
0100
0001
0000
2000
0001
0000
3100
00M0
0100
0001
0000
2000
0000
0010
0000
,
3001
0000
0000
0000
0021
0000
0000
0000
0130
0001
0100
0010
0001
1000
0000
1002
,
0000
0000
0100
0000
2003
0000
0000
0000
3100
0010
0001
1000
0001
0100
0001
0010
,
0M00
0010
1000
0000
0002
0100
0000
0013
0M00
0010
1000
0000
0002
1000
0000
0103
,
00M0
0100
1000
0000
0002
1000
0000
0103
00M0
0100
1000
0000
0002
0000
0010
0000
,
1003
0000
0000
0000
1020
0000
0000
0000
0130
0001
1000
0100
0010
0001
0000
0012
,
0000
0000
1003
0000
0020
0000
0130
0001
1000
0100
0010
0001
1000
0001
0100
1000
,
00M0
1000
0010
0000
0200
0001
0000
1300
00M0
1000
0010
0000
2000
0001
0000
3010
,
0M00
0010
0001
0000
2000
0001
0000
3010
0M00
0010
0001
0000
2000
0000
0100
0000
,
3001
0000
1000
0000
1020
0000
0000
0000
0130
1000
0100
0010
1000
0001
0000
0002
,
0000
0000
0100
0000
2003
0000
0000
0000
3100
0010
0100
1000
0001
1000
0100
0001
,
0M00
0001
0010
0000
0200
1000
0000
0301
00M0
0001
0010
0000
0002
1000
0000
0013
,
0M00
0010
1000
0000
0002
1000
0000
0013
0M00
0010
1000
0000
0002
0000
0100
0000
,
1003
0000
0000
0000
0021
0000
0000
0000
0130
1000
0001
0100
0001
0010
0000
0210
,
0000
0000
0000
0000
1000
0000
0310
0000
0002
0000
1003
0010
0100
0001
1000
0100
,
0010
0000
0001
0000
2000
0100
0000
3020
0000
0000
1030
0000
0200
0010
0000
0302
,
0000
0000
0103
0000
1000
0000
0002
0100
0000
0000
1003
0000
0100
00M0
0100
0002
,
0000
0000
0013
0000
0001
0100
0000
2000
0000
0000
3100
0010
1000
0001
0010
0200
,
0000
0000
0301
0100
0010
0100
1000
0002
0000
0000
0103
0000
0010
1000
0010
0200
,
0000
0000
0301
0000
1000
0100
0010
0002
0000
0000
0103
0001
1000
0100
1000
0020
,
0000
0000
0130
0001
0100
1000
0100
0020
0000
0000
1030
0000
0001
0010
0100
2000
,
0000
0000
3001
0100
0001
1000
0100
0002
0000
0000
0103
0000
0010
0001
0100
0020
,
0000
0000
1030
0100
2000
0010
0000
3001
0000
0010
0001
1000
0020
1000
0000
0130
,
0001
0000
1000
0000
0002
0100
0000
0023
0000
0000
0031
0000
0200
0010
0000
2300
,
0000
0000
3100
0000
0001
0000
2000
0100
0000
0000
3001
0000
0100
00M0
0100
2000
,
0000
0000
3010
0000
1000
0100
0000
0002
0000
0000
0103
0010
0001
1000
0010
0200
,
0000
0000
1300
0100
0010
0100
0001
2000
0000
0000
3100
0000
0010
0001
0010
0200
,
0000
0000
1300
0000
0001
0100
0010
2000
0000
0000
3100
1000
0001
0100
0001
0020
,
0000
0000
0130
1000
0100
0001
0100
0020
0000
0000
0031
0000
1000
0010
0100
0002
,
0000
0000
1003
0100
1000
0001
0100
2000
0000
0000
3100
0000
0010
1000
0100
0020
,
0000
0000
0031
0100
0001
0010
0000
2000
0000
3010
0100
1000
0001
0100
0001
0100
,
0010
0000
1000
0100
0000
0010
0001
1000
0000
0100
0010
0000
0001
0100
0001
0000
,
0010
0000
0001
0100
0000
0010
1000
0001
0000
0100
0010
0000
1000
0100
1000
0000
,
0001
0000
0010
0100
0000
1000
0010
1000
0000
0001
0010
0000
0100
1000
0001
0000
,
1000
0000
0010
0100
0000
0001
0010
0001
0000
1000
0010
0000
0100
0001
1000
0000
,
0010
1000
0001
0100
0000
0001
0010
0100
0000
1000
0010
0000
1000
0001
1000
0100
,
0010
0001
1000
0100
0000
1000
0010
0100
0000
0001
0010
0000
0001
1000
0010
1000
,
0001
0010
0100
1000
0000
0010
1000
0100
0000
0010
0001
0100
0000
0010
1000
0001
,
0010
0100
1000
0001
0100
0001
1000
0010
1000
0001
0010
0100
1000
0010
0100
0002
,
2000
0000
0000
0000
,
3003
0000
0000
0000
;

//---------------dance-single - ----------------
#NOTEDATA:;
#CHARTNAME:;
#STEPSTYPE:dance-single;
#DESCRIPTION:;
#CHARTSTYLE:;
#DIFFICULTY:Hard;
#METER:13;
#RADARVALUES:0.562714,0.647559,0.015327,0.268220,0.674381,514.000000,512.000000,2.000000,35.000000,0.000000,0.000000,0.000000,0.000000,0.000000,0.562714,0.647559,0.015327,0.268220,0.674381,514.000000,512.000000,2.000000,35.000000,0.000000,0.000000,0.000000,0.000000,0.000000;
#CREDIT:Kingly;
#NOTES:
0000
0000
0000
0000
,
0000
0000
0000
0000
,
0000
0000
0000
0000
,
0000
0000
0000
0000
,
1000
0000
0010
0100
0001
0000
0010
0000
0001
0000
0000
0000
1000
0100
0010
0000
,
0001
0000
0000
0100
0000
0001
2000
0000
0000
0000
3100
0000
0010
0000
0000
0000
,
0001
0000
1000
0010
1000
0010
1000
0000
0001
0000
0000
0000
0010
0100
1000
0000
,
0001
0000
0000
0100
0000
0001
1000
0000
0000
0000
0100
0000
0010
0000
0001
1000
,
0001
0000
0100
0010
1000
0000
0100
0000
1000
0000
0001
0000
0100
0010
1000
0000
,
0100
0000
0000
1000
0000
0001
0200
0000
0000
0000
0310
0000
1000
0000
0100
0000
,
1000
0000
0001
0010
0001
0010
0001
0000
1000
0000
0010
0000
0100
0001
0100
0001
,
1000
0000
0000
0100
0000
0010
0002
0000
0000
0000
1003
0010
1000
0000
0001
0000
,
1000
0000
0100
0010
0001
0000
0100
0000
0001
0000
1000
0000
0100
0010
0001
0000
,
0100
0000
0000
0001
0000
1000
0200
0000
0000
0000
0310
0000
0001
0000
0100
0000
,
0001
0000
1000
0010
1000
0010
1000
0000
0001
0000
0010
0000
0100
1000
0100
1000
,
0001
0000
0000
0100
0000
0010
2000
0000
0000
0000
3001
0000
0010
0000
0100
1000
,
0020
0000
0000
0000
,
0230
0000
0000
0000
,
0302
0000
0000
2003
0000
0000
3020
0000
,
0000
0000
0000
0000
,
2030
0000
0000
0000
,
3002
0000
0000
0000
,
2003
0000
0000
3200
0000
0000
0320
0000
,
0000
0000
0000
0000
0031
0000
0000
0000
1000
0000
0001
0100
0001
0000
1000
0100
,
2000
0000
3000
0000
1100
0000
0001
0100
0000
0001
0010
0000
0001
0000
1000
0100
,
0000
1000
0010
0000
1000
0000
0001
0100
0000
0001
0020
0000
0100
0000
0031
0000
,
2000
0000
0000
0000
3020
0000
0000
0000
0130
0001
0100
0000
0010
1000
0000
0002
,
0000
0000
0010
0000
0023
0000
0000
0000
0130
0000
1000
0001
1000
0000
0100
0001
,
0000
0100
1000
0000
0001
0000
0100
1000
0000
0100
0001
0000
1000
0000
0001
0100
,
0000
0001
0010
0000
0001
0000
1000
0100
0000
1000
0020
0000
0100
0000
1030
0000
,
0002
0000
0000
0000
0023
0000
0000
0000
0130
1000
0100
1000
0001
0000
0000
0100
,
0001
0000
1000
0000
0001
0000
0010
0100
0010
0000
0001
1000
0001
0000
0100
1000
,
0000
0100
0001
0000
1000
0000
0100
0001
0000
0100
1000
0000
0001
0000
1000
0010
,
0000
1000
0100
0000
1000
0000
0001
0010
0000
0001
0200
0000
0010
0000
0301
0000
,
2000
0000
0000
0000
3200
0000
0000
0000
0310
0001
0010
0001
1000
0000
0000
0010
,
2000
0000
3000
0000
1002
0000
0000
0000
0013
0100
1000
0001
1000
0000
0100
0001
,
0000
0100
1000
0000
0001
0000
0100
1000
0000
0100
0001
0000
1000
0000
0001
0010
,
0000
0001
0100
0000
0001
0000
1000
0010
0000
1000
0200
0000
0010
0000
1300
0000
,
0002
0000
0000
0000
0203
0000
0000
0000
0310
1000
0010
1000
0001
0000
0000
0010
,
0002
0000
0000
0000
0100
0000
1003
0000
0100
0000
0010
0001
0010
0001
0000
1000
,
0010
0000
0100
0000
0001
0010
0000
0001
1000
0000
0100
0000
1000
0010
0000
1000
,
0001
0000
0010
0000
0100
0000
1000
0001
1000
0000
0010
0000
0100
0000
0001
1000
,
0001
0000
0010
0000
0100
1000
0000
0001
0100
0000
0010
0000
1000
0000
0001
0010
,
0000
0001
0100
0000
0010
0000
1000
0100
0000
1000
0001
0000
0100
0000
0010
1000
,
0000
0001
1000
0000
0100
0000
0010
0001
0000
1000
0001
0000
0100
0000
0010
1000
,
0000
0010
1000
0000
0100
0000
1000
0001
0000
0100
0001
0000
0010
0000
0100
1000
,
0000
0100
0010
0000
0001
0000
0100
0010
0000
0100
0001
0000
1000
0000
0100
0001
,
0000
0100
0010
0000
0001
1000
0000
0010
0000
1000
0001
0100
0001
0010
0000
0001
,
0010
0000
0100
0000
1000
0010
0000
1000
0001
0000
0100
0000
0001
0010
0000
0001
,
1000
0000
0010
0000
0100
0000
0001
1000
0001
0000
0010
0000
0100
0000
1000
0001
,
1000
0000
0010
0000
0100
0001
0000
1000
0100
0000
0010
0000
0001
0000
1000
0010
,
0000
1000
0100
0000
0010
0000
0001
0100
0000
0001
1000
0000
0100
0000
0010
0001
,
0000
1000
0001
0000
0100
0000
0010
1000
0000
0001
1000
0000
0100
0000
0010
0001
,
0000
0010
0001
0000
0100
0000
0001
1000
0000
0100
1000
0000
0010
0000
0100
0001
,
0000
0100
0010
0000
1000
0000
0100
0010
0000
0100
1000
0000
0001
0000
0100
1000
,
0000
0100
0010
0000
1000
0001
0000
0010
0000
0001
1000
0000
0010
0000
0100
0000
,
0001
0000
0100
0000
0010
0000
1000
0100
0000
1000
0100
0000
0010
0000
0001
0000
,
1000
0000
0010
0000
1000
0000
0001
0100
0000
0001
0100
0000
0010
0000
1000
0000
,
0100
0000
0010
0000
0001
0000
0100
0001
0000
1000
0100
0000
0010
0000
0001
0000
,
0100
0000
0010
0000
1000
0000
0100
1000
0000
0001
0100
0000
0010
0000
1000
0000
,
0001
0000
1000
0100
0000
0010
0001
0010
0000
0100
1000
0000
0001
0000
1000
0010
,
1000
0000
0001
0100
0000
0010
1000
0010
0000
0100
0001
0000
1000
0000
0001
0010
,
0001
0000
0100
0010
0000
1000
0100
1000
0000
0001
0100
0001
0000
1000
0010
1000
,
0000
0001
0010
0001
0010
0000
0100
1000
0100
1000
0001
0000
0100
0001
0100
0002
,
2000
0000
0000
0000
,
3003
0000
0000
0000
;

//---------------dance-single - ----------------
#NOTEDATA:;
#CHARTNAME:;
#STEPSTYPE:dance-single;
#DESCRIPTION:;
#CHARTSTYLE:;
#DIFFICULTY:Medium;
#METER:9;
#RADARVALUES:0.366749,0.423404,0.045981,0.199249,0.199249,335.000000,329.000000,6.000000,26.000000,0.000000,0.000000,0.000000,0.000000,0.000000,0.366749,0.423404,0.045981,0.199249,0.199249,335.000000,329.000000,6.000000,26.000000,0.000000,0.000000,0.000000,0.000000,0.000000;
#CREDIT:Kingly;
#NOTES:
// measure 0
0000
0000
0000
0000
,  // measure 1
0000
0000
0000
0000
,  // measure 2
0000
0000
0000
0000
,  // measure 3
0000
0000
0000
0000
,  // measure 4
1000
0001
0100
0010
1000
0000
0001
0010
,  // measure 5
0001
0000
0000
1000
0000
0000
0020
0000
0000
0000
0000
0000
0130
0000
0000
0000
,  // measure 6
0001
1000
0100
0010
0001
0000
1000
0010
,  // measure 7
1000
0000
0000
0001
0000
0000
0020
0000
0000
0000
0000
0000
0130
0000
0000
0000
,  // measure 8
1000
0001
0100
1000
0100
0000
0010
1000
,  // measure 9
0001
0000
0000
0010
0000
0000
0002
0000
0000
0000
0000
0000
0103
0000
0000
0000
,  // measure 10
0001
1000
0100
0001
0100
0000
0010
0001
,  // measure 11
1000
0000
0000
0010
0000
0000
2000
0000
0000
0000
0000
0000
3100
0000
0000
0000
,  // measure 12
0010
0001
0100
1000
0100
0000
0010
1000
,  // measure 13
0100
0000
0000
0010
0000
0000
0002
0000
0000
0000
0000
0000
1003
0000
0000
0000
,  // measure 14
0010
1000
0100
0001
0100
0000
0010
0001
,  // measure 15
0100
0000
0000
0010
0000
0000
2000
0000
0000
0000
0000
0000
3001
0000
0010
0000
,  // measure 16
0200
0000
0000
0000
,  // measure 17
2300
0000
0000
0000
,  // measure 18
3002
0000
0000
0203
0000
0000
0320
0000
,  // measure 19
0000
0000
0000
0000
,  // measure 20
0230
0000
0000
0000
,  // measure 21
0302
0000
0000
0000
,  // measure 22
2003
0000
0000
3200
0000
0000
0320
0000
,  // measure 23
0000
0000
0031
0000
1000
0010
0100
0001
,  // measure 24
2000
0000
0000
0000
3001
0000
0000
0100
0000
0000
0001
0000
1000
0000
0000
0100
,  // measure 25
0000
0000
1000
0000
0001
0000
0000
0100
0000
0000
0001
0000
0010
0000
0100
0000
,  // measure 26
1000
0000
1001
0000
0001
0010
0001
0000
,  // measure 27
2000
0000
0000
0000
3020
0000
0000
0000
0130
0000
0001
0000
1000
0000
0000
0010
,  // measure 28
0000
0000
1000
0000
0001
0000
0000
0010
0000
0000
0001
0000
1000
0000
0000
0100
,  // measure 29
0000
0000
1000
0000
0001
0000
0000
0100
0000
0000
0001
0000
0010
0000
0100
0000
,  // measure 30
1000
0000
1001
0000
0001
0010
0100
1000
,  // measure 31
0001
0000
0000
0000
0200
0000
0000
0000
0310
0000
1000
0000
0001
0000
0000
0010
,  // measure 32
0000
0000
0001
0000
1000
0000
0000
0010
0000
0000
1000
0000
0001
0000
0000
0100
,  // measure 33
0000
0000
0001
0000
1000
0000
0000
0100
0000
0000
1000
0000
0010
0000
0100
0000
,  // measure 34
0001
0000
1001
0000
1000
0100
0010
0001
,  // measure 35
2000
0000
0000
0000
3020
0000
0000
0000
0130
0000
0001
0000
1000
0000
0000
0010
,  // measure 36
0000
0000
1000
0000
0001
0000
0000
0010
0000
0000
0001
0000
1000
0000
0000
0100
,  // measure 37
0000
0000
1000
0000
0001
0000
0000
0100
0000
0000
0001
0000
0010
0000
0100
0000
,  // measure 38
1000
0000
0000
0000
1001
0000
0000
0000
0001
0000
0100
0000
0010
0000
0000
2002
,  // measure 39
0000
0000
3003
0000
1000
0000
0100
0000
0010
0000
0001
0000
1000
0000
0000
0010
,  // measure 40
0000
0000
1000
0000
0001
0000
0000
0010
0000
0000
0001
0000
0100
0000
0000
0010
,  // measure 41
0000
0000
0100
0000
0001
0000
0000
1000
0000
0000
0001
0000
0010
0000
0000
0100
,  // measure 42
0000
0000
1000
0000
0001
0000
0000
0100
0000
0000
0010
0000
0001
0000
0000
0010
,  // measure 43
0000
0000
1000
0000
0001
0000
0000
0010
0000
0000
0100
0000
1000
0000
0100
0000
,  // measure 44
1000
0000
0001
0000
0100
0000
0000
0010
0000
0000
0100
0000
0001
0000
0000
0010
,  // measure 45
0000
0000
0001
0000
1000
0000
0000
0100
0000
0000
1000
0000
0001
0000
0000
0100
,  // measure 46
0000
0000
0010
0000
1000
0000
0000
0001
0000
0000
1000
0000
0100
0000
0000
0010
,  // measure 47
0000
0000
0001
0000
1000
0000
0000
0010
0000
0000
1000
0000
0001
0000
0000
0010
,  // measure 48
0000
0000
0001
0000
1000
0000
0000
0010
0000
0000
1000
0000
0100
0000
0000
0010
,  // measure 49
0000
0000
0100
0000
1000
0000
0000
0001
0000
0000
1000
0000
0010
0000
0000
0100
,  // measure 50
0000
0000
0001
0000
1000
0000
0000
0100
0000
0000
0010
0000
1000
0000
0000
0010
,  // measure 51
0000
0000
0001
0000
1000
0000
0000
0010
0000
0000
0100
0000
0001
0000
0100
0000
,  // measure 52
0001
0000
1000
0000
0100
0000
0000
0010
0000
0000
0100
0000
1000
0000
0000
0010
,  // measure 53
0000
0000
1000
0000
0001
0000
0000
0100
0000
0000
0001
0000
1000
0000
0000
0100
,  // measure 54
0000
0000
0010
0000
0001
0000
0000
1000
0000
0000
0001
0000
0100
0000
0000
0010
,  // measure 55
0000
0000
1000
0000
0001
0000
0000
0010
0000
0000
0001
0000
1000
0000
0010
0000
,  // measure 56
0100
0001
1000
0000
0100
1000
0001
0000
,  // measure 57
0100
0010
1000
0000
0100
0010
0001
0000
,  // measure 58
1000
0010
1000
0000
0001
0010
0001
0000
,  // measure 59
0100
0010
0100
0000
0001
1000
0001
0000
,  // measure 60
1000
0100
1000
0100
0010
0001
1000
0000
,  // measure 61
0001
0100
0001
0100
0010
1000
0001
0000
,  // measure 62
1000
0010
1000
0100
0010
0001
0100
0000
,  // measure 63
0001
1000
0100
1000
0010
0100
0001
1000
,  // measure 64
2002
0000
0000
0000
,  // measure 65
3003
0000
0000
0000
;
