#VERSION:0.83;
#TITLE:Pink Rose (The 4th Remix);
#SUBTITLE:;
#ARTIST:NU-KO;
#TITLETRANSLIT:;
#SUBTITLETRANSLIT:;
#ARTISTTRANSLIT:;
#GENRE:HEART EUROBEAT;
#ORIGIN:;
#CREDIT:;
#BANNER:Pink Rose (The 4th Remix).png;
#BACKGROUND:Pink Rose (The 4th Remix)-bg.png;
#PREVIEWVID:;
#JACKET:Pink Rose (The 4th Remix)-jacket.png;
#CDIMAGE:;
#DISCIMAGE:;
#LYRICSPATH:;
#CDTITLE:;
#MUSIC:Pink Rose (The 4th Remix).ogg;
#OFFSET:-0.010611;
#SAMPLESTART:71.182335;
#SAMPLELENGTH:14.620000;
#SELECTABLE:YES;
#BPMS:0.000=150.000;
#STOPS:;
#DELAYS:;
#WARPS:;
#TIMESIGNATURES:0.000=4=4;
#TICKCOUNTS:0.000=4;
#COMBOS:0.000=1;
#SPEEDS:0.000=1.000=0.000=0;
#SCROLLS:0.000=1.000;
#FAKES:;
#LABELS:0.000=Song Start;
#BGCHANGES:;
#KEYSOUNDS:;
#ATTACKS:
;

//---------------dance-single - ----------------
#NOTEDATA:;
#CHARTNAME:;
#STEPSTYPE:dance-single;
#DESCRIPTION:;
#CHARTSTYLE:;
#DIFFICULTY:Hard;
#METER:14;
#RADARVALUES:0.709587,0.752981,0.197368,0.435855,0.600329,604.000000,580.000000,24.000000,53.000000,10.000000,0.000000,0.000000,0.000000,0.000000,0.709587,0.752981,0.197368,0.435855,0.600329,604.000000,580.000000,24.000000,53.000000,10.000000,0.000000,0.000000,0.000000,0.000000;
#CREDIT:TonyAkita;
#NOTES:
0000
0000
0000
0000
,
0000
0000
0000
0000
,
0000
0000
0000
0000
0000
0000
2002
3003
,
1000
0100
1000
0000
0010
0100
0000
1000
0000
0100
0001
0000
1000
0000
0001
0000
,
1000
0100
0010
0002
0000
0000
1003
0020
,
0000
0000
0031
0020
0000
0130
0001
0010
,
0000
0100
2200
0000
0000
0000
0000
3300
,
0001
0100
0001
0000
0010
0100
0000
0001
0000
0100
1000
0000
0001
0000
0100
0000
,
0220
0000
0000
0330
,
1000
0000
0010
0000
1000
0000
0010
0000
0100
0001
0100
0000
0000
0000
0000
0000
0001
0000
0010
0000
0001
0000
0010
0000
0100
1000
0100
0000
0000
0000
0000
0000
,
1000
0001
1000
0001
0100
0010
0100
0010
2000
0000
0000
0000
3000
0000
0000
0000
,
1000
0100
0010
0100
0000
0000
M100
0010
0100
0001
0000
0000
0010
0100
1000
0002
,
0000
0000
0103
0000
0001
0000
0010
0001
0000
0010
0100
0000
1000
0000
0001
0000
,
0100
0010
0100
0001
0100
0010
1000
0001
0010
0100
1000
0010
0000
0000
0100
0001
,
0100
0001
0000
1000
0000
1000
0000
0100
0000
0100
0010
0000
0001
0000
1000
0000
,
0001
0100
0010
0100
0000
0000
010M
0010
0100
1000
0000
0000
0010
0100
0001
2000
,
0000
0000
3100
0000
1000
0000
0010
1000
0000
0010
0100
0000
0001
0000
1000
0000
,
0100
0010
0100
1000
0100
0010
0001
1000
0010
0100
0001
0010
0000
0000
0100
1000
,
0100
1100
0000
0101
0000
1010
0000
0001
,
0010
1000
0010
0001
0010
0100
1000
0010
,
0001
0010
1000
0010
0100
0001
1000
0100
,
0020
0000
0001
0031
1000
0010
0100
0001
,
2000
0000
0100
3100
0010
0001
1000
0000
,
0001
0010
0001
0200
0000
0010
0010
0310
,
1000
0010
1000
0200
0000
0010
0010
0310
,
0001
1000
0010
0100
0010
0001
0010
0100
,
0001
1000
0001
1000
0100
0010
0100
0010
0001
1000
0010
0100
0001
0010
0100
1000
,
0010
0001
0010
1000
0010
0100
0001
0010
,
1000
0010
0001
0010
0100
1000
0001
0100
,
0020
0000
1000
1030
0001
0010
0100
1000
,
0002
0000
0100
0103
0010
1000
0100
1000
,
0010
0010
0101
0000
0010
0010
1100
0000
,
1000
1000
0101
0000
0001
0001
1100
0000
,
1000
0001
1001
0000
1000
0010
0100
0001
,
0010
0001
0100
0010
1000
0100
1000
0001
,
0010
0100
0010
0100
0010
0100
0010
0100
1000
0001
1000
0001
1000
0001
1000
0001
,
2000
0000
0010
0000
0000
0000
3010
0000
2000
0000
0001
0000
0000
0000
0001
3000
,
0002
0010
0000
0013
0002
1000
0000
1003
,
0001
0100
0010
0100
0001
0100
0010
1000
,
0000
0001
0010
0100
1000
0001
0100
1000
,
0200
0000
0010
0310
0000
1010
0000
0000
,
2000
0000
0100
3100
0000
0011
0000
0000
,
0002
0000
0100
0103
0000
1010
0000
2002
,
3003
0000
1000
0000
0001
0000
1000
0100
0000
1000
0010
0100
0001
0000
0001
0100
,
0001
1000
0100
1000
0100
0010
0001
0010
0001
1000
0010
0100
0001
0000
0000
0000
,
0020
0000
0000
0000
0130
1000
0100
0000
0000
0000
1000
0001
1000
0000
1000
0000
,
0020
0000
0000
0000
0130
0001
0100
0000
0000
0000
0001
0000
1000
0000
0100
0000
,
0020
0000
0100
0000
M130
0000
0001
0100
0020
0000
0100
0000
013M
0000
1000
0100
,
0020
0000
0100
0000
M130
0000
0001
1000
0010
0000
0000
0100
0001
0000
1000
0000
,
0100
0001
0100
1000
0100
0010
0001
1000
,
1010
0000
0001
0101
0000
1000
0100
0020
,
0000
0001
0000
0031
0000
1000
0010
0001
,
0020
0000
0000
0000
0230
0000
0000
0000
0301
0010
0001
0010
0100
1000
0100
1000
,
0020
0000
0000
0000
0130
0001
0100
0000
0000
0000
0001
1000
0001
0000
0001
0000
,
0020
0000
0000
0000
0130
1000
0100
0000
0000
0000
1000
0000
0001
0000
0100
0000
,
0020
0000
0100
0000
013M
0000
1000
0100
0020
0000
0100
0000
M130
0000
0001
0100
,
0020
0000
0100
0000
013M
0000
1000
0001
0010
0000
0000
0100
1000
0000
0001
0000
,
0100
1000
0100
0001
0100
0010
1000
0001
,
0011
0000
1000
1100
0000
0001
0100
0020
,
0000
1000
0000
1030
0000
0001
0010
0100
,
2000
3002
0203
0320
,
1030
0100
0000
0001
1000
0000
0010
0001
0000
1000
0010
0000
0100
0000
0100
0000
,
0001
0010
0000
1000
0001
0000
0100
1000
0000
0001
0100
0000
0010
0000
0010
0000
,
1000
0001
0000
0010
1000
0000
0010
0001
0000
0010
0100
0000
1000
0000
0001
0000
,
2000
3020
0230
0302
,
1003
0100
0010
0100
0000
0000
M100
0010
0100
0001
0000
0000
0010
0100
1000
0002
,
0000
0000
0103
0000
0001
0000
0010
0001
0000
0010
0100
0000
1000
0000
0001
0000
,
0100
0010
0100
0001
0100
0010
1000
0001
0010
0100
1000
0010
0000
0000
0100
0001
,
0100
0001
0000
1000
0000
1000
0000
0100
0000
0100
0010
0000
0001
0000
1000
0000
,
0001
0100
0010
0100
0000
0000
010M
0010
0100
1000
0000
0000
0010
0100
0001
2000
,
0000
0000
3100
0000
1000
0000
0010
1000
0000
0010
0100
0000
0001
0000
1000
0000
,
0100
0010
0100
1000
0100
0010
0001
1000
0010
0100
0001
0010
0000
0000
0100
1000
,
0100
1100
0000
0101
0000
1010
0000
1001
,
2002
3003
0000
0000
;

//---------------dance-single - ----------------
#NOTEDATA:;
#CHARTNAME:;
#STEPSTYPE:dance-single;
#DESCRIPTION:;
#CHARTSTYLE:;
#DIFFICULTY:Medium;
#METER:12;
#RADARVALUES:0.526316,0.632504,0.172697,0.485197,0.164474,448.000000,427.000000,21.000000,59.000000,4.000000,0.000000,0.000000,0.000000,0.000000,0.526316,0.632504,0.172697,0.485197,0.164474,448.000000,427.000000,21.000000,59.000000,4.000000,0.000000,0.000000,0.000000,0.000000;
#CREDIT:TonyAkita;
#NOTES:
0000
0000
0000
0000
,
0000
0000
0000
0000
,
0000
0000
0000
0000
0000
0000
2002
3003
,
1000
0100
1000
0010
0100
1000
0100
0001
,
1000
0100
0010
0002
0000
0000
1003
0020
,
0000
0000
0031
0020
0000
0130
0001
1000
,
0000
0000
0100
0000
0020
0000
0000
0000
0000
0000
0000
0030
0000
0000
0000
0000
,
0001
0100
0001
0010
0100
0001
0100
2000
,
0002
0000
0000
3003
,
1000
0010
1000
0010
1000
0000
0000
0000
0001
0100
0001
0100
0001
0000
0000
0000
,
1000
0100
0010
0001
2000
0000
0000
3000
,
0001
0010
0000
001M
1000
0000
0010
0100
,
0001
0000
0010
0000
0001
0000
1000
0100
0000
1000
0010
0000
0100
0000
0001
0000
,
1000
0000
0100
0000
0010
0000
0100
0000
1000
0000
0100
0000
0000
0000
0010
0001
,
0010
0001
0000
1000
0000
1000
0000
0001
0000
0001
0100
0000
0010
0000
0010
0000
,
1000
0010
0000
M010
0001
0000
0010
0100
,
1000
0000
0010
0000
1000
0000
0001
0100
0000
0001
0010
0000
0100
0000
1000
0000
,
0001
0000
0100
0000
0010
0000
0100
0000
0001
0000
0100
0000
0000
0000
0010
1000
,
0010
1000
0000
1010
0000
0011
0000
1000
,
0001
0010
1000
0010
0001
0010
0100
1000
,
0010
0001
0010
1000
0010
0100
0001
1000
,
0200
0000
0010
0310
0000
0011
0000
1000
,
0020
0000
0100
0130
0000
0001
1000
0001
,
0010
0100
1000
0020
0000
0000
0130
0001
,
1000
0100
0010
0002
0000
0000
1003
0010
,
0100
0001
0010
0001
1000
0100
1000
0010
,
0100
0000
0001
0000
0010
0000
0100
0000
1000
0001
1000
0001
1000
0001
1000
0001
,
1000
0010
0001
0010
1000
0010
0100
0001
,
0010
1000
0010
0001
0010
0100
1000
0001
,
0200
0000
0010
0310
0000
1010
0000
0001
,
0020
0000
0100
0130
0000
0000
1000
0010
,
0100
0001
0101
0000
1000
1000
1100
0000
,
0001
0001
0011
0000
1000
1000
1010
0000
,
1000
0001
1001
0000
0001
0010
0100
2000
,
0000
0001
3001
0000
1010
0000
1000
0002
,
0000
0013
0100
1000
0000
0000
0000
0000
,
0002
0000
2000
0003
,
0200
3000
0020
0300
,
0031
0100
0001
0010
0100
0000
1000
1000
,
0000
0001
0100
0010
1000
0100
1000
0010
,
0200
0000
0001
0301
0000
1100
0000
0000
,
0020
0000
0001
0031
0000
1010
0000
0000
,
0002
0000
0010
0013
0000
1100
0000
1001
,
0000
0000
1000
0000
0010
0000
1000
0001
0000
0010
0100
0000
0001
0000
0100
0000
,
2000
0000
0000
0000
0000
0000
0000
3000
0001
0000
0010
0000
0100
0000
1000
0000
,
0020
0000
0030
0101
0000
0000
1000
0100
,
0020
0000
0031
1000
0000
0000
0001
0100
,
0020
0000
1030
0100
0020
0000
0031
0100
,
0020
0000
0000
0000
1030
0000
0001
0000
0010
0000
0000
0010
0100
0000
0100
0000
,
2000
3200
0302
0203
,
0320
0000
0031
1000
0000
0001
0100
0020
,
0000
0000
0030
0101
0000
0001
1000
0100
,
2000
0000
3020
0000
1030
0100
0010
0001
,
0020
0000
0030
1100
0000
0000
0001
0100
,
0020
0000
1030
0001
0000
0000
1000
0100
,
0020
0000
0031
0100
0020
0000
1030
0100
,
0020
0000
0000
0000
0031
0000
1000
0000
0010
0000
0000
0010
0100
0000
0100
0000
,
0002
0203
2300
3200
,
0320
0000
1030
0001
0000
1000
0100
0020
,
0000
0030
0000
1100
0000
1000
0001
0100
,
0002
0000
0000
0003
0020
0000
0000
0000
0230
0000
0000
0000
2300
0000
0000
0000
,
3001
0000
0000
0100
0000
0000
1000
0000
0000
0100
0000
0000
0010
0000
0010
0000
,
1000
0000
0000
0100
0000
0000
0001
0000
0000
0100
0000
0000
0010
0000
0010
0000
,
0001
0000
0000
1000
0000
0000
0010
0000
0000
0001
0000
0000
0010
0000
1000
0000
,
0002
0023
0230
2300
,
3001
0010
0000
001M
1000
0000
0010
0100
,
0001
0000
0010
0000
0001
0000
1000
0100
0000
1000
0010
0000
0100
0000
0001
0000
,
1000
0000
0100
0000
0010
0000
0100
0000
1000
0000
0100
0000
0000
0000
0010
0001
,
0010
0001
0000
1000
0000
1000
0000
0001
0000
0001
0100
0000
0010
0000
0010
0000
,
1000
0010
0000
M010
0001
0000
0010
0100
,
1000
0000
0010
0000
1000
0000
0001
0100
0000
0001
0010
0000
0100
0000
1000
0000
,
0001
0000
0100
0000
0010
0000
0100
0000
0001
0000
0100
0000
0000
0000
0010
1000
,
0010
1000
0000
1010
0000
0011
0000
2000
,
0002
3003
0000
0000
;

//---------------dance-single - ----------------
#NOTEDATA:;
#CHARTNAME:;
#STEPSTYPE:dance-single;
#DESCRIPTION:;
#CHARTSTYLE:;
#DIFFICULTY:Easy;
#METER:6;
#RADARVALUES:0.296053,0.360197,0.123355,0.172697,0.000000,252.000000,237.000000,15.000000,21.000000,0.000000,0.000000,0.000000,0.000000,0.000000,0.296053,0.360197,0.123355,0.172697,0.000000,252.000000,237.000000,15.000000,21.000000,0.000000,0.000000,0.000000,0.000000,0.000000;
#CREDIT:TonyAkita;
#NOTES:
// measure 0
0000
0000
0000
0000
,  // measure 1
0000
0000
0000
0000
,  // measure 2
0000
0000
0000
1001
,  // measure 3
1000
0100
0001
0100
,  // measure 4
0010
0020
0000
0032
,  // measure 5
0000
0000
0203
0000
0300
0010
0100
0010
,  // measure 6
0000
2002
0000
3003
,  // measure 7
0001
0100
1000
0100
,  // measure 8
0220
0000
0000
0330
,  // measure 9
1000
0010
1000
0000
0001
0100
0001
0000
,  // measure 10
1000
0100
0001
0100
2000
0000
3000
0000
,  // measure 11
0002
0000
0000
0010
0000
0000
0013
0000
,  // measure 12
0100
0001
0100
1000
,  // measure 13
0001
0100
0010
0100
,  // measure 14
0001
0001
0001
0001
,  // measure 15
2000
0000
0000
0010
0000
0000
3010
0000
,  // measure 16
0100
1000
0100
0001
,  // measure 17
1000
0100
0010
0100
,  // measure 18
1000
0001
0000
0010
0000
0010
0000
0001
,  // measure 19
1000
0010
1000
0100
,  // measure 20
0010
0001
0100
0001
,  // measure 21
1000
1000
0000
0001
,  // measure 22
1000
0001
0000
0001
,  // measure 23
0001
0002
0000
0013
,  // measure 24
0010
0002
0000
0103
,  // measure 25
0100
0001
0000
1000
,  // measure 26
0001
0100
0010
1000
,  // measure 27
0001
0010
0001
0100
,  // measure 28
0010
1000
0100
1000
,  // measure 29
0001
0001
0000
1000
,  // measure 30
0001
1000
0000
1000
,  // measure 31
1000
1100
0000
0011
,  // measure 32
0000
0101
0000
1010
,  // measure 33
0000
1001
0001
0001
,  // measure 34
0000
0000
0010
0000
0010
0000
0001
1000
,  // measure 35
0000
0000
0000
0020
0000
0000
0030
0000
,  // measure 36
1000
0000
0100
0000
,  // measure 37
0010
0000
0001
0000
,  // measure 38
0100
0000
0000
0000
0010
0000
1000
0001
,  // measure 39
0000
1000
0100
0010
,  // measure 40
0002
0000
0000
0010
0000
0013
0000
0000
,  // measure 41
0002
0000
0000
1000
0000
1003
0000
0000
,  // measure 42
2000
0000
0000
0010
0000
3010
0000
0101
,  // measure 43
0000
0001
1000
0001
,  // measure 44
0020
0000
0000
0030
,  // measure 45
0010
0000
0000
1100
0000
0000
0001
0000
,  // measure 46
1000
0000
0000
0101
0000
0000
1000
0000
,  // measure 47
0100
0100
0010
0010
,  // measure 48
0001
1000
1001
0000
,  // measure 49
0001
0100
1000
0100
,  // measure 50
0010
0000
1000
0001
0000
0000
1000
0000
,  // measure 51
2000
0000
3001
0010
,  // measure 52
0100
1000
0010
0010
,  // measure 53
0010
0000
0000
0101
0000
0000
1000
0000
,  // measure 54
0001
0000
0000
1100
0000
0000
0001
0000
,  // measure 55
0100
0100
0010
0010
,  // measure 56
1000
0001
1001
0000
,  // measure 57
1000
0100
0001
0100
,  // measure 58
0010
0000
0001
1000
0000
0000
0001
0000
,  // measure 59
0002
0000
1003
0010
,  // measure 60
0100
0001
0010
0010
,  // measure 61
0010
0000
0001
0000
,  // measure 62
0010
0000
1000
0000
,  // measure 63
0010
0000
0100
0000
,  // measure 64
1000
0010
0100
0001
,  // measure 65
0002
0000
0000
0010
0000
0000
0013
0000
,  // measure 66
0100
0001
0100
1000
,  // measure 67
0001
0100
0010
0100
,  // measure 68
0001
0001
0001
0001
,  // measure 69
2000
0000
0000
0010
0000
0000
3010
0000
,  // measure 70
0100
1000
0100
0001
,  // measure 71
1000
0100
0010
0100
,  // measure 72
1000
0001
0000
0010
0000
0010
0000
0001
,  // measure 73
1000
0000
0000
0000
;
