#VERSION:0.83;
#TITLE:OMEGA;
#SUBTITLE:;
#ARTIST:STEREO DIVE FOUNDATION;
#TITLETRANSLIT:;
#SUBTITLETRANSLIT:;
#ARTISTTRANSLIT:;
#GENRE:;
#CREDIT:;
#MUSIC:OMEGA.ogg;
#BANNER:banner.png;
#BACKGROUND:bg.png;
#CDTITLE:;
#SAMPLESTART:47.548;
#SAMPLELENGTH:14.769;
#SELECTABLE:YES;
#OFFSET:0.000;
#BPMS:0.000=130.000;
#STOPS:;
#BGCHANGES:;
#FGCHANGES:;

//--------------- dance-single - ----------------
#NOTEDATA:;
#STEPSTYPE:dance-single;
#DESCRIPTION:;
#DIFFICULTY:Hard;
#METER:12;
#RADARVALUES:0,0,0,0,0;
#NOTES:
0000
0000
0000
0000
,
0000
0000
0000
0000
,
0000
0000
0000
0000
,
0000
0000
0000
0000
,
1000
0000
0000
0000
0010
0000
0000
2000
0000
0000
3100
0000
1000
0000
0000
0020
,
0000
0130
0001
0100
0010
0100
0001
0000
,
1000
0000
0000
0000
0010
0000
0000
2000
0000
0000
3100
0000
0010
0000
0000
0002
,
0000
1003
0010
0100
0010
1000
0010
0000
,
0110
0000
0000
0000
1001
0000
0000
1000
0010
0000
1000
0000
0010
0000
0000
0100
,
0001
0010
0001
1000
0001
1000
0100
0010
,
0100
0000
1000
0000
0010
0000
0000
0110
0000
0000
1000
0000
0001
0000
0000
1001
,
0000
0010
0001
1000
0100
1000
0010
1000
,
1100
0000
0000
0000
0011
0000
0000
0001
1000
0000
0100
0000
0010
0000
0000
0100
,
0010
0001
0100
0010
1000
0010
0100
0001
,
0100
0000
0010
0000
1000
0000
0000
1010
0000
0000
1000
0000
0100
0000
0000
1100
,
0000
0000
1000
0000
0001
0000
0010
0000
0001
0000
1000
0001
1000
0000
0010
0000
,
1000
0000
0010
0200
0000
2300
0000
3200
,
0000
0301
1000
0002
0000
0013
0100
0001
,
0100
1000
0010
0200
0000
0302
0000
0203
,
0000
0310
0001
0010
1000
0000
1010
0000
,
0001
0000
0010
0200
0000
0302
0000
0203
,
0000
1300
0001
0000
0101
0000
1000
0100
,
0010
1000
0010
0002
0000
0013
0100
2000
,
0000
3010
1000
0010
0100
0001
0100
0001
,
1000
0001
0000
0001
1000
0000
0000
0110
0000
0000
1001
0000
0000
0011
0000
0000
,
0202
0000
0000
0000
0000
0303
0001
0010
,
0001
0000
0000
0010
0000
0000
0200
0000
0000
0000
0310
0000
0000
0001
0000
0000
,
1000
0000
0000
0010
0000
0000
2000
0000
0000
0000
3001
0000
0000
0100
0000
0000
,
0001
0000
0000
0100
0000
0000
0220
0000
0000
0000
0000
0000
0330
0000
0010
0100
,
0020
0000
0000
0000
2030
0000
0000
0000
3100
0000
0000
0010
0000
0000
0001
0000
,
0010
0000
0000
0001
0000
0000
0200
0000
0000
0000
0310
0000
1000
0000
0100
0000
,
2000
3200
0302
0023
,
1030
0000
0000
0200
0000
0000
1300
0000
0001
0000
0000
0020
0000
0000
0031
0000
,
0100
0000
0000
0020
0000
0000
1030
0000
0100
0000
1000
0000
0100
0000
1000
0000
,
0001
0000
0000
0100
0000
0000
0020
0000
0000
0000
1030
0000
0000
0100
0000
0000
,
0010
0000
0000
0001
0000
0000
0020
0000
0000
0000
0031
0000
0000
1000
0000
0000
,
0100
0000
0000
0010
0000
0000
0022
0000
0000
0000
0000
0000
0033
0000
0001
0100
,
0002
0000
0000
0000
0203
0000
0000
0000
0320
0000
0000
0130
0000
0000
0010
0000
,
1000
0000
0000
0100
0000
0000
2000
0000
0000
0000
3001
0000
0100
0000
0001
0000
,
2000
3020
0032
0203
,
1300
0000
0000
0000
0010
0000
0000
1000
0000
0000
0100
0000
0000
0000
0000
0000
,
1000
0000
0000
0000
0001
0000
0000
0010
0000
0000
0001
0000
0000
0000
0000
0000
,
0010
0000
0000
0000
0100
0000
0000
1000
0000
0000
0001
0000
0000
0000
0000
0000
,
0100
0000
0000
0000
0010
0000
0000
1000
0000
0000
0010
0000
0000
0000
0000
0000
,
2000
0000
0000
0000
3200
0000
0000
1300
0000
0000
0200
0000
0000
0000
0300
0000
,
0020
0000
0000
0000
0032
0000
0000
1003
0000
0000
0002
0000
0000
0000
0003
0000
,
0200
0000
0000
0000
0320
0000
0000
0130
0000
0000
0001
0000
1000
0000
0001
0000
,
0000
1000
0001
1000
0010
0100
0010
0100
,
0010
0000
0000
0000
1000
0000
0000
1010
0000
0000
0001
0000
0100
0000
0001
0000
,
0100
0000
0000
0000
0001
0000
0000
0011
0000
0000
0010
0000
0001
0000
0010
0000
,
0100
0000
0000
0000
0010
0000
0000
1100
0000
0000
0100
0000
1000
0000
0010
0000
,
0100
0001
0100
0001
0010
0001
0010
0100
,
1000
0000
0000
0000
0010
0000
0000
1010
0000
0000
1000
0000
0100
0000
0010
0000
,
0100
0000
0000
0000
1000
0000
0000
1001
0000
0000
0001
0000
0100
0000
0010
0000
,
1000
0000
0000
0000
0001
0000
0000
0101
0000
0000
0100
0000
0001
0000
0010
0000
,
0001
1000
0001
0100
0010
1000
0100
0010
,
0100
0010
0000
0010
0100
0000
0000
1100
0000
0000
1001
0000
0000
0101
0000
0000
,
0011
0000
0000
0000
1010
0000
0000
0110
0000
0000
1100
0000
0000
1001
0000
0000
,
0101
0000
0000
0000
0011
0000
0000
1010
0000
0000
0110
0000
0000
1100
0000
0000
,
0101
0000
2002
0000
0000
3003
0001
0100
,
0001
0000
0000
0110
0000
0000
0020
0000
0000
0000
0130
0000
0000
0011
0000
0000
,
0001
0000
0000
1010
0000
0000
2000
0000
0000
0000
3010
0000
0000
1001
0000
0000
,
1000
0000
0000
0101
0000
0000
0220
0000
0000
0000
0000
0000
0330
0000
0010
0100
,
0020
0000
0000
0000
0230
0000
0000
0000
0301
0000
0000
0011
0000
0000
0010
0000
,
0001
0000
0000
1010
0000
0000
2000
0000
0000
0000
3100
0000
0010
0000
0001
0000
,
2000
3020
0032
0203
,
1300
0000
0000
0020
0000
0000
0130
0000
0001
0000
0000
0200
0000
0000
0310
0000
,
1000
0000
0000
0200
0000
0000
0310
0000
0001
0000
0100
0000
1000
0000
0100
0000
,
0001
0000
0000
1001
0000
0000
0200
0000
0000
0000
0301
0000
0000
1100
0000
0000
,
1000
0000
0000
0100
0000
0000
2000
0000
0000
0000
3010
0000
0000
1010
0000
0000
,
1000
0000
0000
0101
0000
0000
0022
0000
0000
0000
0000
0000
0033
0000
0001
0100
,
0002
0000
0000
0000
0203
0000
0000
0000
0320
0000
0000
0130
0000
0000
0001
0000
,
0100
0000
0000
0010
0000
0000
2000
0000
0000
0000
3001
0000
0010
0000
0100
0000
,
2000
3200
0302
0023
,
1030
0000
0000
0000
0100
0000
0000
2000
0000
0000
3010
0000
0100
0000
0000
0002
,
0000
1003
0100
1000
0001
0010
0001
0000
,
0010
0000
0000
0000
0100
0000
0000
2000
0000
0000
3010
0000
0100
0000
0000
0020
,
0000
0000
1030
0000
0100
0000
0010
0000
0100
0000
0000
0110
0000
0000
1001
0000
;

//--------------- dance-single - ----------------
#NOTEDATA:;
#STEPSTYPE:dance-single;
#DESCRIPTION:;
#DIFFICULTY:Challenge;
#METER:14;
#RADARVALUES:0,0,0,0,0;
#NOTES:
0000
0000
0000
0000
,
0000
0000
0000
0000
,
0000
0000
0000
0000
,
0000
0000
0000
0000
,
0001
0000
0100
0000
0001
0000
0010
0001
0000
0001
0010
0000
0001
0000
1000
0010
,
0000
0010
1000
0000
0100
0000
1000
0100
0000
0100
1000
0000
0010
0000
0100
0000
,
0001
0000
0100
0000
0010
0000
0100
0010
0000
0010
0100
0000
0001
0000
1000
0001
,
0000
0001
1000
0000
0001
0000
1000
0100
0000
0100
1000
0000
0010
0000
1000
0000
,
0100
0000
0010
0000
0001
0000
0100
0001
0000
0100
0001
0000
0010
0000
0001
1000
,
0000
0001
1000
0000
0010
0000
1000
0000
0100
0000
1000
0000
0010
0000
0100
0000
,
0010
0000
1000
0000
0100
0000
1000
0100
0000
0100
0001
0000
1000
0000
0001
0010
,
0000
0010
1000
0000
0001
0000
0100
0000
0010
0000
0100
0000
0001
0000
1000
0000
,
0100
0000
0010
0000
0001
0000
1000
0010
0000
1000
0010
0000
0100
0000
0001
0010
,
0000
0001
0010
0000
0001
0000
1000
0000
0001
0000
0100
0000
0010
0000
1000
0000
,
0010
0000
0100
0000
0001
0000
1000
0010
0000
0010
0001
0000
1000
0000
0001
0100
,
0000
0100
1000
0000
0100
0000
0010
0000
0001
0000
0100
0010
0100
0000
0001
0000
,
1000
0100
0001
0200
0000
1300
0010
0002
,
0000
0013
1000
0002
0000
1003
0100
1000
,
0100
0010
0100
0020
0000
0031
0010
0002
,
0000
0103
1000
0100
0001
0000
0101
0000
,
1000
0010
0001
0020
0000
1030
0001
0020
,
0000
1030
0010
0001
1000
0000
0001
0010
,
0001
0010
0100
0020
0000
0130
1000
0200
,
0000
1300
0001
0100
0010
1000
0010
1000
,
0001
0100
0000
0100
1000
0000
0001
0010
0000
0010
1000
0000
0001
0100
0000
0100
,
2000
0000
0000
0000
0010
0000
0000
0010
0000
0000
3010
0000
1000
0000
0100
0000
,
1000
0000
0001
0100
0000
1000
0100
0000
0001
0000
0100
0000
0010
0000
0100
0000
,
0001
0000
0010
1000
0000
0010
0001
0000
1000
0000
0010
0000
0100
0000
0010
0000
,
1000
0000
0100
0001
0000
0100
2000
0000
0000
0000
0000
0000
3000
0000
0100
0010
,
0200
0000
0000
0000
2300
0000
0000
0000
3100
0000
1000
0010
0000
0001
0010
0000
,
1000
0001
0100
0020
0000
0130
0001
0010
,
0002
0023
2030
3200
,
0302
0000
0000
1000
0000
1003
0010
0000
2000
0000
0000
0100
0000
3100
1000
0000
,
0020
0000
0000
0100
0000
0130
0010
0000
1000
0000
0001
0000
0100
0010
0100
0000
,
0001
0000
1000
0100
0000
0001
0100
0000
1000
0000
0001
0000
0010
0000
0001
0000
,
0100
0000
0001
0100
0000
1000
0100
0000
0001
0000
1000
0000
0001
0000
0100
0000
,
0010
0000
1000
0010
0000
0001
0020
0000
0000
0000
0000
0000
0030
0000
1000
0010
,
2000
0000
0000
0000
3020
0000
0000
0000
0130
0000
0001
0010
0000
1000
0010
0000
,
0001
0100
0010
0200
0000
0301
0010
0001
,
2000
3200
0302
0023
,
1030
0000
0000
0000
1001
0000
0000
0001
0000
1000
0010
0000
1000
0000
0100
0000
,
1100
0000
0000
0000
1000
0000
0000
0100
0000
1000
0001
0000
0100
0000
0010
0000
,
0110
0000
0000
0000
0100
0000
0000
0001
0000
1000
0100
0000
1000
0000
0100
0000
,
0010
0000
0000
0000
0101
0000
0000
0001
0000
0100
0010
0000
1000
0000
0100
0000
,
1010
0000
0000
0000
1000
0000
0000
0100
0000
0100
0001
0000
0100
0000
0001
0000
,
0011
0000
0000
0000
0010
0000
0000
0100
0000
0100
0001
0000
1000
0000
0100
0000
,
0110
0000
0000
0000
1000
0000
0000
0010
0000
0010
0001
0000
1000
0000
1001
0000
,
0000
0010
0010
0100
0001
0100
1000
0100
,
0001
0000
1000
0000
0001
0000
1000
0010
0000
0100
0010
0000
1000
0100
1000
0000
,
0010
0000
0100
0000
0001
0000
0100
0010
0000
0010
0000
0100
0001
0100
0001
0100
,
0010
0000
1000
0000
0100
0000
1000
0001
0000
0010
0001
0000
1000
0100
1000
0000
,
0010
1000
0001
0010
1000
0010
0001
0100
,
0001
0000
1000
0000
0100
0000
0010
0100
0000
1000
0001
0000
1000
0010
0100
0000
,
0001
0000
1000
0000
0001
0000
0010
0100
0000
0100
0000
1000
0001
1000
0001
1000
,
0001
0000
0100
0000
0001
0000
0010
0001
0000
0100
0001
0000
0100
0010
0100
0000
,
0001
0100
1000
0100
0001
1000
0100
1000
,
0001
0100
0000
0100
0010
0000
1000
0100
0000
0100
0010
0000
0001
0010
0000
0010
,
0002
0000
0000
0000
0013
0100
0000
0100
0010
0000
0001
0010
0000
0010
0100
0000
,
1000
0010
0000
0010
0100
0000
0001
0100
0000
0100
0010
0000
1000
0100
0000
0100
,
0010
0000
0000
0000
0002
0000
0000
1000
0000
0000
1003
0000
0001
0000
0010
0000
,
0001
0000
0010
0100
0000
0001
0100
0000
1000
0000
0010
0100
0000
1000
0100
0000
,
0001
0000
0100
0010
0000
0001
0010
0000
1000
0000
0100
0010
0000
1000
0010
0000
,
0001
0000
0010
0100
0000
0001
0100
0000
1000
0000
0010
0000
1000
0000
0100
0010
,
0100
0000
1000
0000
0001
0000
1000
0000
0001
0000
0100
0010
0000
0001
0010
0000
,
1000
0000
0100
0010
0000
1000
0010
0000
0001
0000
1000
0000
0001
0000
0010
0000
,
0001
1000
0100
1000
0001
1000
0010
0100
,
0002
0000
0000
0100
0000
0103
0010
0000
2000
0000
0000
0010
0000
3010
0100
0000
,
0002
0000
0000
0010
0000
0013
0001
0000
1000
0001
1000
0001
1000
0000
0100
0000
,
1000
0000
0100
0010
0000
1000
0010
0000
0001
0000
0100
0010
0000
0001
0010
0000
,
1000
0000
0010
0100
0000
1000
0100
0000
0001
0000
0010
0100
0000
0001
0100
0000
,
1000
0000
0100
0010
0000
1000
0010
0000
0001
0000
0100
0000
0001
0000
0010
0100
,
0010
0000
0001
0000
1000
0000
0001
0000
1000
0000
0010
0100
0000
1000
0100
0000
,
0001
0000
0010
0100
0000
0001
0100
0000
1000
0000
0001
0000
0100
0000
0001
0000
,
1001
0110
1100
0101
,
1000
0000
0010
0000
1000
0000
0100
1000
0000
1000
0100
0000
1000
0000
0001
0100
,
0000
0100
0001
0000
0010
0000
0001
0010
0000
0010
0001
0000
0100
0000
0001
0010
,
0100
0010
0001
0000
0100
0000
0010
0100
0000
0100
0010
0000
1000
0000
0001
1000
,
0000
1000
0001
0000
1000
0000
0001
0000
1010
0000
0000
1001
0000
0000
0110
0000
;
