#VERSION:0.83;
#TITLE:Nothing but Theory;
#SUBTITLE:;
#ARTIST:lapix;
#TITLETRANSLIT:;
#SUBTITLETRANSLIT:;
#ARTISTTRANSLIT:;
#GENRE:Ultra Jazzfunktion;
#ORIGIN:;
#CREDIT:;
#BANNER:Nothing but Theory.png;
#BACKGROUND:Nothing but Theory-bg.png;
#PREVIEWVID:;
#JACKET:Nothing but Theory-jacket.png;
#CDIMAGE:;
#DISCIMAGE:;
#LYRICSPATH:;
#CDTITLE:cdtitle.png;
#MUSIC:Nothing But Theory.ogg;
#OFFSET:0.489270;
#SAMPLESTART:91.010727;
#SAMPLELENGTH:12.000000;
#SELECTABLE:YES;
#BPMS:0.000=160.000;
#STOPS:;
#DELAYS:;
#WARPS:;
#TIMESIGNATURES:0.000=4=4;
#TICKCOUNTS:0.000=4;
#COMBOS:0.000=1;
#SPEEDS:0.000=1.000=0.000=0;
#SCROLLS:0.000=1.000;
#FAKES:;
#LABELS:0.000=Song Start;
#BGCHANGES:4.000=Nothing but Theory.mp4=1.000=1=0=1===CrossFade==,
327.000=Nothing but Theory-bg.png=1.000=1=0=1===CrossFade==,
99999=-nosongbg-=1.000=0=0=0 // don't automatically add -songbackground-
;
#KEYSOUNDS:;
#ATTACKS:
;

//---------------dance-single - ----------------
#NOTEDATA:;
#CHARTNAME:;
#STEPSTYPE:dance-single;
#DESCRIPTION:;
#CHARTSTYLE:;
#DIFFICULTY:Challenge;
#METER:17;
#RADARVALUES:0.991464,0.962724,0.659480,0.471057,1.303259,884.000000,800.000000,84.000000,60.000000,60.000000,0.000000,0.000000,0.000000,0.000000,0.991464,0.962724,0.659480,0.471057,1.303259,884.000000,800.000000,84.000000,60.000000,60.000000,0.000000,0.000000,0.000000,0.000000;
#CREDIT:;
#NOTES:
// measure 0
0000
0000
0000
0000
,  // measure 1
0000
0000
0000
0000
,  // measure 2
0000
0000
0000
0000
,  // measure 3
1000
0000
0100
0000
1000
0100
0000
0010
0000
0010
0000
0001
2000
0000
3010
0100
,  // measure 4
0001
0000
0100
0000
0001
0100
0000
0010
0000
0010
0000
1000
0001
0000
1001
0000
,  // measure 5
0001
0000
0010
0000
0100
0010
0000
0100
0000
0100
0000
1000
0002
0000
1003
0010
,  // measure 6
0100
0000
0010
0000
0100
0010
0000
0010
MM0M
00M0
0001
1000
0100
0000
0000
0000
,  // measure 7
0110
0000
0010
0001
0000
0001
1000
0001
0100
0010
1000
0001
0010
0100
1000
0001
,  // measure 8
0100
0010
0100
0010
0000
0100
0000
0100
0000
0010
0000
1000
0001
0000
0010
0000
,  // measure 9
1000
0000
0010
0000
0001
0000
0100
0010
0000
0010
0000
0010
0000
0010
0000
0010
,  // measure 10
0110
0000
1010
0000
1001
0000
0011
0000
0110
0000
1000
0001
0100
0000
0100
0000
,  // measure 11
1010
0000
0000
0110
0000
0000
0102
0000
0000
0010
0000
0013
0011
0000
0000
0110
,  // measure 12
0000
0000
2100
0000
0000
0000
0000
0000
3010
1000
0000
1000
0000
0010
1000
0001
,  // measure 13
0010
0000
0100
0010
0000
0100
1000
0001
0100
0000
0010
0100
0000
0010
1000
0001
,  // measure 14
1000
0100
0010
0100
0001
0100
0000
1000
0000
0001
1000
0001
0100
0010
0100
1000
,  // measure 15
0100
0000
0001
0000
1000
0010
0100
0001
1000
0100
0010
0000
0001
0000
0010
0000
,  // measure 16
1000
0010
0001
0000
0110
0000
1001
0000
,  // measure 17
2000
0000
0000
3020
0000
0000
0032
0000
2003
0000
0000
3200
0000
0000
0302
0000
,  // measure 18
2003
0000
3010
0100
0001
1000
0100
0010
0001
1000
0000
0001
0000
0001
0100
0000
,  // measure 19
1000
0100
0010
0100
0001
1000
0001
0010
1000
0010
0100
0010
0001
0000
1000
0000
,  // measure 20
0010
1010
0000
1010
0000
1010
0000
1020
0000
0000
0001
0000
1030
0000
0000
0000
,  // measure 21
0001
0000
0001
0000
1000
0000
0001
0010
0M00
0010
1000
0000
0100
0000
0001
0100
,  // measure 22
0010
0000
0100
1000
0000
1000
0001
0000
0100
0000
0001
0100
0010
1000
0100
0010
,  // measure 23
0001
0000
0001
0000
1000
0000
0001
0100
00M0
0100
1000
0000
0010
0000
0001
0000
,  // measure 24
0010
0000
1000
0010
0100
0010
0100
0001
0000
1000
0100
0010
0001
0000
1000
0000
,  // measure 25
1001
0000
0000
0000
0001
0000
0100
1000
000M
1000
0010
0000
0100
0000
0001
0000
,  // measure 26
1000
0000
0100
0001
M000
0001
0010
0000
0100
0000
1000
0000
0001
0000
0100
0000
,  // measure 27
0110
0000
1001
0000
1000
0100
0010
0001
0100
0001
0010
0100
1000
0001
0100
0010
,  // measure 28
1000
0001
1000
0001
1000
0001
1000
0000
0001
0010
0100
0010
1000
0000
0000
0000
,  // measure 29
0011
0000
0000
0000
0011
0000
0000
0000
0001
0010
0M00
0010
1000
0100
00M0
0100
,  // measure 30
0001
1000
0001
0000
0010
0000
0001
1000
0001
0100
00M0
0100
1000
0010
0000
0010
,  // measure 31
1010
0000
0000
0000
1010
0000
0000
0000
1000
0010
0M00
0010
0001
0100
00M0
0100
,  // measure 32
1000
0001
1000
0000
0010
0000
1000
0001
1000
0100
00M0
0100
0001
1000
0001
0000
,  // measure 33
0011
0000
0000
0000
0011
0000
0000
0000
0001
0010
M000
0010
0100
0001
M000
0001
,  // measure 34
0010
0100
0010
0000
1000
0000
0010
0100
0010
0001
M000
0001
0100
0010
0000
0010
,  // measure 35
1010
0000
0000
0000
1010
0000
0000
0000
1000
0010
000M
0010
0100
1000
000M
1000
,  // measure 36
0010
0100
0010
0000
0001
0010
0001
0000
1000
0100
0000
0010
0000
0001
0100
0000
,  // measure 37
1020
0000
0000
0000
0130
0000
0000
0000
0001
0000
0000
0002
0000
0000
0003
000M
,  // measure 38
0010
0000
0010
0000
0100
0000
0100
0000
0001
0000
0000
1000
0001
0000
0010
0000
,  // measure 39
0021
0000
0000
0000
0130
0000
0000
0000
1000
0000
0000
2000
0000
0000
3000
M000
,  // measure 40
0010
0000
0010
0000
0100
0000
0100
0000
1000
0010
0000
0100
0000
0001
1000
0000
,  // measure 41
1002
0000
0000
0000
0013
0000
0000
0000
2001
0000
0000
3010
0000
0000
0000
0000
,  // measure 42
1002
0000
0013
0000
2001
0000
3010
0000
1002
0000
0003
0010
0012
0000
1003
0000
,  // measure 43
1020
0000
0100
0000
0100
0000
0130
0000
0010
0100
0001
0010
0100
1000
0010
0100
,  // measure 44
0002
0000
0010
0000
2003
0010
0000
3002
0000
0100
0000
2003
3100
0000
0000
0000
,  // measure 45
0012
0000
1003
0000
1002
0000
0103
0000
0102
0000
1003
0002
1000
0000
0013
0000
,  // measure 46
0011
0000
0011
0000
1001
0000
1001
0000
0201
0000
0310
0100
1000
0000
0100
0000
,  // measure 47
0102
0000
1003
0000
1002
0000
0013
0000
0012
0000
1003
0002
1000
0000
0103
0000
,  // measure 48
0101
0000
1001
0000
1100
0000
1001
0000
1000
0010
0000
0001
0000
0010
1000
0000
,  // measure 49
2010
0000
3001
0000
2001
0000
3100
0000
2100
0000
3001
2000
0001
0000
3010
0000
,  // measure 50
1010
0000
1010
0000
1001
0000
1001
0000
1200
0000
0310
0100
0001
0000
0100
0000
,  // measure 51
2100
0000
3001
0000
2001
0000
3010
0000
2010
0000
3001
2000
0001
0000
3100
0000
,  // measure 52
1100
0000
1001
0000
0101
0000
1001
0000
0001
0010
0000
1000
0000
0010
0001
0000
,  // measure 53
1000
0010
0100
0000
0010
0100
0000
0010
0100
1000
000M
1000
0010
0100
0010
1000
,  // measure 54
0001
0010
0100
0000
0010
0100
0000
0010
0100
0001
M000
0001
0010
0100
0010
0001
,  // measure 55
1000
0001
0100
00M0
0100
1000
0000
1000
0001
1000
0100
00M0
0100
0001
0000
0001
,  // measure 56
1000
0001
0010
0M00
0010
1000
0100
00M0
0100
0001
0010
0M00
0010
1000
0100
00M0
,  // measure 57
0100
0001
0100
0001
0020
0000
0000
0000
0130
1000
0100
1000
0020
0000
0000
0000
,  // measure 58
1030
0010
0M00
0010
0001
0000
0001
0100
00M0
0100
1000
0000
1001
0000
0000
0000
,  // measure 59
0001
0100
0010
2000
0000
3010
1000
0010
1000
0100
0010
0002
0000
0013
0001
0010
,  // measure 60
0002
0000
0203
0000
2300
3001
0110
0000
,  // measure 61
1000
0010
0100
0001
1000
0001
0010
0100
0001
0100
0010
0001
1000
0001
0100
0010
,  // measure 62
1000
0001
0100
0000
0010
0001
MMM0
0001
0100
0000
0010
1000
0001
0010
0100
1000
,  // measure 63
0001
0010
0001
1000
0001
0100
0001
1000
0100
1000
0001
1000
0010
0100
0001
1000
,  // measure 64
0100
0000
0001
0000
1000
0000
0010
0001
MMM0
0001
0100
0000
1000
0000
0001
0000
,  // measure 65
1000
0001
1000
0010
MM0M
0010
0001
1000
0001
1000
0001
0010
MM0M
0010
1000
0001
,  // measure 66
0100
0000
0010
0000
0100
0000
0010
1000
0100
0000
0010
0001
0100
0000
0110
0000
,  // measure 67
0001
0100
0010
0001
0010
0100
0001
0010
0100
0001
0100
0010
0100
1000
0001
1000
,  // measure 68
0010
0100
0010
0000
0010
0100
0010
0000
2001
0000
3010
0000
1002
0000
0013
0000
,  // measure 69
0100
0010
0100
1000
0001
1000
0010
0100
1000
0100
0010
1000
0001
1000
0100
0010
,  // measure 70
0001
1000
0100
0000
0010
1000
0MMM
1000
0100
0000
0010
0001
1000
0010
0100
0010
,  // measure 71
0001
0010
1000
0001
0100
0001
1000
0100
0010
1000
0010
0001
1000
0001
0100
0010
,  // measure 72
0100
0000
1000
0000
0001
0000
0010
1000
0MMM
1000
0100
0000
0001
1000
0001
0000
,  // measure 73
0020
0000
0000
0000
0130
1000
0001
0100
0010
1000
0001
0010
MM0M
0010
1000
0001
,  // measure 74
0010
0000
0100
0000
0010
0000
0100
1000
0010
0000
0100
0001
0010
0000
0110
0000
,  // measure 75
1000
0100
0010
1000
0010
0100
1000
0010
0100
1000
0100
0010
0100
0001
1000
0001
,  // measure 76
0010
0100
0010
0000
0010
0100
0010
0000
1100
0000
0001
0000
0102
0000
0000
0000
,  // measure 77
MMM3
000M
0000
0000
0010
1000
0010
1000
0MMM
M000
0000
0000
0010
0001
0010
0001
,  // measure 78
0100
0010
1000
0100
1000
0010
0100
0001
0010
0001
0100
0010
1000
0100
0010
0001
,  // measure 79
0011
0000
0000
0110
0000
0000
2100
0000
0000
0010
0000
3010
1010
0000
0000
0110
,  // measure 80
0000
0000
0102
0000
0000
0000
0000
0000
0013
0100
0000
0100
0000
0010
0100
0000
,  // measure 81
0000
2002
0000
3003
;

//---------------dance-single - lapix dumpsterfire chart ROUND 2----------------
#NOTEDATA:;
#CHARTNAME:Nothing Butt Theory;
#STEPSTYPE:dance-single;
#DESCRIPTION:lapix dumpsterfire chart ROUND 2;
#CHARTSTYLE:;
#DIFFICULTY:Edit;
#METER:2;
#RADARVALUES:1.179887,1.604540,1.578042,0.761543,1.464204,1052.000000,829.000000,201.000000,97.000000,50.000000,48.000000,0.000000,0.000000,0.000000,1.179887,1.604540,1.578042,0.761543,1.464204,1052.000000,829.000000,201.000000,97.000000,50.000000,48.000000,0.000000,0.000000,0.000000;
#CREDIT:Gameoson UNHINGED;
#NOTES:
// measure 0
0000
0000
0000
0000
,  // measure 1
0000
0000
0000
0000
,  // measure 2
0000
0000
0000
0000
,  // measure 3
1000
0000
0100
0000
1000
0100
0000
0010
0000
0010
0000
0001
2000
0000
3010
0100
,  // measure 4
0001
0000
0100
0000
0001
0100
0000
0010
0000
0010
0000
1000
0001
0000
1001
0000
,  // measure 5
0001
0000
0010
0000
0100
0010
0000
0100
0000
0100
0000
1000
0002
0000
1003
0010
,  // measure 6
0100
0000
0010
0000
0100
0010
0000
0010
0100
0000
M01M
0010
2002
0000
3003
0000
,  // measure 7
1001
0000
1000
0100
0000
0100
0010
0001
1000
0010
0100
1000
0001
0010
0100
0001
,  // measure 8
1000
0100
0010
0100
0000
0001
0100
0010
0000
0100
1000
0001
0100
0000
0010
0000
,  // measure 9
2010
0000
3100
0000
0012
0000
0103
0010
0000
0010
0000
0010
0000
0010
0000
0010
,  // measure 10
0110
0000
1010
0000
1001
0000
0011
0000
0110
0000
1000
0001
0100
0000
0100
0000
,  // measure 11
1102
0000
0003
1102
0000
0003
2011
0000
0000
0010
0000
3010
2011
0000
3000
2011
,  // measure 12
0000
3000
1102
0000
0000
0000
0000
0000
1003
0001
0000
0001
0000
0001
1000
0100
,  // measure 13
0001
0000
0100
1000
0000
0001
1000
0010
0001
0000
0010
1000
0000
0001
1000
0100
,  // measure 14
0001
0100
1000
0010
0001
0010
0000
1000
0000
0001
0100
0010
1000
0100
0010
0001
,  // measure 15
1000
0000
0100
0000
0001
0100
1000
0001
1000
0010
0001
0000
1000
0000
0100
0000
,  // measure 16
0001
0010
1000
0000
0110
0000
1001
0000
,  // measure 17
2010
0000
0000
3012
0000
0000
2013
0000
3102
0000
0000
2103
0000
0000
3102
0000
,  // measure 18
2003
0000
3001
0010
0100
1000
0010
0100
0001
1000
0000
0001
0000
0001
0010
0000
,  // measure 19
1000
0010
0001
1000
0001
1000
0001
0100
1000
0100
0001
1000
0001
0000
0010
0000
,  // measure 20
1001
1001
0000
1001
0000
1001
0000
2002
0000
0000
0010
0000
3013
0000
0000
0000
,  // measure 21
0021
0000
0130
0000
1020
0000
0130
0120
0000
0031
0011
0000
1001
0000
0001
0100
,  // measure 22
0010
0000
1000
0100
0000
0100
0010
0000
0001
0000
1000
0100
0010
0001
0100
0010
,  // measure 23
1020
0000
0130
0000
0021
0000
0130
0120
0000
1030
1010
0000
1001
0000
1100
0000
,  // measure 24
0110
0000
0010
0001
1000
0001
0100
1000
0000
0001
0010
1000
0001
0000
1000
0000
,  // measure 25
2002
0000
3003
0000
1200
0000
0301
0201
0000
0310
0210
0000
1300
0000
0010
0000
,  // measure 26
0201
0000
1300
1200
0000
0310
0210
0000
0301
1000
0100
0000
1000
0001
0100
0000
,  // measure 27
0110
0000
1001
0000
0001
0010
1000
0010
0001
0100
1000
0100
0001
1000
0100
0010
,  // measure 28
M10M
M10M
M10M
M10M
M10M
M10M
M10M
0000
1000
1000
0001
0001
0220
0000
0330
0000
,  // measure 29
1001
0000
0000
0000
1001
0000
0000
0000
1000
0011
0000
1100
0001
1100
0000
0011
,  // measure 30
1000
0100
0010
0000
0110
0000
0010
0001
1000
0011
0000
0011
0100
0011
0000
0011
,  // measure 31
1001
0000
0000
0000
1001
0000
0000
0000
0001
1010
0000
0101
1000
0101
0000
1010
,  // measure 32
0001
0100
0010
0000
0110
0000
0010
1000
0001
1010
0000
1010
010M
M100
010M
0000
,  // measure 33
1001
0000
0000
0000
1001
0000
0000
0000
1000
0011
0000
0101
1000
0101
0000
0011
,  // measure 34
1000
0001
1000
0000
1001
0000
1000
0100
0010
0101
0000
0101
1000
0011
0000
0011
,  // measure 35
1001
0000
0000
0000
1001
0000
0000
0000
0001
1010
0000
1100
0001
1100
0000
1010
,  // measure 36
0001
0100
1000
0000
1000
0100
0001
0000
0010
1000
0000
0010
0000
0001
0100
0000
,  // measure 37
2011
0000
0000
0000
0001
0000
0000
0000
0100
0000
0000
0100
0000
0000
0000
0000
,  // measure 38
0010
0000
0010
0000
0001
0000
0001
0000
0100
0000
0000
3100
1000
0000
0001
0000
,  // measure 39
1012
0000
0000
0000
1000
0000
0000
0000
0100
0000
0000
0100
0000
0000
0000
0000
,  // measure 40
0010
0000
0010
0000
1000
0000
1000
0000
0103
0001
0000
0010
0000
0001
0100
0000
,  // measure 41
2101
0000
0000
0000
3010
0000
0000
0000
1102
0000
0000
0013
0000
0000
0000
0000
,  // measure 42
1102
0000
0013
0000
2101
0000
3010
0000
1102
0000
0003
0110
1001
0000
1001
0000
,  // measure 43
0001
0010
0001
0010
1000
0010
1000
0010
0001
0100
1000
0100
0001
0010
1000
0010
,  // measure 44
0002
0000
0010
0000
2003
0010
0000
3002
0000
0100
0000
2003
3100
0000
0000
0000
,  // measure 45
1200
0000
0010
0001
0000
0000
0010
1000
0000
0000
0010
0001
0000
0000
0011
1000
,  // measure 46
0000
0000
1010
0001
0000
0000
0011
1000
0000
0000
1310
0001
2000
3020
0230
0320
,  // measure 47
0230
0000
0010
1000
0000
0000
0010
0001
0000
0000
0010
1000
0000
0000
1010
0001
,  // measure 48
0000
0000
0011
1000
0000
0000
1010
0001
0000
0310
0000
0010
1010
0000
1001
0000
,  // measure 49
0012
0000
0010
0100
0000
0000
0100
0010
0000
0000
0010
0100
0000
0000
0100
1010
,  // measure 50
0000
0000
1100
0010
0000
0000
0010
1100
0000
0000
1010
0103
2000
3002
0203
0320
,  // measure 51
2030
0000
0010
0100
0000
0000
0100
0010
0000
0000
0010
0100
0000
0000
0100
0011
,  // measure 52
0000
0000
0101
0010
0000
0000
0010
0101
0000
3002
0000
0203
0000
0310
1000
0000
,  // measure 53
1000
0100
0001
0000
0100
0001
M000
0001
0010
1000
000M
1000
0100
0010
0001
1000
,  // measure 54
0001
0100
1000
0000
0100
1000
000M
1000
0010
0001
M000
0001
0100
0010
1000
0001
,  // measure 55
1000
0100
0001
M000
0001
0010
0000
0010
0001
0100
1000
000M
1000
0010
0000
0010
,  // measure 56
1000
0100
0001
M000
0001
0010
1000
000M
1000
0010
0001
M000
0001
0100
0010
1000
,  // measure 57
010M
0100
0100
0100
0022
0000
0000
0000
M133
0100
0100
0100
2020
0000
0000
0000
,  // measure 58
3132
1003
0000
0012
1000
0003
2010
0001
3000
2100
0001
3000
1001
0000
0000
0000
,  // measure 59
0001
0100
0010
2000
0000
3010
1000
0010
1000
0100
0010
0002
0000
0013
0001
0010
,  // measure 60
0002
0000
0203
0000
0320
1030
1101
0000
,  // measure 61
1100
0001
0100
0001
1100
0001
1000
0001
1010
0001
0010
0001
1010
0001
1000
0001
,  // measure 62
1100
0011
1100
0000
0101
1010
0000
0011
1000
0000
0011
1000
0100
01M0
01M0
0100
,  // measure 63
0001
0010
0100
1000
0001
0100
0010
1000
0100
0001
0100
1000
0010
0001
0010
1000
,  // measure 64
0100
0000
0110
0000
1001
0000
1010
0011
0000
0011
1010
0000
1001
0000
1001
0000
,  // measure 65
1000
0100
0001
2200
0000
3310
0001
1000
0001
0100
1000
0202
0000
0313
1000
0100
,  // measure 66
0010
0000
0001
0100
0010
M000
010M
0100
1010
0000
M10M
0100
0011
0000
1001
0000
,  // measure 67
0001
0010
1000
0001
0100
1000
0001
0010
1000
0001
1000
0001
1000
0010
0001
1000
,  // measure 68
0M10
0010
0M10
0000
0M10
0010
0M10
0000
2001
0000
3010
0000
1002
0000
0013
0000
,  // measure 69
0101
1000
0100
1000
0101
1000
0001
1000
0011
1000
0010
1000
0011
1000
0001
1000
,  // measure 70
0101
1010
0101
0000
1100
0011
0000
1010
0001
0000
1010
0001
0100
01M0
01M0
0100
,  // measure 71
1000
0001
0100
1000
0001
0010
1000
0100
0001
1000
0010
0001
0100
1000
0001
0010
,  // measure 72
1000
0000
0110
0000
1001
0000
0011
1010
0000
1010
0011
0000
0101
1100
0101
0000
,  // measure 73
1000
0100
0010
0001
1000
0100
0010
0001
1000
0100
0010
0001
1000
0000
0000
0010
0000
0000
1000
0000
0000
0001
0000
0000
1000
0000
0000
0100
0000
0000
0001
0000
0000
2200
0000
0000
0000
0000
0000
3310
0000
0000
0001
0000
0000
0100
0000
0000
,  // measure 74
0010
0000
1000
0100
0010
000M
M100
0100
0011
0000
M10M
0100
1010
0000
1001
0000
,  // measure 75
1000
0010
0001
1000
0100
0001
1000
0010
0001
1000
0001
1000
0001
0010
1000
0001
,  // measure 76
0M10
0010
0M10
0000
0M10
0010
0M10
0000
2001
0000
3010
0000
1002
0000
0000
0000
,  // measure 77
2013
0000
0000
0000
3010
1000
0010
1000
0012
0000
0000
0000
0013
0001
0010
0001
,  // measure 78
1010
0011
1010
0011
1100
0101
1100
0101
1010
0011
1010
0011
1100
0101
1100
0101
,  // measure 79
2011
0000
3000
2011
0000
3000
1102
0000
0000
0010
0000
0013
1012
0000
0003
1012
,  // measure 80
0000
0003
2101
0000
0000
0000
0000
0000
3001
0100
0000
1000
0000
0010
0001
0000
,  // measure 81
0000
0000
0000
0000
0000
0000
0000
0000
2222
0000
0000
0000
0000
0000
0000
0000
3333
0000
0000
0000
0000
0001
0010
0100
1000
0000
0000
0000
0000
0000
0000
0000
;

//---------------dance-single - ----------------
#NOTEDATA:;
#CHARTNAME:;
#STEPSTYPE:dance-single;
#DESCRIPTION:;
#CHARTSTYLE:;
#DIFFICULTY:Medium;
#METER:10;
#RADARVALUES:0.492367,0.545543,0.494610,0.533865,0.074584,439.000000,376.000000,63.000000,68.000000,0.000000,0.000000,0.000000,0.000000,0.000000,0.492367,0.545543,0.494610,0.533865,0.074584,439.000000,376.000000,63.000000,68.000000,0.000000,0.000000,0.000000,0.000000,0.000000;
#CREDIT:;
#NOTES:
// measure 0
0000
0000
0000
0000
,  // measure 1
0000
0000
0000
0000
,  // measure 2
0000
0000
0000
0000
,  // measure 3
1000
0010
1000
0000
0010
0000
1010
0000
,  // measure 4
0001
0010
0001
0000
0010
0000
1001
0000
,  // measure 5
0001
0100
0001
0000
0100
0000
0101
0000
,  // measure 6
1000
0100
1000
0000
0000
0000
1001
0000
,  // measure 7
1000
0010
0100
0000
0001
0010
0100
0000
,  // measure 8
1000
0001
0100
0000
0010
1000
0001
0000
,  // measure 9
0011
1100
0101
1010
,  // measure 10
0001
0010
0100
1000
0010
0100
0001
0000
,  // measure 11
1000
0000
0000
0100
0000
0000
0220
0000
0000
0330
0000
0000
0010
0000
0000
0001
,  // measure 12
0000
2002
0000
0000
3003
0000
0000
0000
,  // measure 13
0001
0011
1000
1010
,  // measure 14
0001
0010
0100
1000
0001
0000
1000
0010
,  // measure 15
0100
0001
1000
0000
0100
1000
0001
0000
,  // measure 16
0200
0310
1001
1001
,  // measure 17
0002
0000
0000
0023
0000
0000
0230
0000
2300
0000
0000
3020
0000
0000
0230
0000
,  // measure 18
0301
0000
0000
0000
0010
0000
0000
0000
0100
0000
0000
1000
0000
0000
0001
0000
,  // measure 19
2001
3010
1002
0013
,  // measure 20
2002
0000
0000
0000
0000
0000
0000
3003
0000
0000
0001
0000
0001
0000
0000
0000
,  // measure 21
1000
0000
0100
0000
0010
0000
0001
1000
,  // measure 22
0010
0000
0000
0100
0000
0000
0002
0000
0000
0000
0100
0000
0103
0000
0000
0000
,  // measure 23
0001
0000
0100
0000
0010
0000
1000
0001
,  // measure 24
0010
0000
0000
0000
0100
0000
0000
2000
0000
0000
0100
0000
3100
0000
0000
0000
,  // measure 25
1001
0000
0000
0000
0001
0000
0000
0100
0000
0000
0010
0000
1000
0000
0001
0000
,  // measure 26
1000
0000
0000
0100
0000
0000
0010
0000
0001
0000
1000
0000
0010
0000
0000
0000
,  // measure 27
2010
3100
0012
0103
,  // measure 28
2002
0000
3003
0000
1000
0001
1000
0000
,  // measure 29
1010
0000
1010
0000
0010
1000
0100
0000
,  // measure 30
1000
0100
0001
0100
1000
0000
1000
0000
,  // measure 31
0011
0000
0011
0000
0010
0001
0100
0000
,  // measure 32
0001
0100
1000
0100
0001
0000
0000
0000
,  // measure 33
0110
0000
1001
0000
0001
1000
0100
0000
,  // measure 34
0001
0100
1000
0010
0001
0000
0010
0000
,  // measure 35
0110
0000
1001
0000
1000
0001
0100
0000
,  // measure 36
1000
0100
0001
0010
1000
0000
0010
0000
,  // measure 37
0022
0030
0200
0303
,  // measure 38
0012
1000
0200
0303
,  // measure 39
2020
0030
0200
3300
,  // measure 40
2010
0001
0200
3300
,  // measure 41
0011
1000
1010
0001
,  // measure 42
0011
1010
0011
1010
,  // measure 43
0001
0100
0001
0100
0010
1000
0100
0010
,  // measure 44
0200
0000
0000
0300
,  // measure 45
0021
0100
1000
1000
,  // measure 46
0031
0010
0100
0010
1000
0000
0011
0000
,  // measure 47
0201
0010
1000
1000
,  // measure 48
0301
0100
0010
1000
0100
0010
0001
0000
,  // measure 49
1020
0100
0001
0001
,  // measure 50
1030
0010
0100
0010
0001
0000
1010
0000
,  // measure 51
1200
0010
0001
0001
,  // measure 52
1300
0100
0010
0001
2000
0000
3000
0000
,  // measure 53
0001
0000
0100
0000
0001
0000
0000
0000
0100
0000
0000
2020
0000
0000
3030
0000
,  // measure 54
1000
0000
0100
0000
1000
0000
0000
0000
0100
0000
0000
0022
0000
0000
0033
0000
,  // measure 55
1000
0010
1010
0000
0001
0010
0011
0000
,  // measure 56
1010
0011
1100
0101
,  // measure 57
1000
0100
0020
0000
0031
0100
0020
0000
,  // measure 58
1030
0000
0000
0001
0000
0000
1000
0000
0000
0001
0000
0000
0010
0000
0000
0000
,  // measure 59
0220
0000
0000
0330
,  // measure 60
0200
0320
0032
1003
,  // measure 61
0001
0100
1000
0000
1000
0100
0001
0000
,  // measure 62
1000
0000
0010
0000
0100
0000
0000
0001
0000
0000
1000
0000
1000
0000
0000
0000
,  // measure 63
0001
0010
0100
0000
0010
0100
1000
0000
,  // measure 64
0001
0000
0010
0000
1000
0000
0000
0010
0000
0000
0001
0000
1000
0000
0001
0000
,  // measure 65
0200
1000
0001
1000
,  // measure 66
0301
0100
0010
0100
0001
0100
0010
0000
,  // measure 67
2000
3200
0302
0023
,  // measure 68
1030
1000
1010
0011
,  // measure 69
1000
0100
0001
0000
0001
0100
1000
0000
,  // measure 70
0001
0000
0010
0000
0100
0000
0000
1000
0000
0000
0001
0000
0001
0000
0000
0000
,  // measure 71
1000
1000
0010
0000
0001
0001
0010
0000
,  // measure 72
1000
0000
0100
0000
0001
0000
0000
0100
0000
0000
1000
0000
0010
0000
0100
0000
,  // measure 73
0000
0120
2030
3002
,  // measure 74
1003
0100
0010
0100
1000
0100
0010
0000
,  // measure 75
0002
0203
2300
3020
,  // measure 76
0031
1000
2002
3003
,  // measure 77
0101
0000
1010
0000
,  // measure 78
0001
0010
0100
1000
0001
0010
0100
1000
,  // measure 79
0001
0000
0000
0100
0000
0000
0220
0000
0000
0330
0000
0000
0010
0000
0000
1000
,  // measure 80
0000
2002
0000
0000
3003
0000
0000
0000
,  // measure 81
0000
0220
0000
0330
;

//---------------dance-single - ----------------
#NOTEDATA:;
#CHARTNAME:;
#STEPSTYPE:dance-single;
#DESCRIPTION:;
#CHARTSTYLE:;
#DIFFICULTY:Hard;
#METER:13;
#RADARVALUES:0.708829,0.705997,0.518163,0.408250,0.529940,632.000000,566.000000,66.000000,52.000000,0.000000,0.000000,0.000000,0.000000,0.000000,0.708829,0.705997,0.518163,0.408250,0.529940,632.000000,566.000000,66.000000,52.000000,0.000000,0.000000,0.000000,0.000000,0.000000;
#CREDIT:;
#NOTES:
// measure 0
0000
0000
0000
0000
,  // measure 1
0000
0000
0000
0000
,  // measure 2
0000
0000
0000
0000
,  // measure 3
1000
0000
0010
0000
1000
0000
0000
0010
0000
1000
0000
0010
2000
0000
0000
0000
,  // measure 4
3001
0000
0010
0000
0001
0000
0000
0010
0000
0001
0000
0010
0001
0000
1000
0000
,  // measure 5
0001
0000
0100
0000
0001
0000
0000
0100
0000
0001
0000
0100
0002
0000
0000
0000
,  // measure 6
1003
0000
0100
0000
1000
0000
0000
0000
1001
0000
1000
0001
1000
0000
0000
0000
,  // measure 7
0001
0000
0100
0000
0010
1000
0000
0010
1000
0000
0100
0000
0010
0000
0001
0000
,  // measure 8
1000
0000
0010
0000
0100
0001
0000
0100
0001
0000
1000
0000
0100
0000
0010
0000
,  // measure 9
0110
0000
0000
0000
2001
0000
0000
0010
0000
0010
0000
0010
0000
3010
0000
0010
,  // measure 10
0100
0000
0001
0000
1000
0000
0100
0000
0010
0000
0001
1000
0001
0000
0000
0000
,  // measure 11
0101
0000
0000
1001
0000
0000
0021
0000
0000
0130
0000
0000
1100
0000
0000
1001
,  // measure 12
0000
2020
0000
0000
3030
0000
0000
0001
,  // measure 13
0100
0000
0010
1000
0000
0010
1000
0000
0100
0000
0010
0001
0000
0010
0001
0000
,  // measure 14
1000
0000
0010
0000
0100
0001
0000
1000
0000
0000
0001
0000
0010
0000
0100
0000
,  // measure 15
0001
0100
1000
0001
0100
1000
0100
0010
,  // measure 16
1000
0001
1000
0000
1100
0000
0011
0000
,  // measure 17
2000
0000
0000
3020
0000
0000
0032
0000
2003
0000
0000
3200
0000
0000
0302
0000
,  // measure 18
2003
0000
3010
0000
0100
0000
0001
0000
1000
0100
0000
0010
0000
0000
0001
0000
,  // measure 19
0012
0000
1003
0010
2010
0000
3001
1000
,  // measure 20
0200
0010
0000
0010
0000
0010
0000
0310
0000
0000
0110
0000
0110
0000
0000
0000
,  // measure 21
0001
0000
0010
0000
1000
0000
0010
0001
0000
0000
1000
0000
0100
0000
0010
0000
,  // measure 22
0001
0000
0000
0011
0000
0000
1001
0000
0000
0000
0001
0000
0100
0000
0010
0000
,  // measure 23
1000
0000
0010
0000
0001
0000
0010
1000
0000
0000
0001
0000
0100
0000
0010
0000
,  // measure 24
1000
0000
0100
0000
0010
0000
0001
1000
0000
0001
0100
0000
0010
0000
1000
0000
,  // measure 25
1001
0000
0000
0000
1000
0000
0100
0001
0000
0000
0100
0000
1000
0000
0001
0000
,  // measure 26
0100
0000
0000
1000
0000
0000
0100
0000
0001
0000
1000
0000
0100
0000
0010
0000
,  // measure 27
0012
0000
0103
0010
2010
0000
3100
0010
,  // measure 28
0200
0000
0000
0000
0010
0010
0310
0000
,  // measure 29
0011
0000
0000
0000
0011
0000
0000
0000
0010
0001
0000
1000
0001
1000
0000
0001
,  // measure 30
0100
0000
1000
0000
0100
0000
0001
0000
0100
0010
0000
0100
0010
0000
1000
0000
,  // measure 31
1010
0000
0000
0000
1010
0000
0000
0000
0010
1000
0000
0001
1000
0001
0000
1000
,  // measure 32
0100
0001
0100
1000
0001
0000
2002
3003
,  // measure 33
0101
0000
0000
0000
0101
0000
0000
0000
0100
0001
0000
1000
0001
1000
0000
0001
,  // measure 34
0010
0000
1000
0000
0010
0000
0001
0000
1000
0010
0000
0100
0001
0000
1000
0000
,  // measure 35
1100
0000
0000
0000
1100
0000
0000
0000
0100
1000
0000
0001
1000
0001
0000
1000
,  // measure 36
0010
0000
0010
0000
0100
0000
0100
0000
0001
1000
0000
0100
0000
0010
0001
0000
,  // measure 37
1002
0000
0000
0000
0103
0000
0000
0000
0010
0000
0000
0020
0000
0000
0030
0000
,  // measure 38
0001
0000
0001
0000
0100
0000
0100
0000
0010
0000
0000
0100
0010
0000
1000
0000
,  // measure 39
2001
0000
0000
0000
3100
0000
0000
0000
0010
0000
0000
0020
0000
0000
0030
0000
,  // measure 40
1000
0000
1000
0000
0100
0000
0100
0000
0010
0001
0000
1000
0000
0001
0100
0000
,  // measure 41
0102
0000
0000
0000
1003
0000
0000
0000
2100
0000
0000
3001
0000
0000
0000
0000
,  // measure 42
1002
0000
0103
0000
0010
0000
0100
0000
2001
0000
0000
3100
0010
0000
0100
0000
,  // measure 43
1001
0000
1001
0000
0001
0100
1000
0100
,  // measure 44
0002
0000
0000
0003
,  // measure 45
0011
0000
0000
0000
1010
0000
0000
0000
1100
0000
0000
0100
0001
0000
0000
0000
,  // measure 46
0001
0000
0010
0000
1000
0000
0010
0000
0001
0000
1000
0001
0100
0000
0000
0000
,  // measure 47
0101
0000
0000
0000
1100
0000
0000
0000
1010
0000
0000
0010
0001
0000
0000
0000
,  // measure 48
0001
0000
0100
0000
1000
0000
0100
0000
0001
0010
0000
0010
0100
0000
1000
0000
,  // measure 49
1010
0000
0000
0000
0011
0000
0000
0000
0101
0000
0000
0100
1000
0000
0000
0000
,  // measure 50
1000
0000
0010
0000
0001
0000
0010
0000
1000
0000
0001
1000
0100
0000
0000
0000
,  // measure 51
1100
0000
0000
0000
0101
0000
0000
0000
0011
0000
0000
0010
1000
0000
0000
0000
,  // measure 52
1000
0000
0100
0000
0001
0000
0100
0000
1000
0010
0000
0200
0000
0000
0301
0000
,  // measure 53
1000
0000
0100
0000
1000
0100
0000
1000
0010
1000
0000
2020
0000
0000
3030
0000
,  // measure 54
0001
0000
0100
0000
0001
0100
0000
0001
0010
0001
0000
0022
0000
0000
0033
0000
,  // measure 55
1000
0000
0010
0000
0100
0001
0000
0100
0001
0000
0010
0000
0100
1000
0000
0100
,  // measure 56
1000
0010
1000
0100
1000
0010
1000
0100
,  // measure 57
1000
0010
1000
0010
2000
0000
0000
0000
3001
0010
0001
0010
0002
0000
0000
0000
,  // measure 58
0013
0100
0000
1000
0001
0000
0100
0010
0000
1000
0001
0000
1000
0000
0000
0000
,  // measure 59
1002
0010
2003
0010
,  // measure 60
3002
0000
0023
0000
1030
0010
0011
0000
,  // measure 61
0001
0100
0010
0001
0010
0100
0001
1000
,  // measure 62
0001
0000
0010
0000
0100
0001
0000
0001
0100
0000
0010
0000
0001
0000
1000
0000
,  // measure 63
0001
0100
0001
0100
0010
1000
0100
0010
,  // measure 64
0001
0000
0100
0000
0010
0000
0100
1000
0000
0100
0010
0000
0100
0000
0001
0000
,  // measure 65
0010
0000
0000
2100
0000
0000
0010
0000
3010
0000
0000
0102
0000
0000
0010
0000
,  // measure 66
0013
0100
0010
0100
1000
0001
0010
0100
,  // measure 67
1000
0010
0000
0001
0010
0000
1000
0100
0000
0001
0100
0000
1000
0000
0001
0000
,  // measure 68
1000
0010
1000
0000
0010
1000
0010
0000
1000
0000
0001
0000
0011
0000
0000
0000
,  // measure 69
1000
0100
0010
1000
0010
0100
1000
0001
,  // measure 70
1000
0000
0010
0000
0100
1000
0000
1000
0100
0000
0010
0000
1000
0000
0001
0000
,  // measure 71
0010
1000
0001
0100
1000
0001
1000
0010
,  // measure 72
0001
0000
1000
0000
0100
0000
0001
1000
0000
0001
1000
0000
0100
0000
0010
0000
,  // measure 73
0200
0000
0000
0000
0310
0000
0001
0000
0100
0000
0000
2001
0000
0000
0010
0000
,  // measure 74
3010
0100
0010
0100
0001
1000
0010
0100
,  // measure 75
0001
0010
0000
1000
0010
0000
0001
0100
0000
1000
0100
0000
0001
0000
1000
0000
,  // measure 76
0001
0010
0001
0000
0010
0001
0010
0000
0100
0000
0000
0000
0110
0000
0000
0000
,  // measure 77
2001
0000
0000
0000
3001
0100
0001
0100
0002
0000
0000
0000
1003
0100
1000
0100
,  // measure 78
1000
0010
0001
0010
1000
0100
0001
0100
,  // measure 79
1100
0000
0000
1001
0000
0000
1020
0000
0000
0130
0000
0000
0101
0000
0000
1001
,  // measure 80
0000
0022
0000
0000
0033
0000
0000
0000
,  // measure 81
0000
2002
0000
3003
;

//---------------dance-single - ----------------
#NOTEDATA:;
#CHARTNAME:;
#STEPSTYPE:dance-single;
#DESCRIPTION:;
#CHARTSTYLE:;
#DIFFICULTY:Easy;
#METER:6;
#RADARVALUES:0.336470,0.417180,0.361144,0.494610,0.000000,300.000000,254.000000,46.000000,63.000000,0.000000,0.000000,0.000000,0.000000,0.000000,0.336470,0.417180,0.361144,0.494610,0.000000,300.000000,254.000000,46.000000,63.000000,0.000000,0.000000,0.000000,0.000000,0.000000;
#CREDIT:;
#NOTES:
// measure 0
0000
0000
0000
0000
,  // measure 1
0000
0000
0000
0000
,  // measure 2
0000
0000
0000
0000
,  // measure 3
1000
1000
0010
0000
,  // measure 4
0001
0001
0010
0000
,  // measure 5
1000
1000
0100
0000
,  // measure 6
0001
0100
0000
1001
,  // measure 7
1000
0010
0100
0000
,  // measure 8
0001
0010
0100
0000
,  // measure 9
1000
0010
0100
0100
,  // measure 10
0001
1000
0100
0010
,  // measure 11
0022
0000
0000
0030
0000
0000
0003
0000
0000
0000
0000
0000
2020
0000
0000
0030
,  // measure 12
0000
3000
0000
0000
0000
0000
0000
0000
,  // measure 13
1000
0000
0010
0000
,  // measure 14
0100
0001
0010
0000
,  // measure 15
0100
1000
0010
0100
,  // measure 16
0001
0000
1001
1001
,  // measure 17
0002
0003
2000
3000
,  // measure 18
0100
0010
0100
0000
,  // measure 19
0012
1003
2010
3001
,  // measure 20
2002
0000
0000
0000
0000
0003
3000
0000
,  // measure 21
0001
0010
1000
0010
,  // measure 22
0001
0000
0011
0000
,  // measure 23
1000
0010
0001
0010
,  // measure 24
1000
0000
1010
0000
,  // measure 25
0001
1000
0100
0000
,  // measure 26
0010
0001
1000
0000
,  // measure 27
2010
3001
0012
1003
,  // measure 28
2002
3003
0010
1001
,  // measure 29
2000
0010
3002
0100
,  // measure 30
1003
1000
0001
1000
,  // measure 31
0002
0010
2003
0100
,  // measure 32
3001
0001
0001
0000
,  // measure 33
2000
0010
3200
0010
,  // measure 34
1300
1000
0001
1000
,  // measure 35
0002
0010
0203
0010
,  // measure 36
0301
1000
0100
0010
,  // measure 37
0022
0030
2000
3003
,  // measure 38
0002
0010
2000
3003
,  // measure 39
2020
0030
0002
3003
,  // measure 40
2000
0010
0002
3003
,  // measure 41
1001
0000
0110
0000
,  // measure 42
1001
1001
0110
0000
,  // measure 43
1002
0023
0230
2300
,  // measure 44
3001
0000
0000
0000
,  // measure 45
0201
0310
0102
0013
,  // measure 46
0201
0010
0301
0010
,  // measure 47
0021
0130
0012
0103
,  // measure 48
0010
1000
0001
0010
,  // measure 49
1200
0310
2100
3010
,  // measure 50
1200
0010
1300
0010
,  // measure 51
1020
0130
2010
3100
,  // measure 52
0010
0001
1000
0000
,  // measure 53
0001
0100
0010
1010
,  // measure 54
1000
0100
0010
0011
,  // measure 55
2000
0010
3002
0010
,  // measure 56
1003
1000
0001
0001
,  // measure 57
0200
0300
0200
0300
,  // measure 58
0100
0100
0100
1001
,  // measure 59
0002
0000
0000
0000
,  // measure 60
0023
0230
2300
3001
,  // measure 61
1000
0010
0100
0001
,  // measure 62
1000
0010
0100
0001
,  // measure 63
0010
0100
1000
0001
,  // measure 64
0010
1000
0010
0001
,  // measure 65
2000
3001
2000
3001
,  // measure 66
0100
0100
0001
0010
,  // measure 67
0100
1000
0010
0100
,  // measure 68
0101
1010
0101
0000
,  // measure 69
0001
0010
0100
1000
,  // measure 70
0001
0010
0100
1000
,  // measure 71
0010
0001
0010
1000
,  // measure 72
0100
0001
0100
1000
,  // measure 73
0000
1000
0002
0103
,  // measure 74
0010
0010
1000
0100
,  // measure 75
0010
0001
0100
0010
,  // measure 76
1010
1001
0011
0000
,  // measure 77
0110
0000
1001
0000
,  // measure 78
1000
0010
0100
0001
,  // measure 79
0022
0000
0000
0030
0000
0000
0003
0000
0000
0000
0000
0000
2020
0000
0000
0030
,  // measure 80
0000
3000
0000
0000
0000
0000
0000
0000
,  // measure 81
0000
2002
0000
3003
;

//---------------dance-single - ----------------
#NOTEDATA:;
#CHARTNAME:;
#STEPSTYPE:dance-single;
#DESCRIPTION:;
#CHARTSTYLE:;
#DIFFICULTY:Beginner;
#METER:3;
#RADARVALUES:0.199639,0.350840,0.172721,0.086361,0.000000,178.000000,156.000000,22.000000,11.000000,0.000000,0.000000,0.000000,0.000000,0.000000,0.199639,0.350840,0.172721,0.086361,0.000000,178.000000,156.000000,22.000000,11.000000,0.000000,0.000000,0.000000,0.000000,0.000000;
#CREDIT:;
#NOTES:
// measure 0
0000
0000
0000
0000
,  // measure 1
0000
0000
0000
0000
,  // measure 2
0000
0000
0000
0000
,  // measure 3
1000
0000
0000
0000
,  // measure 4
0001
0000
0000
0000
,  // measure 5
1000
0000
0000
0000
,  // measure 6
0001
0000
0000
1000
,  // measure 7
1000
0000
0010
0000
,  // measure 8
0100
0000
0001
0000
,  // measure 9
0010
0000
0010
0000
,  // measure 10
0010
0010
0010
0000
,  // measure 11
0002
0000
0000
0003
0000
0000
2000
0000
,  // measure 12
0000
3000
0000
0000
0000
0000
0000
0000
,  // measure 13
0001
0000
0001
0000
,  // measure 14
0100
0000
0100
0000
,  // measure 15
0010
0000
1000
0000
,  // measure 16
0001
0000
1000
0000
,  // measure 17
0100
0000
0100
0000
,  // measure 18
0010
0000
0001
0000
,  // measure 19
1001
0000
1001
0000
,  // measure 20
2002
0000
3003
0000
,  // measure 21
1000
1000
1000
0000
,  // measure 22
0010
0000
1000
0000
,  // measure 23
0001
0001
0001
0000
,  // measure 24
0010
0000
0001
0000
,  // measure 25
1000
0000
0010
0000
,  // measure 26
0100
0000
0001
0000
,  // measure 27
1001
0000
1001
0000
,  // measure 28
2002
0000
3003
0000
,  // measure 29
1000
0000
1000
0000
,  // measure 30
1000
1000
1000
0000
,  // measure 31
0001
0000
0001
0000
,  // measure 32
0001
0001
0001
0000
,  // measure 33
0010
0000
0010
0000
,  // measure 34
0010
0010
0010
0000
,  // measure 35
0100
0000
0100
0000
,  // measure 36
0100
0100
0100
0000
,  // measure 37
1001
0000
0000
0000
,  // measure 38
0000
0000
0000
0000
,  // measure 39
1001
0000
0000
0000
,  // measure 40
0000
0000
0000
0000
,  // measure 41
1001
0000
0000
0000
,  // measure 42
1001
0000
0000
0000
,  // measure 43
1001
0000
1001
0000
,  // measure 44
0010
0000
0000
0000
,  // measure 45
1000
0000
0010
0000
,  // measure 46
1000
0010
1000
0000
,  // measure 47
1000
0000
0100
0000
,  // measure 48
1000
0100
1000
0000
,  // measure 49
0001
0000
0010
0000
,  // measure 50
0001
0010
0001
0000
,  // measure 51
0001
0000
0100
0000
,  // measure 52
0001
0100
0001
0000
,  // measure 53
0010
0000
1001
0000
,  // measure 54
0100
0000
1001
0000
,  // measure 55
0010
0000
0010
0000
,  // measure 56
0010
0010
0010
0000
,  // measure 57
1001
0000
1001
0000
,  // measure 58
1001
1001
1001
0000
,  // measure 59
0100
0000
0000
0000
,  // measure 60
0000
0000
0000
0000
,  // measure 61
1000
0000
0010
0000
,  // measure 62
0100
0010
0100
0000
,  // measure 63
0001
0000
1000
0000
,  // measure 64
0100
0010
0100
0000
,  // measure 65
0020
0030
0020
0030
,  // measure 66
0001
0000
0001
0000
,  // measure 67
1000
0000
0001
0000
,  // measure 68
1000
0001
1000
0000
,  // measure 69
0001
0000
0010
0000
,  // measure 70
0100
0010
0100
0000
,  // measure 71
1000
0000
0001
0000
,  // measure 72
0100
0010
0100
0000
,  // measure 73
0000
0010
0020
0030
,  // measure 74
1000
0000
1000
0000
,  // measure 75
0001
0000
1000
0000
,  // measure 76
0001
1000
0001
0000
,  // measure 77
1001
0000
1001
0000
,  // measure 78
1000
0001
1000
0000
,  // measure 79
0002
0000
0000
0003
0000
0000
2000
0000
,  // measure 80
0000
3000
0000
0000
0000
0000
0000
0000
,  // measure 81
0000
1001
0000
0000
;
