#TITLE:にっこり^^調査隊のテーマ feat. 鏡音リン,鏡音レン ;
#SUBTITLE:;
#ARTIST:じーざすP;
#TITLETRANSLIT:Niccori^^ Survey Team Theme feat. Kagamine Rin, Kagamine Len;
#SUBTITLETRANSLIT:;
#ARTISTTRANSLIT:Jesus-P;
#GENRE:;
#CREDIT:;
#MUSIC:Niccori^^ Survey Team Theme.ogg;
#BANNER:Niccori^^ Survey Team Theme.png;
#BACKGROUND:Niccori^^ Survey Team Theme-bg.png;
#CDTITLE:;
#SAMPLESTART:60.879;
#SAMPLELENGTH:15.000;
#SELECTABLE:YES;
#OFFSET:1.329;
#BPMS:0.000=180.000;
#STOPS:266.000=0.333
,298.500=1.000
;
#BGCHANGES:0.000=Niccori^^ Survey Team Theme.mp4=1.000=0=0=1,
999.000=Niccori^^ Survey Team Theme-bg.png=1.000=0=0=1,
99999.000=-nosongbg-=1.000=0=0=0=StretchNoLoop====
;
#FGCHANGES:;

//--------------- dance-single - forcednature ----------------
#NOTES:
     dance-single:
     forcednature:
     Beginner:
     2:
     0,0,0,0,0:
0000
0000
0000
0000
,
0000
0000
0000
0000
,
0000
0000
0000
0000
,
0000
0000
0000
0000
,
0000
0000
0000
0000
,
0020
0000
0030
0000
,
1000
0000
0000
0000
,
0000
0000
0000
0000
,
0001
0000
0000
0000
,
0000
0000
0000
0000
,
0010
0000
0000
0000
,
0000
0000
0000
0000
,
0100
0000
0000
0000
,
0000
0000
0000
0000
,
1000
0000
0000
0000
,
0000
0000
0000
0000
,
0001
0000
0000
0000
,
0000
0000
0000
0000
,
0100
0000
0000
0000
,
0000
0000
0000
0000
,
0010
0000
0000
0000
,
0000
0000
0000
0000
,
1001
0000
0000
0000
,
0000
0000
0000
0000
,
0001
0000
0000
0000
,
0000
0000
0000
0000
,
1000
0000
0000
0000
,
0000
0000
0000
0000
,
0100
0000
0000
0000
,
0000
0000
0000
0000
,
0000
0000
0000
0000
,
0110
0000
0000
0000
,
0000
0000
0000
0000
,
1001
0000
0000
0000
,
0000
0000
0000
0000
,
0110
0000
0000
0000
,
0000
0000
0000
0000
,
1001
0000
0000
0000
,
0000
0000
0000
0000
,
1000
1000
0000
0000
,
0001
0001
0000
0000
,
0100
0000
0000
0000
,
0010
0000
0000
0000
,
0001
0001
0000
0000
,
1000
1000
0000
0000
,
0010
0000
0010
0000
,
0010
0000
0000
0000
,
1000
0000
0001
0000
,
1000
0000
0000
0000
,
0010
0000
0100
0000
,
0001
0000
0000
0000
,
1000
0000
0000
0000
,
0100
0000
0000
0000
,
0010
0000
0000
0000
,
0001
0000
0000
0000
,
0100
0000
0000
0000
,
0010
0000
0000
0000
,
1000
0000
0000
0000
,
0001
0000
0000
0000
,
1001
0000
0000
0000
,
1000
0000
0000
0000
,
0001
0000
0000
0000
,
0100
0000
0000
0000
,
1001
0000
0000
0000
,
0001
0000
0000
0000
,
1000
0000
0000
0000
,
0100
0000
0000
0000
,
0000
0010
0000
0000
,
0000
0010
0000
0000
,
0000
0001
0000
0000
,
0000
1000
0000
0010
,
0000
0010
0000
0100
,
0000
0100
0000
0001
,
0000
1000
0000
1000
,
0000
0001
0000
0000
,
1000
0000
0001
0000
,
1000
0000
0000
0000
,
0010
0000
0100
0000
,
0001
0000
1000
0000
,
0100
0000
0000
0000
,
0010
0000
0000
0000
,
1001
0000
0000
0100
,
0000
0100
0000
0000
,
1001
0000
0000
0000
,
0001
0000
0000
0000
,
0100
0000
0000
0000
,
0010
0000
0000
0000
,
1001
0000
0000
0000
,
1000
0000
0000
0000
,
0100
0000
0000
0000
,
0010
0000
0110
0000
;

//--------------- dance-single - forcednature ----------------
#NOTES:
     dance-single:
     forcednature:
     Easy:
     7:
     0,0,0,0,0:
0000
0000
0000
0000
,
0000
0000
0000
0000
,
0000
0000
0000
0000
,
0000
0000
0000
0000
,
0000
0000
0000
0000
,
2002
0000
3003
0000
,
0001
0100
0010
1000
,
0000
0001
0010
0010
,
0001
1000
0010
0100
,
0000
0001
1000
1000
,
0100
0010
0100
1000
,
0000
0010
0100
0100
,
0001
0010
0100
1000
,
0020
0000
0000
0200
0000
0000
0330
0000
,
0001
0000
1000
1000
,
0010
0100
0001
0000
,
1000
0100
0010
0000
,
0001
1000
0010
0100
,
0001
0001
1000
0000
,
0100
0010
0100
1000
,
0010
0100
0001
1000
,
0100
0000
0100
0000
0000
0110
0000
0000
,
0010
0001
1000
0000
,
0001
0100
0010
1000
,
0100
0000
0000
0100
0000
0000
0100
0000
,
0010
0001
1000
0001
,
0000
0100
0010
1000
,
0000
0100
0010
0001
,
1000
1000
0001
0100
,
0010
1000
0001
0010
,
0000
0100
0000
0000
0100
0000
0000
0000
,
0110
0000
1000
0001
,
0100
0010
1000
0000
,
0110
0000
0001
1000
,
0100
0010
0001
0000
,
1001
0000
1000
0010
,
0100
0001
1000
0000
,
1001
0000
0001
0010
,
0100
1000
0001
0000
,
0101
0101
0000
0000
,
1010
1010
0000
0000
,
0001
1000
0100
0010
,
0001
1000
0010
0000
,
1100
1100
0000
0000
,
0011
0000
0011
0000
0000
0000
0000
1001
,
0000
0000
0000
0110
0000
0000
0000
1000
,
0000
0001
0000
1000
0001
0000
0000
0000
,
1000
1000
0001
0001
,
1000
0001
2002
3003
,
0001
0100
0010
1000
,
0200
0320
0230
0320
,
0030
0001
1000
0010
,
0100
0000
0001
0000
1000
0000
0000
0100
,
0000
0010
0001
0100
,
0001
0000
1000
0000
0010
0000
0000
1001
,
0000
0000
1000
0000
0001
0000
0000
1001
,
0000
0000
0001
0000
1000
0000
0000
0110
,
0000
0000
0100
0000
0010
0000
0000
0110
,
0000
0000
0001
0000
0000
1000
0000
0000
,
1001
0000
1000
0100
,
0010
0001
0100
0000
,
0010
1000
0100
1000
,
0010
0100
0001
0000
,
1001
0000
1000
0100
,
0010
0001
0100
0000
,
0001
0000
0010
0000
0001
0000
0000
0100
,
0000
0100
0000
0000
0110
0000
0010
0000
,
0010
0010
0000
1000
,
0001
1000
0100
0010
,
0010
0010
0000
0001
,
1000
0001
0100
0010
,
1000
0010
0000
0100
,
0001
0100
0000
0001
,
0010
0100
1000
0100
,
0010
0001
1000
0000
,
0001
0001
1000
1000
,
0001
1000
1001
0000
,
1000
0010
0100
0001
,
0020
0230
0320
0230
,
0300
1000
0001
0100
,
0010
0000
1000
0000
0001
0000
0000
1001
,
0000
1000
0100
0010
,
0001
0100
0010
0000
,
0110
0000
0100
0001
,
1000
0001
0010
0000
,
0100
1000
0100
0010
,
0001
1000
0010
0000
,
1001
0000
0001
1000
,
0010
0100
0001
0010
,
0100
0000
1000
0000
0001
0000
0000
0100
,
0000
0100
0000
0000
2002
0000
0000
3003
;

//--------------- dance-single - forcednature ----------------
#NOTES:
     dance-single:
     forcednature:
     Medium:
     10:
     0,0,0,0,0:
0000
0000
0000
0000
,
0000
0000
0000
0000
,
0000
0000
0000
0000
,
0000
0000
0000
0000
,
0000
0000
0000
0000
,
2002
3003
0100
0010
,
1001
0000
0001
0000
0100
0000
0010
1000
,
0000
1000
0100
0000
0010
0000
0010
0000
,
1001
0000
1000
0000
0100
0000
0010
0001
,
0000
0001
0100
0000
0010
0000
0100
0000
,
1001
0000
1000
0000
0010
0000
0100
0001
,
0000
0001
0010
0000
0100
0000
0110
0000
,
1001
1000
0010
0100
,
0001
0100
0001
1000
0000
1000
0000
0000
,
0001
0100
0010
0010
,
0100
0001
1000
0100
,
0010
0000
0001
0100
0001
0000
0010
0000
,
0100
1000
0001
0000
,
0100
0100
0010
1000
,
0001
0000
0010
0000
0100
1000
0100
0000
,
0010
0001
1000
0001
,
0100
0000
0010
0000
1000
0001
0000
0000
,
1000
0000
0100
0000
1000
0001
1000
0000
,
0010
0010
0100
0001
,
0010
0000
0100
1000
0000
0100
0010
0000
,
0001
0000
1000
0000
0010
0100
0010
0000
,
1000
0001
0010
0001
,
0100
0100
0001
1000
,
0100
0010
0110
1001
,
1000
0010
0100
0100
,
0000
0010
1000
0000
0010
1000
0000
0010
,
0100
0000
0001
1000
0001
0000
0010
0000
,
0100
0110
2002
3003
,
1000
0000
0001
0010
0001
0000
0100
0000
,
0010
0000
1000
0002
0000
0003
1000
0000
,
0110
0010
0001
1000
,
0010
0000
0100
0001
0000
0001
0000
0000
,
0110
0010
0001
1000
,
1001
1001
0001
1000
,
1100
1100
0010
0000
,
0101
0101
0010
0000
,
1001
1000
0001
0100
,
0010
0000
1000
0000
0001
0010
0001
0000
,
0101
1010
0000
0000
,
1100
0000
0011
0000
1000
0000
0001
0100
,
0000
0010
0000
1000
0000
0100
0000
0010
,
0000
0110
0000
1000
0001
0000
0000
0000
,
0100
0001
0100
0010
0100
0001
0100
0010
,
0100
0001
2002
3003
,
1000
0100
1000
0000
0001
0100
0001
0000
,
0010
0110
1000
1001
,
0001
0000
1000
0010
1000
0000
0100
0000
,
0010
0000
0001
1000
0001
0000
0100
0010
,
0000
0010
1000
0000
0001
0000
0101
0000
,
1000
0000
1100
0000
0010
0100
0000
0110
,
0000
1000
0001
0000
0010
0000
0100
1000
,
0000
0001
0100
0000
0010
0000
0100
0001
,
0000
1000
0100
0000
0010
0000
0001
1000
,
0001
0000
0100
0000
0010
1000
0000
0000
,
1100
0000
0001
0000
0010
0000
0100
1000
,
0001
0100
0010
1000
,
0001
0010
0001
0000
0100
0000
0010
1000
,
0000
1000
0001
0000
0010
0000
0100
0000
,
0110
0000
0010
0000
0001
0000
1000
0010
,
0100
0000
0001
0000
1000
0000
0100
0010
,
0000
0001
0010
0000
0100
0000
1000
0001
,
0000
0100
0000
0100
0010
0000
1001
0000
,
1000
0000
0010
0000
0100
0001
0000
0001
,
0000
1000
0100
0000
0010
0000
0100
0000
,
1000
0000
0001
0000
0100
0010
0000
0010
,
1000
0001
0010
0100
,
1000
1100
1000
0001
,
0100
0000
0101
0000
0001
0000
1000
0010
,
0000
0100
0000
0101
0000
0000
0001
0010
,
0000
0100
0000
1100
0000
0000
0000
0000
,
1000
0100
0010
0100
1000
0100
0010
0100
,
1000
0001
1001
0000
,
0001
0100
0001
0000
1000
0100
1000
0000
,
0010
0110
0100
0110
,
0000
0000
0001
0000
1000
0010
1000
0000
,
0001
0000
0010
0000
0100
0000
1000
0001
,
0000
0001
0100
0000
0010
0000
1000
0000
,
0001
0010
0001
1000
0100
1000
0000
0000
,
1001
0000
0001
0100
0000
0010
0000
1000
,
0000
0001
0000
1000
0000
0100
0010
0000
,
0001
0000
0100
0000
0010
0000
1000
0001
,
0000
0001
0010
0000
0100
0000
1000
0000
,
1001
0000
0001
0100
0000
0010
0000
1000
,
0000
0001
0000
1000
0000
0100
0000
0010
,
0001
0000
1000
0000
0010
0000
0100
0001
,
0000
1001
0000
0100
0020
0000
0000
0030
;

//--------------- dance-single - forcednature ----------------
#NOTES:
     dance-single:
     forcednature:
     Hard:
     13:
     0,0,0,0,0:
0000
0000
0000
0000
,
0000
0000
0000
0000
,
0000
0000
0000
0000
,
0000
0000
0000
0000
,
0000
0000
0000
0000
,
2002
0000
3003
0000
0001
0100
1000
0000
,
0100
0001
0010
0000
0100
1000
0001
0100
,
0000
0010
1000
0001
0020
0030
0220
0330
,
0100
1000
0002
0000
0103
0001
1000
0200
,
0000
0310
0001
1000
0010
0100
0002
0003
,
1000
0100
0010
0000
0100
1000
0001
0100
,
0000
0010
1000
0001
0020
0030
0220
0330
,
0100
1000
0002
0000
0103
0001
1000
0010
,
0100
0100
0001
2000
0000
0020
0000
3030
,
1000
0000
0011
0000
0100
0100
0100
0000
,
0001
0000
1000
0000
0010
0000
0000
0000
0100
0000
0000
0100
0001
0000
0000
0000
,
1000
0100
0010
0001
0010
0100
1000
0000
,
0001
0000
0000
0000
0001
0000
0100
0000
0010
0000
0000
0010
1000
0000
0000
0000
,
1000
0000
0001
0000
0010
0100
1000
0000
,
0010
0010
0010
0000
0100
0001
1000
0000
,
0100
1100
0110
0011
,
0001
1000
0001
0000
0100
0101
0000
0000
,
1000
0000
0010
0100
0001
1000
0010
0000
,
0100
0001
1000
0001
0010
0001
0100
0010
,
2000
0000
3100
0002
0000
0103
2000
0000
,
3010
0100
0001
0010
0000
0100
1000
0000
,
0010
0000
0100
0001
0000
0100
0000
0000
0010
0000
0000
0000
1000
0000
0000
0000
,
0001
0000
1000
0100
0000
1000
0000
0000
0010
0000
0100
0000
0010
0000
1000
0000
,
0001
0000
0101
0000
1000
1000
0020
0000
,
1030
0000
0100
0000
0010
0000
0000
0000
0001
1000
0001
0000
0200
0000
0000
0300
,
0000
0010
0010
0000
0100
0100
0000
0010
,
1001
0000
0001
0100
0000
1000
0100
0001
,
0010
0100
1000
0000
0220
0000
0330
0000
,
1001
0000
1000
0100
0000
0001
0100
1000
,
0010
0100
0001
0020
0000
0130
0100
0000
,
1001
0000
0001
0010
0000
1000
0010
0000
,
0100
0000
0000
2000
0000
0000
0000
0000
0000
3001
0000
0000
0000
0000
0000
0220
0000
0000
0000
0000
0330
0000
0000
0000
,
1001
0000
1000
0010
0100
0001
0010
0001
,
0100
0000
0110
0000
0010
1000
0001
0000
,
1100
0011
0001
0000
,
0101
0000
1010
0000
1000
0001
1000
0000
,
0101
0011
1100
1010
,
0110
0000
1001
0000
1000
0100
0001
0000
,
0110
2002
3003
0000
,
0101
0000
1010
0000
1000
0001
0010
0200
,
0000
1300
0010
0200
0000
0301
1000
0010
,
0000
0110
0000
0100
2002
0000
3003
0001
,
1000
0100
0001
0100
1000
0100
0001
0100
,
0010
0001
1000
0000
0220
0000
0330
1000
,
0001
0100
1000
0100
0001
0010
1000
0010
,
0100
1000
0000
0000
1000
0001
0000
0000
0001
0100
0000
0000
0100
0010
0000
0000
,
1000
0010
0100
0001
0010
0001
0100
0020
,
0000
1030
0001
0010
0100
0100
1000
2020
,
0000
3030
0000
0000
0101
0000
0000
0000
0011
0000
0000
0000
0001
0000
0010
0000
,
0100
1000
0100
0001
0100
0010
0000
0220
,
0330
1000
0010
0001
0010
1000
0000
0110
,
0000
0001
0010
1000
0010
0001
0000
1001
,
0000
1000
0100
0001
0100
1000
0010
0010
,
0100
0001
0101
0000
0010
1010
0000
0001
,
0100
1000
0001
0010
0000
1000
0001
0010
,
0000
1100
0000
0011
0000
1000
0010
0100
,
1000
0100
0001
0010
0100
1000
0000
2020
,
0000
3030
0000
0000
0001
1000
0000
0000
1000
0000
0100
0000
0001
0000
0100
0000
,
0010
0000
0100
0001
0000
1000
0010
0001
,
0000
0101
0000
0011
0000
1000
0010
0100
,
0001
0010
0100
0001
0100
1000
0010
0110
,
0000
0000
0000
0000
0000
0000
0000
0000
1001
0000
0000
0000
0000
0000
0000
0000
0000
0000
0000
0000
0000
0000
0000
0000
0100
0000
0000
0000
0000
0000
0000
0000
0020
0030
0000
0000
0000
0000
0000
0000
0000
0000
0000
0000
0000
0000
0000
0000
1000
0000
0000
0000
0000
0000
0000
0000
0001
0000
0000
0000
0000
0000
0000
0000
,
1000
0000
0101
0000
0100
0010
0000
0010
,
1000
0001
0010
0000
1001
0000
1000
0100
,
1000
0000
0000
1000
0001
0000
0100
0000
0001
0000
0010
0000
0000
0000
0100
0000
,
1000
0000
0001
0000
0100
0000
0000
0100
0020
0000
0030
0000
1000
0000
0001
0000
,
0100
0000
1010
0000
0010
1000
0001
1000
,
0100
0000
0011
0000
0010
0001
1000
0010
,
0100
0000
0001
1000
0000
0000
1010
0000
0000
0000
1000
0000
0001
0000
0010
0000
,
0100
0000
1000
0001
0000
0000
0011
0000
0000
0000
0000
0000
0000
0000
1000
0000
,
0001
0010
1000
0010
0001
0010
1000
0010
,
0100
1000
0010
0000
0220
0000
0330
0100
,
0001
0010
1000
0010
0001
0100
1000
0100
,
0010
1000
0000
0000
1000
0001
0000
0000
0001
0010
0000
0000
0010
0100
0000
0000
,
1000
0100
0010
0100
1000
0001
0100
0020
,
0000
1030
0001
0010
0100
0100
1000
0020
,
0000
0230
0001
0000
0310
1000
0001
0020
,
0000
0000
0130
0000
0001
0000
0100
0000
1000
0000
0010
0000
0000
0010
0100
0000
,
1001
0000
0000
1000
0100
0000
0010
0000
0000
0000
0001
0000
0100
0000
1000
0000
,
0000
0101
0000
1010
0000
0001
0010
0100
,
0001
0100
1000
0010
0100
1000
0000
0202
,
0000
0303
0000
0000
1000
0001
0000
0000
0001
0000
0010
0000
1000
0000
0010
0000
,
0100
0000
0000
0100
1000
0000
0010
0000
0000
0000
0100
0000
0001
0000
0010
0000
,
0000
1100
0000
0011
0000
1000
0010
0001
,
0010
0100
1000
0001
0010
1000
0001
0010
,
0000
0110
0000
0100
2002
0000
0000
3003
;

//--------------- dance-single - forcednature ----------------
#NOTES:
     dance-single:
     forcednature:
     Challenge:
     15:
     0,0,0,0,0:
0000
0000
0000
0000
,
0000
0000
0000
0000
,
0000
0000
0000
0000
,
0000
0000
0000
0000
,
0000
0000
0000
0000
,
1000
0000
0001
1000
0001
1000
0001
0000
0100
0000
0001
0000
0010
0000
0000
0000
,
0100
1000
0100
0000
0010
0000
0000
0000
0001
0000
1000
0000
0010
0000
0100
0001
,
0000
0000
0001
1000
0000
0000
1000
0000
0100
0000
0010
0000
0001
0000
0000
0000
,
0100
0001
0100
0000
0020
0000
0000
0000
1030
0000
0100
0000
0010
0000
0002
0000
,
0000
1003
0001
0100
0010
1000
1001
0000
,
0001
0010
0001
0000
0100
0000
0000
0000
0010
0000
1000
0000
0001
0000
0010
0100
,
0000
0000
0100
1000
0000
0000
0010
0000
0100
0000
0001
0000
1001
0000
0000
0000
,
1000
0100
1000
0000
0020
0000
0000
0000
0130
0000
0001
0000
0010
0000
0200
0000
,
1000
0000
1300
0000
0100
0000
0110
0000
0000
0000
0001
1000
0001
0000
0100
0000
,
0010
0010
1000
0000
0001
0001
0001
0000
,
0100
0010
0000
1000
0000
0001
0000
0000
0010
0000
0100
0000
1000
0000
0000
0000
,
0001
0000
0100
0000
0010
0000
1000
0000
0001
0010
0000
0000
0200
0000
0000
0000
,
1300
0000
0001
0000
0100
0000
0010
0000
1000
0100
0000
0000
0020
0000
0000
0000
,
0031
1000
0001
0100
0010
1000
0001
0000
,
0010
0010
0100
1000
0001
0100
0010
0000
,
0100
0001
0010
0000
0101
0000
1001
0000
,
1000
0100
0010
0001
0100
0110
0000
0000
,
0001
1000
0010
1000
0100
0010
0001
0000
,
0100
1000
0100
0001
0010
0010
0001
1000
,
0100
0001
1000
0010
0001
1000
0100
0001
,
0100
0000
1000
0000
0010
0000
0100
0000
0000
0100
0000
0000
0001
0000
0000
0000
,
1000
0000
0100
1000
0000
0100
0000
0000
0010
0000
0001
0000
0001
0000
0100
0000
,
0010
0000
1000
0001
0000
0010
0000
0100
1000
0000
1000
0000
0001
0000
0000
0000
,
0110
0000
1001
0000
1000
1000
0001
0000
,
0100
0001
0000
0100
0001
0000
1000
0000
0001
0010
0000
0100
2000
0000
0000
3000
,
0000
0001
0101
0000
1000
1100
0000
0010
,
0110
0000
0001
0010
0000
1000
0010
0100
,
1000
0010
0100
0000
2002
0000
3003
0000
,
0110
0000
1000
0010
0000
0001
0010
0100
,
0001
1000
0001
0010
0000
0100
0110
0000
,
1001
0000
1000
0100
0010
1000
0010
0000
,
0001
1000
0001
0100
0000
2020
0000
3030
,
1001
0000
0001
0010
0001
0100
0010
1000
,
1001
0000
0110
0000
0001
0100
1000
0000
,
0101
0011
1001
0000
,
1100
0000
1010
0000
0001
0010
1000
0000
,
0010
0001
0100
0001
1000
0010
1000
0100
,
0000
0010
0001
0100
1000
0100
0001
0010
,
0110
2002
3003
0000
,
1010
0000
0000
0000
0011
0000
0000
0000
1000
0100
0010
0001
0100
0000
0001
0000
,
0000
1000
0010
1010
0000
0001
0010
0011
,
0000
1001
0000
0010
0220
0000
0330
1000
,
0001
0100
0001
0000
1000
0010
1000
0000
0001
0100
0001
0000
1000
0010
1000
0000
,
0001
0010
0100
0000
0110
0000
0010
0001
,
1000
0100
1000
0000
0010
0000
0100
0000
0001
0010
0001
0000
0100
0000
0010
0000
,
1000
0100
1100
0000
0001
0100
0101
0000
,
0001
0010
0100
1000
0100
0010
0001
0100
,
0000
0010
1000
0100
0010
0010
0001
1001
,
0000
1000
1020
0000
0001
0000
1030
0010
,
1000
0100
1000
0000
0001
0010
0001
0000
0100
0000
0110
0000
0000
0000
1001
0000
,
0000
0000
0001
0100
0001
0000
1000
0000
0010
0000
0100
0000
0001
0000
0011
0000
,
0000
1000
0100
0010
0001
0100
0010
1010
,
0000
0000
0001
0000
0010
0000
0100
0000
0010
0000
0001
0000
1000
0000
0001
0100
,
0001
1000
1010
0000
0100
0110
0000
1000
,
0001
0010
0001
0000
0100
0000
0010
0000
0000
0000
1000
0000
0001
0000
0010
0100
,
0000
0000
0100
1000
0000
0000
1000
0010
0000
0000
0010
0000
0100
0000
1000
0000
,
0001
0010
0100
0010
1000
0001
0000
0021
,
0000
1030
0010
0000
0001
0010
0100
1000
,
0001
0100
0001
0000
1000
0000
0010
0000
0000
0000
1000
0000
0100
0000
0010
0001
,
0000
0000
0001
0100
0000
0000
0100
0010
0000
0000
0010
0000
0001
0000
1000
0000
,
0100
0001
1000
0100
0010
0010
0001
0101
,
0000
0000
0000
0000
0000
0000
0000
0000
1100
0000
0000
0000
0000
0000
0000
0000
0000
0000
0000
0000
0000
0000
0000
0000
0010
0000
0000
0000
0000
0000
0000
0000
0220
0330
0000
0000
0000
0000
0000
0000
0000
0000
0000
0000
0000
0000
0000
0000
1000
0000
0000
0000
0000
0000
0000
0000
0100
0000
0000
0000
0000
0000
0000
0000
,
1000
0000
0001
0010
0100
1000
0000
0010
,
0100
0001
0010
0000
0110
0000
0100
1000
,
0001
0000
0100
0001
0100
0000
0010
0000
1000
0000
0001
0000
0000
0000
0010
0000
,
1000
0010
0001
1000
1001
0000
1000
0010
,
0100
0010
0011
0000
0010
1000
0001
0010
,
0100
0000
0010
0000
1010
0000
0000
0000
0010
0000
0001
1000
0001
0000
0100
0000
,
0010
0110
0000
1001
0000
0001
1000
0100
,
0010
0000
0000
0000
0000
0000
0000
0000
0110
0000
0000
0000
0000
0000
0000
0000
0000
0000
0000
0000
0000
0000
0000
0000
1000
0000
0000
0000
0001
0000
0000
0000
1000
0000
0000
0000
0000
0000
0000
0000
0020
0030
0000
0000
0000
0000
0000
0000
0000
0000
0000
0000
0000
0000
0000
0000
1000
0000
0000
0000
0000
0000
0000
0000
,
0100
1000
0100
0000
0010
0001
0010
0000
0100
1000
0100
0000
0010
0001
0010
0000
,
0100
1000
0010
0000
0110
0000
0100
0001
,
1000
0010
1000
0000
0001
0000
0010
0000
0001
0100
0001
0000
1000
0000
0100
0000
,
0010
0001
1100
0000
0010
1000
0101
0000
,
1000
0010
0100
1000
0100
0001
0010
0100
,
0000
0001
0100
1000
0100
0010
0001
0012
,
0000
0203
0001
0000
1300
0100
0010
1000
,
0100
0000
0001
0000
0100
0000
1000
0000
0001
0000
0100
0000
0001
1000
0001
1000
,
0010
0000
0100
0000
0001
0000
0100
0000
0000
0000
0010
0000
1000
0000
0001
0010
,
0001
0000
0010
0100
0010
0000
0100
1000
0100
0000
1000
0000
0010
0000
0001
0000
,
0010
0100
1000
0001
0010
1000
0000
0102
,
0000
0013
0100
0000
1000
0010
0100
0001
,
0010
0100
1000
0000
0001
0000
0100
0000
0000
0000
0001
0000
0010
0000
0001
0100
,
0001
0000
0100
0010
0100
0000
0010
1000
0010
0000
0100
0000
0001
0000
1000
0000
,
0100
0001
0100
1000
0010
0100
0001
0101
,
0000
1100
0000
0010
0220
0000
0000
0330
;

//--------------- dance-double - forcednature ----------------
#NOTES:
     dance-double:
     forcednature:
     Easy:
     7:
     0,0,0,0,0:
00000000
00000000
00000000
00000000
,
00000000
00000000
00000000
00000000
,
00000000
00000000
00000000
00000000
,
00000000
00000000
00000000
00000000
,
00000000
00000000
00000000
00000000
,
00022000
00000000
00033000
00000000
,
00010000
00001000
01000000
00010000
,
00000000
00100000
01000000
01000000
,
10000000
00100000
01000000
00010000
,
00000000
00100000
00001000
00001000
,
00010000
00000010
00001000
00000001
,
00000000
00000010
00000100
00000100
,
00001000
00000001
00000100
00000010
,
00020000
00000000
00000000
00002000
00000000
00000000
00033000
00000000
,
00010000
00000000
00001000
00001000
,
01000000
00010000
00100000
00000000
,
01000000
10000000
01000000
00000000
,
00100000
00001000
00010000
00000010
,
00001000
00001000
00000001
00000000
,
00000010
00000100
00001000
00000100
,
00010000
00001000
01000000
00010000
,
00100000
00000000
00100000
00000000
00000000
01100000
00000000
00000000
,
01000000
10000000
00010000
00000000
,
01000000
00001000
00010000
00000100
,
00001000
00000000
00000000
00001000
00000000
00000000
00001000
00000000
,
00000001
00000100
00000010
00001000
,
00000000
00000100
00010000
00001000
,
00000000
01000000
00010000
00100000
,
01000000
01000000
10000000
00010000
,
01000000
00001000
00010000
00000100
,
00000000
00000010
00000000
00000000
00000010
00000000
00000000
00000000
,
00000110
00000000
00000100
00001000
,
00000001
00000100
00000010
00000000
,
00000110
00000000
00000100
00001000
,
00010000
00001000
01000000
00000000
,
01100000
00000000
00100000
10000000
,
00010000
10000000
01000000
00000000
,
01100000
00000000
00100000
00001000
,
00010000
00000010
00000100
00000000
,
00000101
00000101
00000000
00000000
,
00001010
00001010
00000000
00000000
,
00001000
00000100
00010000
00001000
,
01000000
00010000
00100000
00000000
,
00110000
00110000
00000000
00000000
,
11000000
00000000
11000000
00000000
00000000
00000000
00000000
10010000
,
00000000
00000000
00000000
01100000
00000000
00000000
00000000
00010000
,
00000000
10000000
00000000
00010000
01000000
00000000
00000000
00000000
,
00001000
00001000
00010000
00010000
,
00000100
00001000
00002002
00003003
,
00000001
00000100
00001000
00010000
,
00002000
00023000
00032000
00023000
,
00030000
00100000
01000000
00010000
,
10000000
00000000
01000000
00000000
00100000
00000000
00000000
00010000
,
00000000
01000000
00001000
00010000
,
00000100
00000000
00001000
00000000
00000010
00000000
00000000
00000110
,
00000000
00000000
00000100
00000000
00000001
00000000
00000000
00001001
,
00000000
00000000
00001000
00000000
00000100
00000000
00000000
00011000
,
00000000
00000000
00001000
00000000
01000000
00000000
00000000
01100000
,
00000000
00000000
00100000
00000000
00000000
10000000
00000000
00000000
,
10010000
00000000
10000000
01000000
,
00010000
00001000
00010000
00000000
,
00000100
00001000
00000010
00001000
,
00000100
00000010
00000001
00000000
,
00001001
00000000
00000001
00000100
,
00000010
00001000
00000100
00000000
,
00010000
00000000
00001000
00000000
01000000
00000000
00000000
00010000
,
00000000
00010000
00000000
00000000
10010000
00000000
10000000
00000000
,
10000000
10000000
00000000
01000000
,
00010000
00001000
00010000
00000100
,
00000100
00000100
00000000
00001000
,
00000001
00000100
00000001
00000010
,
00000100
00000010
00000000
00001000
,
00010000
00001000
00000000
01000000
,
00010000
00100000
01000000
00100000
,
00010000
10000000
00100000
00000000
,
01000000
01000000
00010000
00010000
,
01000000
00010000
01010000
00000000
,
00001000
00010000
00000100
00001000
,
00000020
00000230
00000320
00000230
,
00000300
00000001
00000010
00000100
,
00001000
00000000
00000010
00000000
00010000
00000000
00000000
00011000
,
00000000
00001000
00100000
00010000
,
01000000
00100000
10000000
00000000
,
10010000
00000000
00010000
00100000
,
00001000
00010000
00000010
00000000
,
00000100
00000001
00001000
00000001
,
00000010
00001000
00010000
00000000
,
00011000
00000000
00001000
01000000
,
00010000
00100000
01000000
10000000
,
00100000
00000000
01000000
00000000
00001000
00000000
00000000
00010000
,
00000000
00010000
00000000
00000000
00022000
00000000
00000000
00033000
;

//--------------- dance-double - forcednature ----------------
#NOTES:
     dance-double:
     forcednature:
     Medium:
     10:
     0,0,0,0,0:
00000000
00000000
00000000
00000000
,
00000000
00000000
00000000
00000000
,
00000000
00000000
00000000
00000000
,
00000000
00000000
00000000
00000000
,
00000000
00000000
00000000
00000000
,
00022000
00033000
00010000
00001000
,
00011000
00000000
00001000
00000000
01000000
00000000
00010000
10000000
,
00000000
10000000
01000000
00000000
00100000
00000000
00100000
00000000
,
10010000
00000000
00010000
00000000
01000000
00000000
00001000
00010000
,
00000000
00010000
00000100
00000000
00001000
00000000
00000001
00000000
,
00001001
00000000
00001000
00000000
00000010
00000000
00000100
00000001
,
00000000
00000001
00001000
00000000
00000100
00000000
00010000
00000000
,
00011000
00001000
01000000
00010000
,
00100000
01000000
10000000
01000000
00000000
01000000
00000000
00000000
,
00100000
00010000
01000000
01000000
,
00001000
00010000
00000100
00001000
,
00000010
00000000
00000100
00000001
00000100
00000000
00001000
00000000
,
00010000
00000010
00001000
00000000
,
00000100
00000100
00010000
00001000
,
01000000
00000000
00010000
00000000
00100000
01000000
00100000
00000000
,
00010000
10000000
00100000
10000000
,
01000000
00000000
00010000
00000000
00001000
00010000
00000000
00000000
,
00000100
00000000
00001000
00000000
00000010
00000100
00000010
00000000
,
00001000
00001000
00000001
00000010
,
00000100
00000000
00001000
00000100
00000000
00010000
00000100
00000000
,
00001000
00000000
00000010
00000000
00010000
00001000
00010000
00000000
,
00100000
10000000
00010000
10000000
,
01000000
01000000
00010000
00001000
,
00000100
00000010
00000110
00001001
,
00000001
00000010
00000100
00001000
,
00000000
00000010
00010000
00000000
00000010
00010000
00000000
00000010
,
00001000
00000000
00000100
00010000
00000100
00000000
00001000
00000000
,
00000010
00010000
00022000
00033000
,
01000000
00000000
00010000
10000000
00010000
00000000
00100000
00000000
,
01000000
00000000
10000000
00020000
00000000
00030000
01000000
00000000
,
01100000
00100000
10000000
01000000
,
00010000
00000000
00001000
00010000
00000000
00020000
00000000
00030000
,
00011000
00001000
00000010
00000100
,
00000110
00000110
00000001
00001000
,
00010100
00010100
00100000
00000000
,
01001000
01001000
00000010
00000000
,
00011000
00010000
00001000
01000000
,
00010000
00000000
10000000
00000000
01000000
00100000
01000000
00000000
,
00110000
00110000
00000000
00000000
,
00001100
00000000
00001100
00000000
00001000
00000000
00000001
00000100
,
00000000
00000010
00000000
00000100
00000000
00001000
00000000
00010000
,
00000000
00011000
00000000
00001000
00010000
00000000
00000000
00000000
,
00000100
00010000
00001000
00010000
00000100
00010000
00001000
00010000
,
00000010
00001000
00002002
00003003
,
00001000
00000100
00001000
00000000
00000010
00010000
00000010
00000000
,
00000200
00002300
00023000
00230000
,
01300000
00000000
00010000
10000000
00010000
00000000
00100000
00000000
,
01000000
00000000
00010000
00001000
00010000
00000000
00000010
00001000
,
00000000
00001000
00000100
00000000
00000010
00000000
00000110
00000000
,
00000001
00000000
00001001
00000000
00000100
00000100
00000000
00000110
,
00000000
00000001
00001000
00000000
00000010
00000000
00001000
00000100
,
00000000
00000100
00010000
00000000
00001000
00000000
01000000
00010000
,
00000000
00010000
00100000
00000000
01000000
00000000
10000000
00010000
,
10000000
00000000
00100000
00000000
00010000
00001000
00000000
00000000
,
00011000
00000000
00000100
00000000
00001000
00000000
00000010
00000100
,
00000001
00000010
00000100
00010000
,
00001000
00100000
00010000
00000000
01000000
00000000
00100000
10000000
,
00000000
10000000
00010000
00000000
00100000
00000000
01000000
00000000
,
01100000
00000000
00100000
01000000
10000000
00000000
00010000
00000000
,
01000000
00000000
00001000
00000000
00010000
00000000
00000010
00001000
,
00000100
00000000
00000010
00000000
00000001
00000000
00001000
00000010
,
00000000
00000010
00000000
00000010
00000100
00000000
00001001
00000000
,
00000001
00000000
00000010
00000000
00000100
00010000
00000000
00010000
,
00000000
00001000
01000000
00000000
00010000
00000000
00100000
00000000
,
01000000
00000000
10000000
00000000
00100000
01000000
00000000
01000000
,
00010000
00100000
00001000
00010000
,
00000010
00001010
00010000
00001000
,
00100000
00000000
00110000
00000000
00010000
00000000
01000000
00001000
,
00000000
00010000
00000000
00011000
00000000
00000000
00000100
00010000
,
00000000
00001000
00000000
00011000
00000000
00000000
00000000
00000000
,
01000000
00001000
00010000
00001000
01000000
00001000
00010000
00001000
,
00100000
01000000
01100000
00000000
,
10000000
01000000
10000000
00000000
00010000
01000000
00010000
00000000
,
00200000
00320000
00032000
00003200
,
00000300
00000000
00000010
00000000
00000001
00001000
00000001
00000000
,
00000100
00000000
00001000
00000000
00010000
00000000
00100000
10000000
,
00000000
10000000
00010000
00000000
00100000
00000000
01000000
00000000
,
00010000
00001000
00010000
00000100
00001000
00000100
00000000
00000000
,
00000110
00000000
00000010
00000001
00000000
00000100
00000000
00001000
,
00000000
00010000
00000000
01000000
00000000
00100000
00010000
00000000
,
10000000
00000000
00100000
00000000
00010000
00000000
00001000
01000000
,
00000000
01000000
00010000
00000000
00100000
00000000
01000000
00000000
,
01100000
00000000
00100000
00001000
00000000
00010000
00000000
00000010
,
00000000
00000100
00000000
00001000
00000000
00010000
00000000
00000010
,
00001000
00000000
00000100
00000000
00000010
00000000
00000001
00000100
,
00000000
00001000
00000000
00010000
00200000
00000000
00000000
00300000
;

//--------------- dance-double - forcednature ----------------
#NOTES:
     dance-double:
     forcednature:
     Hard:
     13:
     0,0,0,0,0:
00000000
00000000
00000000
00000000
,
00000000
00000000
00000000
00000000
,
00000000
00000000
00000000
00000000
,
00000000
00000000
00000000
00000000
,
00000000
00000000
00000000
00000000
,
00022000
00000000
00033000
00000000
00001000
01000000
00010000
00000000
,
00100000
01000000
10000000
00000000
00100000
00010000
00001000
00010000
,
00000000
00000100
00001000
00000010
00000200
00000300
00000220
00000330
,
00000010
00001000
00000002
00000000
00000013
00000100
00010000
00002000
,
00000000
01003000
00010000
00100000
01000000
10000000
00200000
00300000
,
01000000
00001000
00010000
00000000
00000100
00001000
00000010
00010000
,
00000000
00001000
00000010
00000001
00000020
00000030
00000220
00000330
,
00000100
00010000
00002000
00000000
01003000
00010000
10000000
00100000
,
10000000
10000000
01000000
00020000
00000000
00002000
00000000
00033000
,
00000100
00000000
00001010
00000000
00010000
00010000
00010000
00000000
,
00001000
00000000
00000010
00000000
00000001
00000000
00000000
00000000
00001000
00000000
00000000
00001000
00000010
00000000
00000000
00000000
,
00000100
00001000
00010000
00100000
00010000
00001000
00000100
00000000
,
00010000
00000000
00000000
00000000
00010000
00000000
01000000
00000000
00100000
00000000
00000000
00100000
10000000
00000000
00000000
00000000
,
01000000
00000000
00010000
00000000
00001000
00000010
00000100
00000000
,
00001000
00001000
00001000
00000000
00000001
00000100
00001000
00000000
,
00010000
01001000
00011000
00101000
,
00000100
00010000
00001000
00000100
00000001
00000010
00000000
00000000
,
00001000
00000000
01000000
00010000
00100000
00001000
00010000
00000000
,
00100000
10000000
00100000
00010000
00100000
01000000
00010000
00100000
,
00002000
00000000
00013000
02000000
00000000
03010000
00002000
00000000
,
00003100
00000010
00001000
00000001
00000000
00000010
00000100
00000000
,
00001000
00000000
00000100
00010000
00000000
00010000
00000000
00000000
00001000
00000000
01000000
00000000
00010000
00000000
00000000
00000000
,
00100000
00000000
01000000
10000000
00000000
10000000
00000000
00000000
00100000
00000000
01000000
00000000
00100000
00000000
00010000
00000000
,
00001000
00000000
00011000
00000000
00010000
00010000
00000020
00000000
,
00001030
00000000
00000100
00000000
00000010
00000000
00000000
00000000
00000001
00001000
00000001
00000000
00000200
00000000
00000000
00000300
,
00000000
00001000
00001000
00000000
00010000
00010000
00000000
00100000
,
01100000
00000000
01000000
10000000
00000000
01000000
00001000
00010000
,
00000100
00000010
00000001
00000000
00000022
00000000
00000033
00000000
,
00000110
00000000
00000100
00000001
00000000
00000100
00010000
00001000
,
00000100
00001000
00010000
02000000
00000000
03100000
00100000
00000000
,
01100000
00000000
00100000
10000000
00000000
00100000
00001000
00000000
,
00010000
00000020
00000000
00000130
00000000
00002002
00000000
00003003
,
00000110
00000000
00001000
00000010
00000100
00001000
00010000
01000000
,
00100000
00000000
01100000
00000000
01000000
10000000
00100000
00000000
,
01001000
00010010
00001000
00000000
,
00010100
00000000
00101000
00000000
10000000
00100000
00010000
00000000
,
00011000
01010000
00101000
00010010
,
00001100
00000000
00011000
00000000
01000000
00010000
00100000
00000000
,
01100000
00022000
00033000
00000000
,
00000110
00000000
00011000
00000000
01000000
00010000
00100000
00002000
,
00000000
00013000
00100000
00002000
00000000
00003010
00001000
00000100
,
00000000
00000110
00000000
00000010
00002002
00000000
00003003
00000001
,
00000100
00001000
00010000
00001000
00100000
00001000
00010000
00001000
,
00000100
00000001
00000010
00000000
00000220
00000000
00000330
00000100
,
00010000
00001000
00010000
00100000
00010000
00001000
00010000
01000000
,
10000000
01000000
00000000
00000000
01000000
00100000
00000000
00000000
00100000
00001000
00000000
00000000
00001000
00010000
00000000
00000000
,
00100000
00010000
00001000
00010000
00000100
00001000
00000010
00020000
,
00000000
00031000
00000010
00000001
00000100
00000100
00001000
00022000
,
00000000
00033000
00000000
00000000
01001000
00000000
00000000
00000000
00101000
00000000
00000000
00000000
00001000
00000000
00010000
00000000
,
00100000
01000000
10000000
01000000
00010000
00100000
00000000
02200000
,
03300000
01000000
00010000
00001000
00010000
00000010
00000000
00000110
,
00000000
00000100
00001000
00010000
00001000
00100000
00000000
01100000
,
00000000
01000000
00010000
00001000
00000100
00000010
00001000
00001000
,
00000001
00000010
00000110
00000000
00000100
00010100
00000000
00001000
,
00010000
01000000
10000000
00100000
00000000
00010000
00100000
01000000
,
00000000
01001000
00000000
00010100
00000000
00100000
00010000
00001000
,
00000100
00010000
00000010
00001000
00000100
00000001
00000000
00000220
,
00000000
00000330
00000000
00000000
00000001
00000000
00000000
00000000
00000100
00000000
00001000
00000000
00010000
00000000
00001000
00000000
,
01000000
00000000
00010000
00100000
00000000
10000000
00100000
00010000
,
00000000
01010000
00000000
00101000
00000000
00010000
00000010
00000100
,
00001000
00010000
00001000
00100000
01000000
00100000
00001000
01001000
,
00000000
00000000
00000000
00000000
00000000
00000000
00000000
00000000
00010100
00000000
00000000
00000000
00000000
00000000
00000000
00000000
00000000
00000000
00000000
00000000
00000000
00000000
00000000
00000000
00001000
00000000
00000000
00000000
00000000
00000000
00000000
00000000
00000002
00000003
00000000
00000000
00000000
00000000
00000000
00000000
00000000
00000000
00000000
00000000
00000000
00000000
00000000
00000000
00000100
00000000
00000000
00000000
00000000
00000000
00000000
00000000
00001000
00000000
00000000
00000000
00000000
00000000
00000000
00000000
,
00000100
00000000
00000110
00000000
00000010
00010000
00000000
00010000
,
00001000
00100000
00010000
00000000
10010000
00000000
10000000
00100000
,
01000000
00000000
00000000
01000000
00010000
00000000
00100000
00000000
01000000
00000000
00010000
00000000
00000000
00000000
00001000
00000000
,
00000100
00000000
00000010
00000000
00001000
00000000
00000000
00001000
00000002
00000000
00000003
00000000
00000010
00000000
00001000
00000000
,
00010000
00000000
00011000
00000000
00001000
00010000
00100000
00010000
,
00001000
00000000
00011000
00000000
00010000
00001000
00000100
00001000
,
00010000
01000000
00000000
01100000
00000000
00100000
01000000
00010000
,
00001000
00000100
00000000
00000110
00000000
00000000
00000000
00100000
,
00001000
00010000
00000010
00010000
00001000
00010000
01000000
00010000
,
00001000
01000000
00100000
00000000
02200000
00000000
03300000
10000000
,
00010000
00100000
01000000
00010000
00001000
00000010
00000100
00001000
,
00000001
00000100
00000000
00000000
00000100
00001000
00000000
00000000
00001000
00010000
00000000
00000000
00010000
00100000
00000000
00000000
,
01000000
00010000
10000000
00010000
00100000
01000000
00010000
00002000
,
00000000
00003100
00001000
00010000
00000100
00000100
00000010
00000002
,
00000000
00000203
00000010
00000000
00001300
00000100
00000001
00002000
,
00000000
00003100
00010000
00001000
01000000
00010000
00100000
00100000
,
01000000
00000000
00000000
10000000
01000000
00000000
00010000
00000000
00000000
00000000
00001000
00000000
00000010
00000000
00000100
00000000
,
00000000
00000011
00000000
00000101
00000000
00000100
00001000
00010000
,
00000100
00001000
00000010
00010000
00001000
00000100
00000000
00022000
,
00000000
00033000
00000000
00000000
01000000
00000000
00000000
00000000
00010000
00000000
00100000
00000000
01000000
00000000
10000000
00000000
,
00100000
00000000
00000000
00100000
01000000
00000000
00010000
00000000
00000000
00000000
00100000
00000000
00001000
00000000
00010000
00000000
,
00000000
00001010
00000000
00010100
00000000
00000010
00010000
00001000
,
00000010
00000100
00001000
00000001
00000100
00001000
00010000
01000000
,
00000000
01100000
00000000
00100000
20020000
00000000
00000000
30030000
;

//--------------- dance-double - forcednature ----------------
#NOTES:
     dance-double:
     forcednature:
     Challenge:
     15:
     0,0,0,0,0:
00000000
00000000
00000000
00000000
,
00000000
00000000
00000000
00000000
,
00000000
00000000
00000000
00000000
,
00000000
00000000
00000000
00000000
,
00000000
00000000
00000000
00000000
,
00001000
00000000
00010000
00001000
00010000
00001000
00010000
00000000
00000100
00000000
00001000
00000000
00000010
00000000
00000000
00000000
,
00000100
00000001
00000100
00000000
00001000
00000000
00000000
00000000
00010000
00000000
00100000
00000000
01000000
00000000
00010000
10000000
,
00000000
00000000
10000000
01000000
00000000
00000000
01000000
00000000
00100000
00000000
00001000
00000000
00010000
00000000
00000000
00000000
,
00000010
00001000
00000010
00000000
00000200
00000000
00000000
00000000
00000301
00000000
00000010
00000000
00001000
00000000
00020000
00000000
,
00000000
00130000
00010000
00001000
00100000
01000000
01100000
00000000
,
10000000
00010000
10000000
00000000
00100000
00000000
00000000
00000000
00010000
00000000
00001000
00000000
00010000
00000000
00000100
00001000
,
00000000
00000000
00001000
00000010
00000000
00000000
00000010
00000000
00000100
00000000
00000001
00000000
00001001
00000000
00000000
00000000
,
00001000
00000100
00001000
00000000
00000020
00000000
00000000
00000000
00010030
00000000
00001000
00000000
00100000
00000000
00020000
00000000
,
10000000
00000000
01030000
00000000
00010000
00000000
00100000
00000000
00000000
00000000
01000000
10000000
01000000
00000000
01000000
00000000
,
00010000
00001000
00100000
00000000
00010000
00010000
00010000
00000000
,
00001000
00000100
00000000
00000010
00000000
00000001
00000000
00000000
00000100
00000000
00001000
00000000
00000100
00000000
00000000
00000000
,
00000010
00000000
00001000
00000000
00010000
00000000
01000000
00000000
00010000
10000000
00000000
00000000
00200000
00000000
00000000
00000000
,
10300000
00000000
01000000
00000000
00010000
00000000
00001000
00000000
01000000
00010000
00000000
00000000
00200000
00000000
00000000
00000000
,
01300000
00010000
00001000
00010000
00000010
00001000
00000100
00000000
,
00000010
00000010
00000001
00000100
00001000
00010000
00100000
00000000
,
01000000
00001000
00010000
00000000
00010100
00000000
00010010
00000000
,
00000100
00001000
00000010
00000100
00001000
00011000
00000000
00000000
,
00010000
00100000
10000000
10000000
01000000
00010000
00001000
00000000
,
01000000
00010000
00100000
01000000
00010000
00010000
00001000
00000010
,
00000100
00001000
00000010
00000100
00001000
00010000
00001000
00000010
,
00000001
00000000
00001000
00000000
00000001
00000000
00000100
00000000
00000000
00000100
00000000
00000000
00001000
00000000
00000000
00000000
,
00010000
00000000
00100000
01000000
00000000
00100000
00000000
00000000
10000000
00000000
01000000
00000000
01000000
00000000
00010000
00000000
,
00001000
00000000
00010000
00000100
00000000
00001000
00000000
00001000
00000010
00000000
00000010
00000000
00000100
00000000
00000000
00000000
,
00000110
00000000
00001001
00000000
00000001
00000001
00000100
00000000
,
00000010
00001000
00000000
00000010
00001000
00000000
00000100
00000000
00010000
00001000
00000000
00100000
00020000
00000000
00000000
00030000
,
00000000
01000000
01001000
00000000
00000100
00010100
00000000
00001000
,
00011000
00000000
00010000
00100000
00000000
10000000
01000000
00010000
,
00001000
00000010
00000100
00000000
00000220
00000000
00000330
00000000
,
00011000
00000000
00001000
00000010
00000000
00000001
00000100
00001000
,
00010000
00100000
10000000
00010000
00000000
00100000
01100000
00000000
,
10010000
00000000
10000000
01000000
00010000
00001000
00100000
00000000
,
00010000
01000000
00001000
00010000
00000000
00002020
00000000
00003030
,
00000101
00000000
00000001
00000010
00001000
00010000
00000100
00001000
,
00000010
00000100
00001000
00000000
00010000
01000000
00100000
00000000
,
00101000
00010100
00001001
00000000
,
00010010
00000000
01001000
00000000
00010000
00100000
01000000
00000000
,
00010000
00001000
00010000
00000010
00000100
00001000
00000100
00000001
,
00000000
00000010
00001000
00010000
01000000
00010000
00001000
00010000
,
00010010
02002000
03003000
00000000
,
00101000
00000000
00000000
00000000
00010100
00000000
00000000
00000000
00000100
00001000
00000001
00001000
00000010
00000000
00000100
00000000
,
00000000
00001000
00010000
00011000
00000000
01000000
00010000
01010000
,
00000000
10100000
00000000
00010000
20020000
00000000
30030000
10000000
,
01000000
00010000
00000100
00010000
01000000
00010000
00000100
00010000
,
00000010
00001000
00000001
00000000
00000110
00000000
00001000
00000001
,
00000100
00001000
01000000
00010000
00100000
00010000
00000010
00001000
,
00010000
00000100
00000010
00000000
00001000
01000000
00100000
00000000
,
00010000
00001000
00100000
01000000
10000000
00010000
01000000
00100000
,
00000000
00010000
00001000
00000010
00000100
00000100
00001000
00001001
,
00000000
00000001
00000200
00000000
00010000
00000000
00000301
00000100
,
00000010
00001000
00100000
00010000
00001000
00000010
00000000
00000110
,
00000000
00000000
00000100
00001000
00000100
00000000
00010000
00000000
00001000
00000000
01000000
00000000
00010000
00000000
00110000
00000000
,
00000000
00010000
01000000
00001000
00010000
00000100
00001000
00001010
,
00000000
00000001
00000100
00001000
00010000
01000000
10000000
00100000
,
00100000
01000000
01001000
00000000
00010000
00110000
00000000
10000000
,
01000000
00000000
00010000
00000000
00001000
00000000
00100000
00000000
00000000
00000000
00010000
00000000
00001000
00000000
00000100
00000010
,
00000000
00000000
00000010
00000001
00000000
00000000
00000001
00001000
00000000
00000000
00001000
00000000
00000010
00000000
00000100
00000000
,
00001000
00010000
01000000
00100000
00010000
00001000
00000000
00000200
,
00000000
00000301
00000100
00000000
00010000
00000010
00001000
00000001
,
00000100
00000000
00001000
00000000
00010000
00000000
00000010
00000000
00000000
00000000
00001000
00000000
00010000
00000000
01000000
00100000
,
00000000
00000000
00100000
10000000
00000000
00000000
10000000
00010000
00000000
00000000
00010000
00000000
00100000
00000000
01000000
00000000
,
00010000
00001000
00000100
00000010
00001000
00010000
01000000
01100000
,
00000000
00000000
00000000
00000000
00000000
00000000
00000000
00000000
00011000
00000000
00000000
00000000
00000000
00000000
00000000
00000000
00000000
00000000
00000000
00000000
00000000
00000000
00000000
00000000
00000100
00000000
00000000
00000000
00000000
00000000
00000000
00000000
00000220
00000330
00000000
00000000
00000000
00000000
00000000
00000000
00000000
00000000
00000000
00000000
00000000
00000000
00000000
00000000
00000001
00000000
00000000
00000000
00000000
00000000
00000000
00000000
00000100
00000000
00000000
00000000
00000000
00000000
00000000
00000000
,
00000001
00000000
00000010
00001000
00010000
01000000
00000000
00100000
,
00001000
00010000
00100000
00000000
01100000
00000000
01000000
00010000
,
10000000
00000000
01000000
00100000
01000000
00000000
10000000
00000000
00010000
00000000
01000000
00000000
00000000
00000000
00001000
00000000
,
00010000
00000100
00001000
00000010
00000110
00000000
00000001
00000100
,
00001000
00010000
00110000
00000000
10000000
00010000
10000000
01000000
,
00010000
00000000
00001000
00000000
00001010
00000000
00000000
00000000
00000001
00000000
00001000
00000100
00001000
00000000
00000010
00000000
,
00010000
00010100
00000000
01001000
00000000
01000000
00010000
10000000
,
00010000
00000000
00000000
00000000
00000000
00000000
00000000
00000000
00110000
00000000
00000000
00000000
00000000
00000000
00000000
00000000
00000000
00000000
00000000
00000000
00000000
00000000
00000000
00000000
10000000
00000000
00000000
00000000
01000000
00000000
00000000
00000000
10000000
00000000
00000000
00000000
00000000
00000000
00000000
00000000
00200000
00300000
00000000
00000000
00000000
00000000
00000000
00000000
00000000
00000000
00000000
00000000
00000000
00000000
00000000
00000000
10000000
00000000
00000000
00000000
00000000
00000000
00000000
00000000
,
01000000
00010000
00000010
00010000
01000000
00010000
00000010
00010000
,
00001000
00000100
00000001
00000000
00000110
00000000
00001000
00000100
,
00010000
00000010
00000001
00000010
00010000
00000100
00000001
00000100
,
00010000
00001000
00000010
00000000
00001000
00010000
00100000
00000000
,
01000000
00001000
00010000
01000000
10000000
00010000
10000000
00100000
,
00000000
00010000
00001000
00000010
00000100
00000100
00001000
00001001
,
00000000
00000002
00000100
00000000
00000013
00000001
00000100
00001000
,
00010000
00000000
01000000
00000000
00100000
00000000
00001000
00000000
00010000
00000000
00100000
00000000
01000000
00010000
10000000
00000000
,
00100000
00000000
00010000
00000000
00001000
00000000
01000000
00000000
00000000
00000000
00010000
00000000
00001000
00000000
00000010
00000100
,
00000000
00000000
00000100
00000001
00000000
00000000
00000001
00001000
00000000
00000000
00001000
00000000
00000100
00000000
00000010
00000000
,
00001000
00010000
00100000
01000000
00010000
00001000
00000000
00000020
,
00000000
00000031
00000010
00000000
00010000
00000100
00001000
00000001
,
00000010
00000000
00001000
00000000
00010000
00000000
00000100
00000000
00000000
00000000
00001000
00000000
00010000
00000000
00100000
01000000
,
00000000
00000000
01000000
10000000
00000000
00000000
10000000
00010000
00000000
00000000
00010000
00000000
01000000
00000000
00100000
00000000
,
00010000
00001000
00000010
00000100
00001000
00010000
00100000
01100000
,
00000000
00011000
00000000
00000010
00000220
00000000
00000000
00000330
;
