#VERSION:0.83;
#TITLE:New York Back Raise;
#SUBTITLE:;
#ARTIST:saaa + kei_iwata + stuv + わかとり;
#TITLETRANSLIT:;
#SUBTITLETRANSLIT:;
#ARTISTTRANSLIT:;
#GENRE:TEXAS HOLD'EM;
#ORIGIN:;
#CREDIT:;
#BANNER:New York Back Raise.png;
#BACKGROUND:New York Back Raise-bg.png;
#PREVIEWVID:;
#JACKET:New York Back Raise-jacket.png;
#CDIMAGE:;
#DISCIMAGE:;
#LYRICSPATH:;
#CDTITLE:;
#MUSIC:New York Back Raise.ogg;
#OFFSET:-0.001000;
#SAMPLESTART:118.232170;
#SAMPLELENGTH:15.000000;
#SELECTABLE:YES;
#DISPLAYBPM:160.000000;
#BPMS:0.000=160.000,
232.000=193.000,
236.000=160.000;
#STOPS:;
#DELAYS:;
#WARPS:;
#TIMESIGNATURES:0.000=4=4;
#TICKCOUNTS:0.000=4;
#COMBOS:0.000=1;
#SPEEDS:0.000=1.000=0.000=0;
#SCROLLS:0.000=1.000;
#FAKES:;
#LABELS:0.000=Song Start;
#BGCHANGES:-4.000=New York Back Raise.avi=1.000=0=0=1===CrossFade_Faster==,
99999=-nosongbg-=1.000=0=0=0 // don't automatically add -songbackground-
;
#KEYSOUNDS:;
#ATTACKS:
;

//---------------dance-single - ----------------
#NOTEDATA:;
#CHARTNAME:;
#STEPSTYPE:dance-single;
#DESCRIPTION:;
#CHARTSTYLE:;
#DIFFICULTY:Hard;
#METER:16;
#RADARVALUES:0.772471,0.890891,0.451169,0.518508,1.040383,803.000000,736.000000,67.000000,77.000000,19.000000,0.000000,0.000000,0.000000,0.000000,0.772471,0.890891,0.451169,0.518508,1.040383,803.000000,736.000000,67.000000,77.000000,19.000000,0.000000,0.000000,0.000000,0.000000;
#CREDIT:BlindedVanguard573;
#DISPLAYBPM:160.000000;
#NOTES:
0000
0000
0000
0000
,
0000
0000
0000
0000
,
0000
0000
0000
0000
,
0000
0000
0000
0000
,
0000
0000
0000
0000
,
0001
0010
0002
0000
0000
1000
0000
0000
0100
0000
0000
0013
0000
0000
0001
0000
,
1000
0010
2000
0000
0000
0001
0000
0000
0100
0000
0000
3010
0000
0000
1000
0000
,
0001
0100
0002
0000
0000
1000
0000
0000
0010
0000
0000
0103
0000
0000
0001
0000
,
1000
0100
2000
0000
0000
0001
0000
0000
0010
0000
0000
3100
0000
0000
1000
0000
,
1100
0000
0000
0000
0011
0000
0000
0000
1100
0000
0000
1000
0100
0000
M100
0000
,
0001
0000
0010
0000
0100
1000
0000
0000
1010
0000
0000
1000
0001
0000
0100
0000
,
0101
0000
0000
0000
1010
0000
0000
0000
0101
0000
0000
0001
0100
0000
010M
0000
,
1000
0000
0010
0000
0100
0001
0000
0000
0011
0000
0000
0001
1000
0000
0100
0000
,
1000
0000
0010
0000
0100
0000
0001
0100
0010
0000
1000
0000
0001
0000
0010
0100
,
1000
0000
0001
0000
0100
0000
0010
1000
0001
0000
0010
0000
0100
1000
0100
1000
,
0001
0100
0001
0000
1000
0010
1000
0000
0001
0010
0100
1000
0001
0010
0100
1000
,
0001
0000
0000
1001
,
1002
0103
0020
0130
2000
3100
0020
0130
,
0002
0013
0200
0310
2000
3010
0200
0310
,
0002
0103
2000
3001
0020
1030
0002
0103
,
0002
0013
2000
3002
0103
1000
1001
1001
,
1000
0000
0010
1000
0010
0000
0100
0000
0001
0000
0100
0001
0100
0000
0001
0000
,
0010
0000
0100
1000
0100
0000
1000
0000
0010
0000
0100
0001
0100
0000
0001
0000
,
1000
0000
0100
0010
0001
0000
1000
0000
0010
0000
0100
0001
1000
0000
0001
0000
,
0000
0000
0000
0000
0000
0000
0000
0000
0000
0000
0000
0000
1000
0010
0100
0001
,
1000
0000
0100
0000
0010
0M00
0020
0000
1030
0000
0100
1000
0001
0000
0020
0000
,
0031
0000
0100
0000
0010
0M00
0020
0000
0031
0000
0100
0000
0010
1000
0001
0000
,
1000
0000
0010
0000
0100
00M0
0200
0000
1300
0000
0010
1000
0001
0000
0200
0000
,
0302
0003
0000
0000
0020
0030
0000
0000
0200
0300
0000
0000
2000
3000
0000
0000
0002
0003
0000
0000
0101
0000
0000
0000
0110
0000
0000
0000
1010
0000
0000
0000
,
1000
0000
0100
0000
0001
0M00
0002
0000
1003
0000
0010
0100
0001
0000
2000
0000
,
3001
0000
0010
0000
1000
00M0
2000
0000
3001
0100
0010
1000
0002
0000
1003
0000
,
0001
0000
0100
0001
2000
0000
3100
0000
1000
0001
0010
0100
2000
0000
3001
0000
,
0200
0000
0000
0300
,
0002
0000
0010
0000
0000
1003
0000
0000
0001
0000
0000
0101
0000
0000
1010
0000
,
2000
0000
0010
0000
0000
3001
0000
0000
1000
0000
0000
1010
0000
0000
0101
0000
,
0001
0000
0010
0000
0000
1000
0000
0000
0010
0000
0100
1000
0000
0010
1000
0000
,
0001
0000
0100
0000
0000
1000
0000
0000
0100
0000
0001
0010
0000
0001
1000
0000
,
0001
0000
0000
0000
0010
0000
0000
0000
0101
0000
0000
0001
1000
0001
1000
0000
,
0001
0000
0000
0010
0000
0000
0100
0000
1100
0000
0000
1000
0001
1000
0001
0000
,
1000
0000
0000
0000
0010
0000
0000
0000
1100
0000
0000
0001
1000
0001
1000
0000
,
0010
0000
0000
0010
0100
0000
0000
0000
0001
0000
1000
0100
1000
0100
1000
0100
,
2000
0000
0000
3000
,
0002
0000
0000
0003
,
0200
0000
0000
0300
,
0020
0000
0000
0030
,
1000
0000
0001
0010
0100
0010
0011
0000
1001
0000
0101
0000
,
1001
0000
1000
0010
0100
0010
1010
0000
1001
0000
1100
0000
,
1001
0000
0001
0100
0010
0100
0001
0100
0010
0100
0002
0000
,
1003
0100
0010
0100
1000
0100
0010
0100
1000
0001
1000
0010
,
0100
0010
0001
0010
0100
0010
1000
0100
0010
0100
0001
0100
,
0010
0001
0100
1000
0100
0010
0100
0001
1000
0100
0001
0100
,
0010
0100
1000
0001
1000
0100
0010
0100
0001
0100
0010
0100
,
1000
0010
0100
0010
0001
0010
0100
0001
0010
1000
0010
0100
,
0010
0001
1000
0010
0001
0010
0100
0010
1000
0001
1000
0010
,
2000
0000
3001
0000
1000
0010
M000
0010
0002
0000
1003
0010
,
0100
0001
0000
0100
0020
0000
1030
0002
0000
0000
1003
0100
,
0001
1000
0010
0001
1000
0100
2000
0000
3001
0000
1000
0100
,
M000
0100
0002
0000
1003
0100
0010
0001
0000
0010
0100
1001
,
0000
0000
0000
0000
,
1000
0000
0000
0000
0000
0000
0000
0000
0000
0000
0000
0000
0000
0000
0000
0000
0100
0000
0000
0000
0000
0000
0000
0000
0000
0000
0000
0000
0000
0000
0000
0000
0000
0000
0000
0000
0000
0000
0000
0000
0000
0000
0000
0000
0000
0000
0000
0000
2200
0000
0000
0000
0000
0000
0000
0000
0000
0000
0000
0000
0000
0000
0000
0000
0000
0000
0000
0000
0000
0000
0000
0000
3300
0000
0000
0000
0000
0000
0000
0000
0000
0000
0000
0000
0000
0000
0000
0000
0000
0000
0001
0000
0000
0000
0000
0000
0000
0000
0000
0000
0000
0000
0000
0000
0000
0000
0100
0000
0000
0000
0000
0000
0000
0000
0000
0000
0000
0000
0000
0000
0000
0000
0000
0000
0000
0000
0000
0000
0000
0000
0000
0000
0000
0000
0000
0000
0000
0000
0101
0000
0000
0000
0000
0000
0000
0000
0000
0000
0000
0000
0000
0000
0000
0000
0000
0000
0000
0000
0000
0000
0000
0000
0000
0000
0000
0000
0000
0000
0000
0000
0000
0000
0000
0000
0000
0000
0000
0000
0000
0000
1001
0000
0000
0000
0000
0000
0000
0000
0000
0000
0000
0000
,
0000
0000
0120
0000
0000
1030
0010
0000
0101
0000
2001
0000
,
3000
0000
0000
0000
0001
0000
0000
0000
0000
0000
0000
0000
0000
0000
0000
0000
0000
0000
0000
0000
0000
0000
0000
0000
0100
0000
0000
0000
0000
0000
0000
0000
0000
0000
0000
0000
0000
0000
0000
0000
0000
0000
0000
0000
1000
0000
0000
0000
0000
0000
0000
0000
0000
0000
0000
0000
0000
0000
0000
0000
0000
0000
0000
0000
0100
0000
0000
0000
0000
0000
0000
0000
0000
0000
0000
0000
0000
0000
0000
0000
0000
0000
0000
0000
0000
0000
0000
0000
0000
0000
0000
0000
0000
0000
0000
0000
0001
0000
0000
0000
0000
0000
0000
0000
0000
0000
0000
0000
0000
0000
0000
0000
0010
0000
0000
0000
0000
0000
0000
0000
0000
0000
0000
0000
0000
0000
0000
0000
0000
0000
0000
0000
0000
0000
0000
0000
0000
0000
0000
0000
0000
0000
0000
0000
0022
0000
0000
0000
0000
0000
0000
0000
0000
0000
0000
0000
0000
0000
0000
0000
0000
0000
0000
0000
0000
0000
0000
0000
0033
0000
0000
0000
0000
0000
0000
0000
0000
0000
0000
0000
0000
0000
0000
0000
0000
0000
1000
0000
0000
0000
0000
0000
,
0000
0000
0000
0000
0000
0000
0000
0000
0000
0000
0010
0000
0000
0000
0000
0000
0000
0000
0000
0000
0000
0000
0000
0000
0000
0000
0000
0000
0000
0000
0000
0000
0000
0000
0000
0000
0000
0000
0000
0000
0000
0000
1010
0000
0000
0000
0000
0000
0000
0000
0000
0000
0000
0000
0000
0000
0000
0000
0000
0000
0000
0000
0000
0000
0000
0000
0000
0000
0000
0000
0000
0000
0000
0000
0000
0000
0000
0000
0000
0000
0000
0000
0000
0000
1001
0000
0000
0000
0000
0000
0000
0000
0000
0000
0000
0000
0000
0000
0000
0000
0000
0000
0000
0000
0000
0000
0000
0000
0000
0000
0000
0000
0000
0000
0000
0000
0000
0000
0000
0000
0000
0000
0000
0000
0000
0000
0000
0000
0210
0000
0000
0000
0000
0000
0000
0000
0000
0000
0000
0000
0000
0000
0000
0000
0000
0000
0000
0000
0000
0000
0000
0000
0000
0000
0000
0000
0000
0000
0000
0000
0000
0000
0000
0000
0000
0000
0000
0000
0000
0000
0000
0000
0000
0000
0310
0000
0000
0000
0000
0000
0000
0000
0000
0000
0000
0000
0000
0000
1000
0000
0000
0000
,
0000
0000
0000
0000
0000
0000
0000
0000
0000
0000
0000
0000
0100
0000
0000
0000
0000
0000
0000
0000
0000
0000
0000
0000
0000
0000
0000
0000
0010
0000
0000
0000
0000
0000
0000
0000
0000
0000
0000
0000
0000
0000
0000
0000
0001
0000
0000
0000
0000
0000
0000
0000
0000
0000
0000
0000
0000
0000
0000
0000
1000
0000
0000
0000
0000
0000
0000
0000
0000
0000
0000
0000
0000
0000
0000
0000
1010
0000
0000
0000
0000
0000
0000
0000
0000
0000
0000
0000
0000
0000
0000
0000
0000
0000
0000
0000
0000
0000
0000
0000
0000
0000
0101
0000
0000
0000
0000
0000
0000
0000
0000
0000
0000
0000
0000
0000
0000
0000
0000
0000
0000
0000
0000
0000
0000
0000
0000
0000
0000
0000
0000
0000
1000
0000
0000
0000
0000
0000
0000
0000
0000
0000
0000
0000
0000
0000
0000
0001
0000
0000
0000
0000
0000
0000
0000
0000
0000
0000
0000
0000
0000
0000
0000
0000
1001
0000
0000
0000
0000
0000
0000
0000
0000
0000
0000
0000
0000
0000
0000
0000
0000
0000
0000
0000
0000
0000
0000
0000
0000
0000
0000
0000
,
1000
0000
0000
0000
0000
0000
0000
0000
0000
0000
0000
0000
0000
0000
0000
0000
0100
0000
0000
0000
0000
0000
0000
0000
0000
0000
0000
0000
0000
0000
0000
0000
0000
0000
0000
0000
0000
0000
0000
0000
0000
0000
0000
0000
0000
0000
0000
0000
0021
0000
0000
0000
0000
0000
0000
0000
0000
0000
0000
0000
0000
0000
0000
0000
0000
0000
0000
0000
0000
0000
0000
0000
0000
0000
0000
0000
0000
0000
0000
0000
0000
0000
0000
0000
0000
0000
0000
0000
0000
0000
0031
0000
0000
0000
0000
0000
0000
0000
0000
0000
0000
0000
0000
0000
0000
0000
0100
0000
0000
0000
0000
0000
0000
0000
0000
0000
0000
0000
0000
0000
0000
0000
0000
0000
0000
0000
0000
0000
0000
0000
0000
0000
0000
0000
0000
0000
0000
0000
1010
0000
0000
0000
0000
0000
0000
0000
0000
0000
0000
0000
0000
0000
0000
0000
0000
0000
0000
0000
0000
0000
0000
0000
0000
0000
0000
0000
0000
0000
0000
0000
0000
0000
0000
0000
0000
0000
0000
0000
0000
0000
1001
0000
0000
0000
0000
0000
0000
0000
0000
0000
0000
0000
,
0000
0000
0120
0000
0000
1030
0010
0000
0101
0000
2001
0000
,
3000
0000
0000
0000
0001
0000
0000
0000
0000
0000
0000
0000
0000
0000
0000
0000
0000
0000
0000
0000
0000
0000
0000
0000
0100
0000
0000
0000
0000
0000
0000
0000
0000
0000
0000
0000
0000
0000
0000
0000
0000
0000
0000
0000
1000
0000
0000
0000
0000
0000
0000
0000
0000
0000
0000
0000
0000
0000
0000
0000
0000
0000
0000
0000
0100
0000
0000
0000
0000
0000
0000
0000
0000
0000
0000
0000
0000
0000
0000
0000
0000
0000
0000
0000
0000
0000
0000
0000
0000
0000
0000
0000
0000
0000
0000
0000
0001
0000
0000
0000
0000
0000
0000
0000
0000
0000
0000
0000
0000
0000
0000
0000
0010
0000
0000
0000
0000
0000
0000
0000
0000
0000
0000
0000
0000
0000
0000
0000
0000
0000
0000
0000
0000
0000
0000
0000
0000
0000
0000
0000
0000
0000
0000
0000
1200
0000
0000
0000
0000
0000
0000
0000
0000
0000
0000
0000
0000
0000
0000
0000
0000
0000
0000
0000
0000
0000
0000
0000
0000
0000
0000
0000
0000
0000
0000
0000
0000
0000
0000
0000
0000
0000
0000
0000
0000
0000
1300
0000
0000
0000
0000
0000
,
0000
0000
0000
0000
0000
0000
0000
0000
0000
0000
0010
0000
0000
0000
0000
0000
0000
0000
0000
0000
0000
0000
0000
0000
0000
0000
0000
0000
0000
0000
0000
0000
0000
0000
0000
0000
0000
0000
0000
0000
0000
0000
0101
0000
0000
0000
0000
0000
0000
0000
0000
0000
0000
0000
0000
0000
0000
0000
0000
0000
0000
0000
0000
0000
0000
0000
0000
0000
0000
0000
0000
0000
0000
0000
0000
0000
0000
0000
0000
0000
0000
0000
0000
0000
1001
0000
0000
0000
0000
0000
0000
0000
0000
0000
0000
0000
0000
0000
0000
0000
0000
0000
0000
0000
0000
0000
0000
0000
0000
0000
0000
0000
0000
0000
0000
0000
0000
0000
0000
0000
0000
0000
0000
0000
0000
0000
0000
0000
0220
0000
0000
0000
0000
0000
0000
0000
0000
0000
0000
0000
0000
0000
0000
0000
0000
0000
0000
0000
0000
0000
0000
0000
0000
0000
0000
0000
0000
0000
0000
0000
0330
0000
0000
0000
0000
0000
0000
0000
0000
0000
0000
0000
0000
0000
0000
0000
1010
0000
0000
0000
0000
0000
0000
0000
0000
0000
0000
0000
0000
0000
0000
0000
,
0000
0000
0000
0000
0000
0000
0000
0000
0000
0000
0000
0000
0000
0000
0000
0000
1000
0000
0000
0000
0000
0000
0000
0000
0000
0000
0000
0000
0000
0000
0000
0000
1100
0000
0000
0000
0000
0000
0000
0000
0000
0000
0000
0000
0000
0000
0000
0000
0000
0000
0000
0000
0000
0000
0000
0000
0000
0000
0000
0000
0001
0000
0000
0000
0000
0000
0000
0000
0000
0000
0000
0000
0000
0000
0000
0000
0000
0000
0101
0000
0000
0000
0000
0000
0000
0000
0000
0000
0000
0000
0000
0000
0000
0000
0000
0000
0000
0000
0000
0000
0000
0000
0000
0000
0000
0000
0000
0000
1000
0000
0000
0000
0000
0000
0000
0000
0000
0000
0000
0000
0000
0000
0000
0000
1010
0000
0000
0000
0000
0000
0000
0000
0000
0000
0000
0000
0000
0000
0000
0000
0000
0000
0000
0000
0000
0000
0000
0000
0000
0000
0001
0000
0000
0000
0000
0000
0000
0000
0000
0000
0000
0000
0000
0000
0000
0000
0011
0000
0000
0000
0000
0000
0000
0000
0000
0000
0000
0000
0000
0000
0000
0000
0000
0000
0000
0000
0000
0000
0000
0000
0000
0000
,
0000
2002
0000
0000
0000
0000
0000
0000
0000
0000
0000
0000
0000
0000
0000
0000
0000
0000
0000
0000
0000
0000
0000
0000
0000
0000
0000
0000
0000
0000
0000
0000
,
0000
0000
0000
0000
0000
0000
0000
0000
3003
0000
0000
0000
0000
1000
0010
0100
,
0002
0000
0000
0000
1003
0000
0001
0000
1000
0000
0010
0100
0000
0010
1000
0000
,
0001
0000
0010
0100
0000
0010
0001
0000
1000
0001
0000
1000
0000
0000
0001
0000
,
0200
0000
0000
0000
0310
0000
1000
0000
0001
0010
0000
0100
0000
0010
1000
0000
,
0010
0100
0000
1000
0000
0001
0100
0010
1000
0010
0100
0001
0000
1000
0100
0010
,
0002
0000
0000
0000
1003
0000
0001
0000
1000
0000
0010
0100
0000
0001
0010
0000
,
0001
0000
0100
0010
0000
1000
0100
0010
0001
0000
1000
0010
0000
0100
0001
0000
,
1000
0000
0100
0010
0000
0100
0001
0000
0100
1000
0000
0001
0000
1000
0010
0100
,
0001
0010
0100
1000
0001
0010
0100
1000
0001
0010
0100
1000
0010
0000
0000
0000
,
0102
0000
0000
0000
1003
0000
0000
0000
0001
0000
0100
0010
0000
0M10
0001
0000
,
1000
0000
0010
0100
0000
01M0
1000
0000
0002
0000
0000
0000
1003
0000
0000
0000
,
2100
0000
0000
0000
3001
0000
0000
0000
1000
0000
0100
0010
0000
0M10
1000
0000
,
0001
0010
0000
0100
0000
01M0
0001
0000
2000
0000
0000
0000
3001
0100
0010
1000
,
0002
0000
0000
0000
1003
0000
0000
0000
0001
0000
0010
0100
0000
01M0
0001
0000
,
1000
0000
0010
0100
0000
01M0
1000
0001
0100
0000
0100
100M
0000
0001
0100
0000
,
0001
0000
0100
0010
0000
0100
1000
0100
0010
0000
1000
0100
0000
0001
0100
0000
,
2000
0000
0000
0000
0010
0000
0000
0000
3001
0000
1000
0010
0100
0000
0001
0000
,
2000
0000
0000
0000
3001
0000
0000
0000
1002
0000
0000
0203
0000
0000
0310
0000
,
1001
0000
0001
0100
0010
0100
0001
0000
1000
0000
0100
0000
0010
0000
0001
1000
,
0001
0000
1000
0000
0010
0000
0100
0000
0001
0000
1000
0100
0010
0100
1000
0000
,
0001
0100
0010
1000
0001
1000
0100
0000
0010
0000
0001
0000
1000
0010
0100
0001
,
1000
0000
0010
0000
0001
0000
0010
0000
0100
0000
0001
0010
0100
01M0
0001
0000
,
1000
0000
0001
0010
001M
1000
0001
1000
0001
0000
1000
0100
M100
0001
1000
0000
,
0001
0000
1000
0100
0010
1000
0010
0100
1000
0000
0001
0100
0010
0001
0010
0000
,
0100
0001
1000
0100
0010
0001
1001
1001
,
1001
0000
0001
0100
0000
1000
0100
0001
1000
0000
0100
0000
0010
0001
0000
2000
,
0000
0000
0000
0000
,
0000
0000
0000
0000
,
3000
0000
0000
0000
;

//---------------dance-single - ----------------
#NOTEDATA:;
#CHARTNAME:;
#STEPSTYPE:dance-single;
#DESCRIPTION:;
#CHARTSTYLE:;
#DIFFICULTY:Medium;
#METER:11;
#RADARVALUES:0.517546,0.758907,0.471371,0.242419,0.481472,538.000000,468.000000,70.000000,36.000000,0.000000,0.000000,0.000000,0.000000,0.000000,0.517546,0.758907,0.471371,0.242419,0.481472,538.000000,468.000000,70.000000,36.000000,0.000000,0.000000,0.000000,0.000000,0.000000;
#CREDIT:;
#DISPLAYBPM:160.000000;
#NOTES:
0000
0000
0000
0000
,
0000
0000
0000
0000
,
0000
0000
0000
0000
,
0000
0000
0000
0000
,
0000
0000
0000
0000
,
1000
0000
0100
0000
0000
0010
0000
0000
0100
0000
0000
1000
0000
0000
0001
0000
,
1000
0000
0010
0000
0000
0100
0000
0000
0010
0000
0000
1000
0000
0000
0001
0000
,
0010
0000
0100
0000
0000
1000
0000
0000
0001
0000
0000
0100
0000
0000
0010
0000
,
1000
0000
0001
0000
0000
0010
0000
0000
0100
0000
0000
1000
0000
0000
0001
0000
,
0101
0000
0000
0000
1010
0000
0000
0000
0101
0000
0000
0001
0000
0000
1000
0000
,
0000
0000
0001
0000
0000
0010
0000
0000
1000
0000
0000
0010
0000
0000
0100
0000
,
1100
0000
0000
0000
0011
0000
0000
0000
1100
0000
0000
1000
0000
0000
0001
0000
,
0000
0000
1000
0000
0000
0010
0000
0000
0001
0000
0000
0010
0000
0000
0100
0000
,
0001
0010
0001
0010
0100
1000
0100
1000
,
0010
1000
0010
1000
0001
0100
0001
0100
,
0010
0100
0000
0000
0001
0010
0100
1000
,
0001
0000
0000
1001
,
1010
1010
0101
0101
,
0011
0011
1100
1100
,
1001
1001
0110
0110
,
1001
1001
0110
0110
,
0001
0100
0010
0000
0100
0010
1000
0000
,
0010
1000
0001
0000
1000
0100
0010
0000
,
0001
0100
0000
0000
0010
1000
0000
0000
,
0001
0010
0100
1000
0002
0000
1003
0000
,
0001
0100
0010
0000
0110
0000
0101
0000
,
1000
0100
0010
0000
0110
0000
1000
0001
,
1000
0010
0001
0000
0011
0000
1010
0000
,
0001
0010
1000
0000
0001
0100
1000
0001
,
1000
0100
0010
0000
0011
0000
1100
0000
,
0001
0100
0010
0000
1000
0010
0101
0000
,
1000
0100
0001
0000
1000
0010
0001
0000
,
2000
0000
0000
3000
,
0001
0000
0010
0000
0000
0100
0000
0000
0010
0000
0000
0001
0000
0000
1000
0000
,
0010
0000
0100
0000
0000
0010
0000
0000
1000
0000
0000
0001
0000
0000
1000
0000
,
0001
0000
0100
0000
0000
0010
0000
0000
0100
0000
0000
0001
0000
0000
1000
0000
,
0100
0000
0010
0000
0000
0100
0000
0000
1000
0000
0000
0001
0000
0000
1000
0000
,
0001
0100
2010
3001
,
1000
0100
0012
1003
,
0001
1000
0210
1300
,
0001
1000
0120
0031
,
2002
0000
0000
0000
,
3003
0000
0000
0000
,
0000
0000
0000
0000
,
0000
0000
0000
0000
,
1001
0000
0000
0000
0000
0000
0001
0000
0100
0000
0010
0000
,
1010
0000
0000
0000
0000
0000
1000
0000
0100
0000
0010
0000
,
0011
0000
0000
0000
0000
0000
0001
0000
1000
0000
1100
0000
,
0000
0000
0000
0000
1000
0000
0001
0000
0101
0000
0001
0000
,
0010
0000
1000
0000
0010
0000
0100
0000
1000
0000
0001
0000
,
0100
0010
0000
0100
0000
1000
0000
0100
0000
0001
0000
0010
,
0000
0100
0000
1000
0001
0000
0100
0000
1000
0000
0100
0000
,
0010
0000
1000
0000
0001
0000
0010
0100
0000
0010
0000
1000
,
0000
0010
0000
0001
0000
0100
0000
0010
0000
1000
0001
0020
,
0000
0000
0030
0000
0001
1000
0000
0000
1001
0000
0000
0000
,
1000
0010
0000
1000
0010
0000
1000
0001
0000
0000
1000
0100
,
0010
0000
0001
0010
0100
2000
0000
0000
3000
0000
0001
0100
,
0000
0000
0101
0000
0001
0010
0100
1000
0000
0010
0100
0001
,
0000
0000
0000
0000
,
1000
0000
0000
0000
0000
0000
0000
0000
0000
0000
0000
0000
0000
0000
0000
0000
0100
0000
0000
0000
0000
0000
0000
0000
0000
0000
0000
0000
0000
0000
0000
0000
0000
0000
0000
0000
0000
0000
0000
0000
0000
0000
0000
0000
0000
0000
0000
0000
2000
0000
0000
0000
0000
0000
0000
0000
0000
0000
0000
0000
0000
0000
0000
0000
0000
0000
0000
0000
0000
0000
0000
0000
3000
0000
0000
0000
0000
0000
0000
0000
0000
0000
0000
0000
0000
0000
0000
0000
0000
0000
0001
0000
0000
0000
0000
0000
0000
0000
0000
0000
0000
0000
0000
0000
0000
0000
0100
0000
0000
0000
0000
0000
0000
0000
0000
0000
0000
0000
0000
0000
0000
0000
0000
0000
0000
0000
0000
0000
0000
0000
0000
0000
0000
0000
0000
0000
0000
0000
0001
0000
0000
0000
0000
0000
0000
0000
0000
0000
0000
0000
0000
0000
0000
0000
0000
0000
0000
0000
0000
0000
0000
0000
0000
0000
0000
0000
0000
0000
0000
0000
0000
0000
0000
0000
0000
0000
0000
0000
0000
0000
1000
0000
0000
0000
0000
0000
0000
0000
0000
0000
0000
0000
,
0000
0000
0000
0000
0000
0000
0000
0000
0000
0000
0000
0000
0000
0000
0000
0000
0000
0000
0000
0000
0000
0000
0000
0000
0000
0000
0000
0000
0000
0000
0020
0000
0000
0000
0000
0000
0000
0000
0000
0000
0000
0000
0000
0000
0000
0000
0000
0000
0000
0000
0000
0000
0000
0000
0000
0000
0000
0000
0000
0000
0000
0000
0000
0000
0000
0000
0000
0000
0000
0000
0000
0000
0000
0000
0000
0000
0000
0000
0000
0000
1030
0000
0000
0000
0000
0000
0000
0000
0000
0000
0000
0000
0000
0000
0000
0000
0010
0000
0000
0000
0000
0000
0000
0000
0000
0000
0000
0000
0000
0000
0000
0000
0000
0000
0000
0000
0000
0000
0000
0000
0000
0000
0000
0000
0000
0000
0000
0000
0100
0000
0000
0000
0000
0000
0000
0000
0000
0000
0000
0000
0000
0000
0000
0000
0000
0000
0000
0000
0000
0000
0000
0000
0000
0000
0000
0000
0000
0000
0000
0000
0002
0000
0000
0000
0000
0000
0000
0000
0000
0000
0000
0000
0000
0000
0000
0000
0000
0000
0000
0000
0000
0000
0000
0000
0000
0000
0000
0000
0000
0000
0000
0000
,
0000
0000
0000
0000
1003
0000
0000
0000
0000
0000
0000
0000
0000
0000
0000
0000
0000
0000
0000
0000
0000
0000
0000
0000
0100
0000
0000
0000
0000
0000
0000
0000
0000
0000
0000
0000
0000
0000
0000
0000
0000
0000
0000
0000
0010
0000
0000
0000
0000
0000
0000
0000
0000
0000
0000
0000
0000
0000
0000
0000
0000
0000
0000
0000
0001
0000
0000
0000
0000
0000
0000
0000
0000
0000
0000
0000
0000
0000
0000
0000
0000
0000
0000
0000
0000
0000
0000
0000
0000
0000
0000
0000
0000
0000
0000
0000
1000
0000
0000
0000
0000
0000
0000
0000
0000
0000
0000
0000
0000
0000
0000
0000
0100
0000
0000
0000
0000
0000
0000
0000
0000
0000
0000
0000
0000
0000
0000
0000
0000
0000
0000
0000
0000
0000
0000
0000
0000
0000
0000
0000
0000
0000
0000
0000
2000
0000
0000
0000
0000
0000
0000
0000
0000
0000
0000
0000
0000
0000
0000
0000
0000
0000
0000
0000
0000
0000
0000
0000
3000
0000
0000
0000
0000
0000
0000
0000
0000
0000
0000
0000
0000
0000
0000
0000
0000
0000
0001
0000
0000
0000
0000
0000
,
0000
0000
0000
0000
0000
0000
0000
0000
0000
0000
0100
0000
0000
0000
0000
0000
0000
0000
0000
0000
0000
0000
0000
0000
0000
0000
0000
0000
0000
0000
0000
0000
0000
0000
0000
0000
0000
0000
0000
0000
0000
0000
0001
0000
0000
0000
0000
0000
0000
0000
0000
0000
0000
0000
0000
0000
0000
0000
0000
0000
0000
0000
0000
0000
0000
0000
0000
0000
0000
0000
0000
0000
0000
0000
0000
0000
0000
0000
0000
0000
0000
0000
0000
0000
1001
0000
0000
0000
0000
0000
0000
0000
0000
0000
0000
0000
0000
0000
0000
0000
0000
0000
0000
0000
0000
0000
0000
0000
0000
0000
0000
0000
0000
0000
0000
0000
0000
0000
0000
0000
0000
0000
0000
0000
0000
0000
0000
0000
0120
0000
0000
0000
0000
0000
0000
0000
0000
0000
0000
0000
0000
0000
0000
0000
0000
0000
0000
0000
0000
0000
0000
0000
0000
0000
0000
0000
0000
0000
0000
0000
0000
0000
0000
0000
0000
0000
0000
0000
0000
0000
0000
0000
0000
0000
0130
0000
0000
0000
0000
0000
0000
0000
0000
0000
0000
0000
0000
0000
0000
0000
0000
0000
,
0000
0000
0000
0000
0000
0000
0000
0000
0000
0000
0000
0000
0010
0000
0000
0000
0000
0000
0000
0000
0000
0000
0000
0000
0000
0000
0000
0000
0100
0000
0000
0000
0000
0000
0000
0000
0000
0000
0000
0000
0000
0000
0000
0000
0000
0000
0000
0000
0000
0000
0000
0000
0000
0000
0000
0000
0000
0000
0000
0000
0001
0000
0000
0000
0000
0000
0000
0000
0000
0000
0000
0000
0000
0000
0000
0000
1000
0000
0000
0000
0000
0000
0000
0000
0000
0000
0000
0000
0000
0000
0000
0000
0000
0000
0000
0000
0000
0000
0000
0000
0000
0000
1010
0000
0000
0000
0000
0000
0000
0000
0000
0000
0000
0000
0000
0000
0000
0000
0000
0000
0000
0000
0000
0000
0000
0000
0000
0000
0000
0000
0000
0000
0001
0000
0000
0000
0000
0000
0000
0000
0000
0000
0000
0000
0000
0000
0000
1000
0000
0000
0000
0000
0000
0000
0000
0000
0000
0000
0000
0000
0000
0000
0000
0000
0001
0000
0000
0000
0000
0000
0000
0000
0000
0000
0000
0000
0000
0000
0000
0000
0000
0000
0000
0000
0000
0000
0000
0000
0000
0000
0000
0000
,
1000
0000
0000
0000
0000
0000
0000
0000
0000
0000
0000
0000
0000
0000
0000
0000
0100
0000
0000
0000
0000
0000
0000
0000
0000
0000
0000
0000
0000
0000
0000
0000
0000
0000
0000
0000
0000
0000
0000
0000
0000
0000
0000
0000
0000
0000
0000
0000
2000
0000
0000
0000
0000
0000
0000
0000
0000
0000
0000
0000
0000
0000
0000
0000
0000
0000
0000
0000
0000
0000
0000
0000
3000
0000
0000
0000
0000
0000
0000
0000
0000
0000
0000
0000
0000
0000
0000
0000
0000
0000
0001
0000
0000
0000
0000
0000
0000
0000
0000
0000
0000
0000
0000
0000
0000
0000
0100
0000
0000
0000
0000
0000
0000
0000
0000
0000
0000
0000
0000
0000
0000
0000
0000
0000
0000
0000
0000
0000
0000
0000
0000
0000
0000
0000
0000
0000
0000
0000
0001
0000
0000
0000
0000
0000
0000
0000
0000
0000
0000
0000
0000
0000
0000
0000
0000
0000
0000
0000
0000
0000
0000
0000
0000
0000
0000
0000
0000
0000
0000
0000
0000
0000
0000
0000
0000
0000
0000
0000
0000
0000
1000
0000
0000
0000
0000
0000
0000
0000
0000
0000
0000
0000
,
0000
0000
0000
0000
0000
0000
0000
0000
0000
0000
0000
0000
0000
0000
0000
0000
0000
0000
0000
0000
0000
0000
0000
0000
0000
0000
0000
0000
0000
0000
0020
0000
0000
0000
0000
0000
0000
0000
0000
0000
0000
0000
0000
0000
0000
0000
0000
0000
0000
0000
0000
0000
0000
0000
0000
0000
0000
0000
0000
0000
0000
0000
0000
0000
0000
0000
0000
0000
0000
0000
0000
0000
0000
0000
0000
0000
0000
0000
0000
0000
1030
0000
0000
0000
0000
0000
0000
0000
0000
0000
0000
0000
0000
0000
0000
0000
0010
0000
0000
0000
0000
0000
0000
0000
0000
0000
0000
0000
0000
0000
0000
0000
0000
0000
0000
0000
0000
0000
0000
0000
0000
0000
0000
0000
0000
0000
0000
0000
0100
0000
0000
0000
0000
0000
0000
0000
0000
0000
0000
0000
0000
0000
0000
0000
0000
0000
0000
0000
0000
0000
0000
0000
0000
0000
0000
0000
0000
0000
0000
0000
0002
0000
0000
0000
0000
0000
0000
0000
0000
0000
0000
0000
0000
0000
0000
0000
0000
0000
0000
0000
0000
0000
0000
0000
0000
0000
0000
0000
0000
0000
0000
0000
,
0000
0000
0000
0000
1003
0000
0000
0000
0000
0000
0000
0000
0000
0000
0000
0000
0000
0000
0000
0000
0000
0000
0000
0000
0100
0000
0000
0000
0000
0000
0000
0000
0000
0000
0000
0000
0000
0000
0000
0000
0000
0000
0000
0000
0010
0000
0000
0000
0000
0000
0000
0000
0000
0000
0000
0000
0000
0000
0000
0000
0000
0000
0000
0000
0001
0000
0000
0000
0000
0000
0000
0000
0000
0000
0000
0000
0000
0000
0000
0000
0000
0000
0000
0000
0000
0000
0000
0000
0000
0000
0000
0000
0000
0000
0000
0000
1000
0000
0000
0000
0000
0000
0000
0000
0000
0000
0000
0000
0000
0000
0000
0000
0100
0000
0000
0000
0000
0000
0000
0000
0000
0000
0000
0000
0000
0000
0000
0000
0000
0000
0000
0000
0000
0000
0000
0000
0000
0000
0000
0000
0000
0000
0000
0000
2000
0000
0000
0000
0000
0000
0000
0000
0000
0000
0000
0000
0000
0000
0000
0000
0000
0000
0000
0000
0000
0000
0000
0000
3000
0000
0000
0000
0000
0000
0000
0000
0000
0000
0000
0000
0000
0000
0000
0000
0000
0000
0001
0000
0000
0000
0000
0000
,
0000
0000
0000
0000
0000
0000
0000
0000
0000
0000
0100
0000
0000
0000
0000
0000
0000
0000
0000
0000
0000
0000
0000
0000
0000
0000
0000
0000
0000
0000
0000
0000
0000
0000
0000
0000
0000
0000
0000
0000
0000
0000
0001
0000
0000
0000
0000
0000
0000
0000
0000
0000
0000
0000
0000
0000
0000
0000
0000
0000
0000
0000
0000
0000
0000
0000
0000
0000
0000
0000
0000
0000
0000
0000
0000
0000
0000
0000
0000
0000
0000
0000
0000
0000
1001
0000
0000
0000
0000
0000
0000
0000
0000
0000
0000
0000
0000
0000
0000
0000
0000
0000
0000
0000
0000
0000
0000
0000
0000
0000
0000
0000
0000
0000
0000
0000
0000
0000
0000
0000
0000
0000
0000
0000
0000
0000
0000
0000
0120
0000
0000
0000
0000
0000
0000
0000
0000
0000
0000
0000
0000
0000
0000
0000
0000
0000
0000
0000
0000
0000
0000
0000
0000
0000
0000
0000
0000
0000
0000
0000
0000
0000
0000
0000
0000
0000
0000
0000
0000
0000
0000
0000
0000
0000
0030
0000
1000
0000
0000
0000
0000
0000
0000
0000
0000
0000
0000
0000
0000
0000
0000
0000
,
0000
0000
0000
0000
0000
0000
0000
0000
0000
0000
0000
0000
0000
0000
0000
0000
0001
0000
0000
0000
0000
0000
0000
0000
0000
0000
0000
0000
0000
0000
0000
0000
0010
0000
0000
0000
0000
0000
0000
0000
0000
0000
0000
0000
0000
0000
0000
0000
0000
0000
0000
0000
0000
0000
0000
0000
0000
0000
0000
0000
1000
0000
0000
0000
0000
0000
0000
0000
0000
0000
0000
0000
0000
0000
0000
0000
0000
0000
0010
0000
0000
0000
0000
0000
0000
0000
0000
0000
0000
0000
0000
0000
0000
0000
0000
0000
0000
0000
0000
0000
0000
0000
0000
0000
0000
0000
0000
0000
0001
0000
0000
0000
0000
0000
0000
0000
0000
0000
0000
0000
0000
0000
0000
0000
0100
0000
0000
0000
0000
0000
0000
0000
0000
0000
0000
0000
0000
0000
0000
0000
0000
0000
0000
0000
0000
0000
0000
0000
0000
0000
1000
0000
0000
0000
0000
0000
0000
0000
0000
0000
0000
0000
0000
0000
0000
0000
0100
0000
0000
0000
0000
0000
0000
0000
0000
0000
0000
0000
0000
0000
0000
0000
0000
0000
0000
0000
0000
0000
0000
0000
0000
0000
,
0000
2002
0000
0000
0000
0000
0000
0000
0000
0000
0000
0000
0000
0000
0000
0000
0000
0000
0000
0000
0000
0000
0000
0000
0000
0000
0000
0000
0000
0000
0000
0000
,
0000
0000
3003
0000
,
2000
3010
0002
0013
,
1000
0000
0000
0010
0000
0000
0100
0000
0001
0000
0000
0010
0000
0000
0100
0000
,
2000
3100
0002
0103
,
1000
0000
0000
0010
0000
0000
0100
0000
0001
0000
0000
0000
1000
0000
0001
0000
,
2000
3010
0002
0103
,
1000
0000
0000
0010
0000
0000
0100
0000
1000
0000
0000
0100
0000
0000
0001
0000
,
0010
1001
0100
1001
,
1000
0010
0001
0010
1000
0010
0100
0000
,
0102
0000
0000
0000
0013
0000
0000
0000
0001
0000
0000
0100
0000
0000
1000
0000
,
0001
0000
0000
0010
0000
0000
1000
0000
0002
0000
0000
0000
1003
0000
0000
0000
,
2100
0000
0000
0000
3001
0000
0000
0000
1000
0000
0000
0100
0000
0000
0001
0000
,
1000
0000
0000
0010
0000
0000
0001
0000
2000
0000
0000
0000
3001
0000
0000
0000
,
1002
0000
0000
0000
0103
0000
0000
0000
0001
0000
0000
0100
0000
0000
1000
0000
,
0001
0000
0000
0010
0000
0000
0100
0000
0001
0000
0000
0010
0000
0000
1000
0000
,
0001
0000
0000
0100
0000
0000
0010
0000
0001
0000
0000
1000
0000
0000
0010
0000
,
0100
0000
0101
0000
0001
0010
1000
0010
,
0200
0000
0000
0000
0300
0000
0000
0000
1000
0000
0000
0001
0000
0000
1000
0000
,
0001
0000
0101
0000
1000
0000
1100
1000
,
0001
0011
1000
1010
,
1000
0000
1001
0000
0001
0100
1000
0100
,
0010
1000
1010
0000
0001
0100
0101
0000
,
1000
0100
1100
0000
0001
0010
0011
0000
,
1000
0010
0110
0010
0100
0001
0101
0001
,
0010
0100
0110
0100
1000
0001
1001
1001
,
1002
0000
0000
0000
0103
0000
0000
0000
0001
0000
0010
0000
0001
1000
0000
0200
,
0000
0000
0000
0000
,
0000
0000
0000
0000
,
0300
0000
0000
0000
;

//---------------dance-single - ----------------
#NOTEDATA:;
#CHARTNAME:;
#STEPSTYPE:dance-single;
#DESCRIPTION:;
#CHARTSTYLE:;
#DIFFICULTY:Easy;
#METER:7;
#RADARVALUES:0.346313,0.395952,0.188548,0.188548,0.235685,360.000000,332.000000,28.000000,28.000000,0.000000,0.000000,0.000000,0.000000,0.000000,0.346313,0.395952,0.188548,0.188548,0.235685,360.000000,332.000000,28.000000,28.000000,0.000000,0.000000,0.000000,0.000000,0.000000;
#CREDIT:;
#DISPLAYBPM:160.000000;
#NOTES:
// measure 0
0000
0000
0000
0000
,  // measure 1
0000
0000
0000
0000
,  // measure 2
0000
0000
0000
0000
,  // measure 3
0000
0000
0000
0000
,  // measure 4
0000
0000
0000
0000
,  // measure 5
1000
0100
0010
0010
,  // measure 6
0100
1000
0001
0001
,  // measure 7
0100
0010
1000
1000
,  // measure 8
0100
0010
0001
0001
,  // measure 9
1001
0001
1000
0001
,  // measure 10
0100
0010
0100
0010
,  // measure 11
1000
0001
1000
0001
,  // measure 12
0010
0100
0010
0100
,  // measure 13
1000
1000
1000
0010
,  // measure 14
0001
0001
0001
0010
,  // measure 15
0100
0100
0000
0000
0001
0000
1000
0000
,  // measure 16
1001
0000
0000
1001
,  // measure 17
1001
0001
0100
1000
,  // measure 18
0100
0001
0100
1000
,  // measure 19
0100
0010
0100
0001
,  // measure 20
1000
0100
0010
0001
,  // measure 21
1000
0010
0001
0010
,  // measure 22
1000
0010
0001
0010
,  // measure 23
0100
0100
0010
0010
,  // measure 24
1000
0001
1000
1001
,  // measure 25
1000
0100
0001
0001
,  // measure 26
0100
1000
0001
1001
,  // measure 27
1000
0010
0001
0001
,  // measure 28
0010
1000
0001
1001
,  // measure 29
0001
0010
1000
1000
,  // measure 30
0001
0100
1000
1001
,  // measure 31
1000
0010
0001
0100
,  // measure 32
2000
0000
0000
3000
,  // measure 33
0001
0100
0001
0001
,  // measure 34
1000
0100
1000
1000
,  // measure 35
0001
0010
0001
0001
,  // measure 36
1000
0010
1000
1000
,  // measure 37
0001
0010
0011
0001
,  // measure 38
1000
0010
1010
1000
,  // measure 39
0001
0100
0101
0001
,  // measure 40
1000
0100
1100
0100
,  // measure 41
2000
0000
0000
0000
,  // measure 42
3000
0000
0000
0000
,  // measure 43
0000
0000
0000
0000
,  // measure 44
0000
0000
0000
0000
,  // measure 45
1000
0000
1010
0000
,  // measure 46
0001
0000
0011
0000
,  // measure 47
1000
0000
0000
0000
0000
0000
1100
0000
0000
0000
1000
0000
,  // measure 48
0000
0000
0000
0000
0101
0000
0000
0000
0001
0000
0001
0000
,  // measure 49
0000
0100
0000
0000
1000
0000
0000
0100
0000
0000
0010
0000
,  // measure 50
0000
1000
0000
0000
0001
0000
0000
0010
0000
0000
0100
0000
,  // measure 51
0000
1000
0000
0000
0001
0000
0000
0100
0000
0000
0010
0000
,  // measure 52
0000
1000
0000
0000
0001
0000
0000
0010
0000
0000
0100
0000
,  // measure 53
0000
1000
0000
0000
0001
0000
0000
0100
0000
0000
0010
0000
,  // measure 54
0000
1000
0000
0000
0001
0000
0000
0010
0000
0000
0100
0000
,  // measure 55
0000
1000
0000
0000
0001
0000
0000
0100
0000
0000
0010
0000
,  // measure 56
0000
1000
0000
0000
0001
0000
0000
0010
0000
0000
0100
0000
,  // measure 57
0000
1000
0000
0000
0001
0000
0000
1000
0000
0000
0000
1001
,  // measure 58
0000
0000
0000
0000
,  // measure 59
1000
0000
0010
0000
1000
0000
0000
0000
0001
0000
0000
1000
,  // measure 60
0000
0000
0000
0001
0000
0000
0000
0010
0000
0000
0000
0100
,  // measure 61
0000
0000
1000
0000
0001
0000
1000
0000
0000
0000
0001
0000
,  // measure 62
0000
0000
0100
0000
0000
0000
0010
0000
0000
0000
1000
0000
,  // measure 63
0000
0001
0000
0000
0000
0010
0000
0010
0000
0010
0000
0010
,  // measure 64
0001
0000
0100
0000
0001
0000
0000
0000
1000
0000
0000
0001
,  // measure 65
0000
0000
0000
1000
0000
0000
0000
0100
0000
0000
0000
0010
,  // measure 66
0000
0000
0001
0000
1000
0000
0001
0000
0000
0000
1000
0000
,  // measure 67
0000
0000
0010
0000
0000
0000
0100
0000
0000
0000
0001
0000
,  // measure 68
0000
0000
1000
0000
0000
0000
0000
0000
0000
0000
0100
0000
0000
0000
0000
0000
0100
0000
0000
0000
0000
0100
0000
0000
,  // measure 69
2002
0000
0000
0000
,  // measure 70
3003
0000
0000
0000
,  // measure 71
2000
3010
0200
0301
,  // measure 72
1000
0100
0001
0100
,  // measure 73
2000
3100
0020
0031
,  // measure 74
1000
0010
0001
0010
,  // measure 75
2000
3010
0200
0301
,  // measure 76
1000
0100
0001
0100
,  // measure 77
0010
0010
0100
0100
,  // measure 78
1000
0001
1000
0000
0001
1000
0001
0000
,  // measure 79
2000
3010
0002
0013
,  // measure 80
0100
0001
1000
1100
,  // measure 81
2000
3100
0002
0103
,  // measure 82
1000
0100
0010
0011
,  // measure 83
0002
0103
2000
3100
,  // measure 84
0010
0000
1000
0100
1000
0000
0001
0100
,  // measure 85
0002
0013
2000
3010
,  // measure 86
0200
0010
0310
0100
,  // measure 87
2100
3001
0102
1003
,  // measure 88
0001
0010
1000
0010
,  // measure 89
0210
0301
0120
1030
,  // measure 90
0010
0001
0100
0010
,  // measure 91
1020
0031
0021
1030
,  // measure 92
0010
1000
0100
0001
,  // measure 93
0201
1300
2100
3001
,  // measure 94
1000
0010
0001
0100
,  // measure 95
1000
0000
0000
0000
0001
0000
0000
0000
0100
0000
0010
0000
0100
0000
0000
0002
,  // measure 96
0000
0000
0000
0000
,  // measure 97
0000
0000
0000
0000
,  // measure 98
0003
0000
0000
0000
;

//---------------dance-single - ----------------
#NOTEDATA:;
#CHARTNAME:;
#STEPSTYPE:dance-single;
#DESCRIPTION:;
#CHARTSTYLE:;
#DIFFICULTY:Beginner;
#METER:4;
#RADARVALUES:0.193358,0.263968,0.033669,0.047137,0.053871,201.000000,196.000000,5.000000,7.000000,0.000000,0.000000,0.000000,0.000000,0.000000,0.193358,0.263968,0.033669,0.047137,0.053871,201.000000,196.000000,5.000000,7.000000,0.000000,0.000000,0.000000,0.000000,0.000000;
#CREDIT:;
#DISPLAYBPM:160.000000;
#NOTES:
// measure 0
0000
0000
0000
0000
,  // measure 1
0000
0000
0000
0000
,  // measure 2
0000
0000
0000
0000
,  // measure 3
0000
0000
0000
0000
,  // measure 4
0000
0000
0000
0000
,  // measure 5
1000
0000
0001
0001
,  // measure 6
0001
0000
0100
0100
,  // measure 7
0100
0000
0010
0010
,  // measure 8
0010
0000
1000
1000
,  // measure 9
1000
0000
1000
0000
,  // measure 10
0001
0000
0010
0010
,  // measure 11
0010
0000
0001
0000
,  // measure 12
0100
0000
1000
1000
,  // measure 13
1000
0000
0100
0000
,  // measure 14
0010
0010
0010
0000
,  // measure 15
1000
0000
0001
0001
,  // measure 16
0001
0000
0000
1000
,  // measure 17
1000
0000
0010
0000
,  // measure 18
0100
0100
0100
0100
,  // measure 19
0100
0000
0001
0000
,  // measure 20
1000
1000
1000
1000
,  // measure 21
1000
0000
0100
0000
,  // measure 22
0010
0010
0010
0010
,  // measure 23
0010
0000
0001
0000
,  // measure 24
1000
1000
1000
0000
,  // measure 25
0001
0001
0001
0001
,  // measure 26
0001
0000
0100
0000
,  // measure 27
0010
0010
0010
0010
,  // measure 28
0010
0000
1000
0000
,  // measure 29
0100
0100
0100
0100
,  // measure 30
0100
0000
0010
0000
,  // measure 31
0001
0001
0001
0001
,  // measure 32
0002
0000
0000
0003
,  // measure 33
0001
0000
0100
0000
,  // measure 34
0010
0010
0010
0000
,  // measure 35
1000
0000
0001
0000
,  // measure 36
0100
0100
0100
0000
,  // measure 37
0010
0000
1000
0000
,  // measure 38
0100
0100
0100
0000
,  // measure 39
0010
0000
0001
0000
,  // measure 40
1000
1000
1000
0000
,  // measure 41
2000
0000
0000
0000
,  // measure 42
3000
0000
0000
0000
,  // measure 43
0000
0000
0000
0000
,  // measure 44
0000
0000
0000
0000
,  // measure 45
1001
0000
0000
0000
,  // measure 46
0110
0000
0000
0000
,  // measure 47
1001
0000
0000
0000
0000
0000
0000
0000
0000
0000
1001
0000
,  // measure 48
0000
0000
0000
0000
0000
0000
0000
0000
0000
0000
1000
0000
,  // measure 49
0000
0000
0000
0000
,  // measure 50
0000
0010
0000
0000
0000
0000
0000
0000
0000
0000
0000
0000
,  // measure 51
0000
0000
0000
0000
0100
0000
0000
0000
0000
0000
0000
0000
,  // measure 52
0000
0000
0000
0000
0000
0000
0000
0001
0000
0000
0000
0000
,  // measure 53
0000
0000
0000
0000
0000
0000
0000
0000
0000
0000
0010
0000
,  // measure 54
0000
0000
0000
0000
,  // measure 55
0000
1000
0000
0000
0000
0000
0000
0000
0000
0000
0000
0000
,  // measure 56
0000
0000
0000
0000
0010
0000
0000
0000
0000
0000
0000
0000
,  // measure 57
0000
0000
0000
0000
0000
0000
0000
0100
0000
0000
0000
0100
,  // measure 58
0000
0000
0000
0000
,  // measure 59
0010
0000
0000
0000
0000
0000
0000
0000
1000
0000
0000
0000
,  // measure 60
0000
0000
0000
0000
0000
0001
0000
0000
0000
0000
0000
0000
0000
0000
0010
0000
,  // measure 61
0000
0000
0000
0000
0000
0000
0000
0000
0000
0100
0000
0000
0000
0000
0000
0000
,  // measure 62
0000
1000
0000
0000
0000
0000
0020
0000
,  // measure 63
0000
0000
0030
0000
,  // measure 64
0100
0000
0000
0000
0000
0000
0000
0000
0001
0000
0000
0000
,  // measure 65
0000
0000
0000
0000
0000
1000
0000
0000
0000
0000
0000
0000
0000
0000
0100
0000
,  // measure 66
0000
0000
0000
0000
0000
0000
0000
0000
0000
0010
0000
0000
0000
0000
0000
0000
,  // measure 67
0000
0001
0000
0000
0000
0000
0200
0000
,  // measure 68
0000
0000
0300
0000
,  // measure 69
2002
0000
0000
0000
,  // measure 70
3003
0000
0000
0000
,  // measure 71
1000
0000
0010
0000
,  // measure 72
0100
0100
0100
0000
,  // measure 73
0001
0000
1000
0000
,  // measure 74
0100
0100
0100
0000
,  // measure 75
0010
0000
0001
0000
,  // measure 76
1000
1000
1000
0000
,  // measure 77
0010
0000
0100
0000
,  // measure 78
0001
0001
0001
0001
,  // measure 79
0001
0000
0010
0000
,  // measure 80
0100
0100
0100
0000
,  // measure 81
1000
0000
0001
0000
,  // measure 82
0100
0100
0100
0100
,  // measure 83
0100
0000
0010
0000
,  // measure 84
1000
1000
1000
1000
,  // measure 85
1000
0000
0001
0000
,  // measure 86
0010
0000
0100
0100
,  // measure 87
0100
0000
1000
0000
,  // measure 88
0001
0001
0001
0000
,  // measure 89
0100
0000
0010
0000
,  // measure 90
1000
1000
1000
1000
,  // measure 91
1000
0000
0001
0000
,  // measure 92
0010
0010
0010
0000
,  // measure 93
0100
0100
0100
0000
,  // measure 94
1000
1000
1000
0000
,  // measure 95
0001
0000
0100
0100
,  // measure 96
0200
0000
0000
0000
,  // measure 97
0000
0000
0000
0000
,  // measure 98
0300
0000
0000
0000
;
