#VERSION:0.83;
#TITLE:Natalia:Code;
#SUBTITLE:;
#ARTIST:WHITEFISTS;
#TITLETRANSLIT:;
#SUBTITLETRANSLIT:;
#ARTISTTRANSLIT:;
#GENRE:;
#ORIGIN:;
#CREDIT:;
#BANNER:Natalia Code.png;
#BACKGROUND:Natalia Code-bg.png;
#PREVIEWVID:;
#JACKET:Natalia Code-jacket.png;
#CDIMAGE:;
#DISCIMAGE:;
#LYRICSPATH:;
#CDTITLE:;
#MUSIC:Natalia Code.ogg;
#OFFSET:1.282000;
#SAMPLESTART:32.568001;
#SAMPLELENGTH:15.000000;
#SELECTABLE:YES;
#BPMS:0.000=93.500,
22.000=187.000,
54.000=93.500,
70.000=187.000,
174.000=93.500,
238.000=187.000,
302.000=93.500;
#STOPS:;
#DELAYS:;
#WARPS:;
#TIMESIGNATURES:0.000=4=4;
#TICKCOUNTS:0.000=4;
#COMBOS:0.000=1;
#SPEEDS:0.000=1.000=0.000=0;
#SCROLLS:0.000=1.000,
116.500=0.000,
116.562=2.000,
116.625=0.000,
116.688=2.000,
116.750=0.000,
116.812=2.000,
116.875=0.000,
116.938=2.000,
117.000=0.000,
117.062=2.000,
117.125=0.000,
117.188=2.000,
117.250=0.000,
117.312=2.000,
117.375=0.000,
117.438=2.000,
117.500=1.000,
190.000=0.000,
190.250=2.000,
190.500=1.000,
278.000=0.000,
278.375=2.000,
278.750=0.000,
279.125=2.000,
279.500=0.000,
279.875=2.000,
280.250=0.000,
280.625=2.000,
281.000=0.000,
281.375=2.000,
281.750=0.000,
282.125=2.000,
282.500=0.000,
282.875=2.000,
283.250=1.000;
#FAKES:;
#LABELS:0.000=Song Start;
#BGCHANGES:;
#KEYSOUNDS:;
#ATTACKS:
;

//---------------dance-single - XO+ DS JA XMOD BU JU+----------------
#NOTEDATA:;
#CHARTNAME:;
#STEPSTYPE:dance-single;
#DESCRIPTION:XO+ DS JA XMOD BU JU+;
#CHARTSTYLE:;
#DIFFICULTY:Challenge;
#METER:19;
#RADARVALUES:1.063310,1.506981,0.813879,0.987785,1.551240,1070.000000,953.000000,117.000000,142.000000,0.000000,0.000000,0.000000,0.000000,0.000000,1.063310,1.506981,0.813879,0.987785,1.551240,1070.000000,953.000000,117.000000,142.000000,0.000000,0.000000,0.000000,0.000000,0.000000;
#CREDIT:Karl Kode;
#NOTES:
0000
0000
0000
0000
,
0000
0000
0000
0000
,
0000
0000
0000
0000
,
0000
0000
0000
0000
0000
0000
0000
0000
0000
0000
0000
0000
0000
0000
0000
0000
1100
0000
0100
0010
0100
0000
1100
0000
0001
0100
0001
0000
1001
0000
0100
0000
,
1010
0000
0010
0100
0010
0000
1010
0000
0001
0010
0001
0000
1001
0000
0001
0000
1000
0100
1000
0100
0010
0001
0010
0001
1000
0010
0100
0001
0100
0010
1000
0100
,
0010
0000
0010
0000
0001
0000
0001
0010
0100
0010
0001
0000
0201
0000
0000
0000
2300
0000
3100
0000
0001
0000
0000
0000
0100
0000
0000
0000
2000
0000
3100
0000
,
0000
0010
0100
0000
0010
0100
2000
0100
3000
0000
1000
0100
0010
1000
0001
0010
,
2000
0000
3010
0200
0000
0310
0100
0000
0002
0103
1000
0000
0100
0000
0002
0103
,
0000
0010
0100
0000
0010
0100
0002
0100
0003
0000
0001
0100
0010
0001
1000
0010
,
0002
0000
0013
0200
0000
0310
1000
0000
0220
0000
0330
2002
0000
3003
1000
0100
,
0010
0000
0001
0000
1000
0000
0010
0000
0100
0000
0010
0000
1000
0000
0001
0000
0010
0000
0100
0000
0010
0000
1000
0000
0010
0000
0100
0000
1000
0001
1000
0000
,
0010
0100
2000
0000
3100
0010
0100
0001
1001
0000
1000
0100
0010
0000
0012
0000
,
0000
0000
0103
0000
0110
0000
0010
0000
1010
0000
0001
0010
0100
0000
1200
0000
,
2300
0000
3010
0100
1000
0100
0010
0100
0001
1000
0010
2000
0000
0100
0000
0010
,
0000
0001
0000
3200
0000
0310
0001
0100
0100
0001
0010
0002
0000
0100
0000
1000
,
0000
0000
0023
0000
0000
0000
2030
0000
0000
0000
0010
0000
0000
0000
3010
0000
0002
0000
1000
0000
0013
0000
0001
1000
0001
0000
0100
0000
0020
0000
0000
0000
,
2030
0000
0001
0000
3010
0000
1000
0001
1000
0000
0100
0010
0100
0010
0001
0000
1001
0000
0000
1000
0010
0000
0011
0000
0000
0001
0010
0000
0010
0001
0100
0010
,
1010
0000
0000
0011
0000
0000
1001
0000
2000
0000
3200
0000
0320
0000
0230
0000
1300
0000
0000
0000
0010
0000
0100
0000
0210
0000
0000
0000
0000
0000
0000
0000
,
0301
0010
0100
1000
0001
0000
2010
0000
0000
0000
3010
0000
0001
0000
0012
0000
,
0000
0000
0013
0000
0100
0000
2002
0000
3003
0000
0001
0100
0220
0000
0330
0000
,
1000
0100
0010
0001
1000
0001
0101
0000
0000
0000
0100
0010
0100
0000
0001
0000
,
0011
0000
1100
0000
1010
0000
0101
0000
1002
0000
0103
0010
0120
0000
0000
0000
,
1030
0100
0010
0001
1000
0000
0102
0000
0000
0000
0013
0000
1000
0000
2010
0000
,
0000
0000
3010
0000
0001
0000
2002
0000
3003
0000
1000
0010
0220
0000
0330
0000
,
0001
0010
0100
1000
0001
1000
1010
0000
0000
0000
1000
0100
1000
0000
0100
0010
,
1000
0010
0001
0010
0100
0010
0001
1000
2001
0000
0000
0000
3010
0000
0100
0000
,
0001
0000
0200
0000
0001
0000
0310
0000
2000
0000
0000
3020
1000
0000
0230
0000
,
0320
0000
0000
2030
0001
0000
3010
0000
0022
0000
0033
1200
0000
0000
0310
0100
,
0010
0001
0100
0010
1000
0100
0010
0001
2002
0000
3003
0201
0000
0000
0320
0000
,
0032
0000
0023
0000
0000
0000
2030
0000
0000
0000
3100
0010
0110
0000
0000
0000
,
1000
0100
0010
0001
1000
0000
0002
0000
0000
0000
0103
0010
1000
0100
0110
0000
,
0000
0000
1100
0000
0000
0000
2002
0000
3003
0000
1000
0010
0110
0000
0000
0000
,
1000
0100
0010
0001
1000
0001
1001
0000
0000
0000
0001
0100
0010
0100
0001
0100
,
0101
0000
0000
0000
0001
0000
0010
0000
0000
0000
0010
0000
0001
0000
0000
0000
0001
0010
0001
0010
0001
0000
0100
0000
0010
0000
1000
0000
0100
0000
0010
0000
,
0001
0000
0010
0000
0001
0000
1000
0000
0010
0000
1000
0000
0001
0000
0100
0000
0001
1000
0001
1000
0001
0000
0010
0000
0100
0000
0010
0000
0001
0000
1000
0000
,
0002
0000
0103
0010
0001
1000
0100
0010
0002
0013
1000
0000
0010
0000
0002
0013
,
0100
0000
0010
0000
0100
0010
0002
0000
0003
0000
0001
0010
0100
0001
1000
0100
,
0002
0000
0103
0002
0000
0103
0010
0000
2000
3010
0001
0000
0010
0000
2000
3010
,
0100
0000
0010
0000
0100
0010
2000
0000
3000
0000
1000
0010
0100
1000
0001
0100
,
2000
0000
3100
0001
0100
0010
0100
0000
2000
3100
0001
0000
0100
0000
2000
3100
,
0010
0000
0100
0000
0010
0100
2000
0000
3000
0000
1000
0100
0010
1000
0001
0010
,
2000
0000
3010
2000
0000
3010
0100
0000
0002
0103
1000
0000
0100
0000
0002
0103
,
0010
0000
0100
0000
0010
0100
2000
0000
3000
0000
1000
0100
0010
0001
1000
0010
,
0200
0000
0000
0000
0310
0000
0000
0000
0010
0000
1000
0000
0001
0000
1000
0000
0002
0000
0000
0000
1003
0100
1000
0000
2200
0000
3300
0000
0001
0100
0001
0100
,
0010
0000
1000
0100
1000
0100
0010
0000
0012
0000
1000
0000
1000
0000
1003
0000
1001
0000
0000
0000
1000
0000
1100
0000
0000
0000
0100
0000
0100
0010
0100
0010
,
0002
0000
0000
0000
0103
0010
0100
0010
1000
0000
0100
0000
0001
0000
0100
0000
2000
0000
0000
0000
3001
0100
0010
0000
0101
0000
0101
0000
1000
0100
1000
0100
,
0020
0000
0100
0000
0130
0000
1000
0000
1100
0000
0100
0000
1000
0000
1000
0000
1001
0000
0001
0000
0001
0100
0001
0000
0100
0000
0100
0000
0100
0010
1000
0010
,
2000
0000
0100
0000
3002
0000
0103
0000
1001
0000
0101
0000
1100
0000
0101
0000
0000
0000
0000
0000
0110
0000
0110
0000
1000
0010
0100
0000
1010
0000
1000
0000
,
0200
0000
1000
0000
1300
0001
0010
0000
1002
0000
0100
0000
0103
0001
0100
0001
1000
0000
1000
0000
0010
0000
0010
0000
0200
0000
0000
0000
0301
1000
0001
1000
,
0002
0000
0000
0000
0013
0100
0010
1000
0010
0000
0010
0100
0010
0000
0100
0000
1002
0000
1003
0000
0010
0100
0001
0000
2001
0000
0000
0000
3100
0010
0100
0010
,
0001
1000
0001
0100
0001
0000
0101
0000
1000
0001
1000
0100
1000
0000
0100
0000
1100
0000
1000
0000
0001
0000
0101
0000
1000
0000
0100
0000
0010
0100
0010
0100
,
0010
0001
0010
0001
1000
0000
1000
0010
2000
0000
3020
0000
0032
0000
0000
0000
0013
0000
0100
0000
0001
0000
0010
0000
0001
0000
1000
0000
0010
0000
1000
0000
,
0001
0010
0001
1000
0010
1000
0001
0010
0100
0010
0001
0100
0001
1000
0100
1000
,
0001
0100
0001
1000
0100
1000
0001
0100
0010
1000
0001
0100
0001
1000
0100
1000
,
0001
0010
0001
1000
0010
1000
0010
1000
0100
1000
0001
0010
0001
1000
0010
1000
,
0001
0000
0100
0000
0001
0000
1000
0000
0100
0000
1000
0000
0100
0000
1000
0000
0100
0000
0010
0000
0001
0000
0100
0000
0001
1000
0001
0000
0100
0000
0000
0000
,
0001
0000
0100
0000
0001
0000
1000
0000
0100
0010
0100
0000
1000
0000
0000
0000
0010
0000
0100
0000
0001
0000
0010
0000
0001
1000
0001
0000
0010
0000
0000
0000
,
0001
0000
0010
0000
0001
0000
1000
0000
0010
0100
0010
0000
1000
0000
0000
0000
0100
0000
1000
0000
0001
0000
0010
0000
0100
1000
0100
1000
0100
0000
1000
0000
,
0010
0000
0100
0000
0001
0000
1000
0000
0010
1000
0010
1000
0010
0000
1000
0000
0100
0000
0100
0000
0010
0000
0010
0000
0001
1000
0001
1000
0001
0000
1000
0000
,
0001
0000
0010
0000
0001
0000
1000
0000
0010
0000
0100
0000
0001
0010
0001
0010
0001
0000
0000
0000
0010
0000
0100
0000
0210
0000
0000
0000
0000
0000
0000
0000
,
1300
0010
0100
0001
1000
0000
0012
0000
0000
0000
0013
0000
1000
0000
2010
0000
,
0000
0000
3010
0000
0100
0000
2002
0000
3003
0000
1000
0100
0220
0000
0330
0000
,
0001
0100
0010
1000
0001
1000
1100
0000
0000
0000
0100
0010
0100
0000
1000
0000
,
1010
0000
0101
0000
0011
0000
1100
0000
2001
0000
3100
0010
0120
0000
0000
0000
,
0031
0100
0010
1000
0001
0000
2100
0000
0000
0000
3010
0000
0001
0000
0012
0000
,
0000
0000
0013
0000
1000
0000
2002
0000
3003
0000
0001
0010
0220
0000
0330
0000
,
1000
0010
0100
0001
1000
0001
0011
0000
0000
0000
0001
0100
0001
0000
0100
0010
,
0001
0010
1000
0010
0100
0010
1000
0001
1002
0000
0000
0000
0013
0000
0100
0000
,
1000
0000
0200
0000
1000
0000
0310
0000
0002
0000
0000
0023
0001
0000
0230
0000
,
0310
0000
0001
0010
0100
1000
0010
1000
1010
0000
0000
0101
0000
0000
1010
0000
,
0000
0101
0000
0000
1010
0000
0000
1100
0000
0000
0011
0000
0000
1000
0100
0010
,
2000
0000
0000
0000
0000
0000
3010
0000
0100
1000
0002
0000
1000
0000
0000
0000
0000
0000
0000
0000
0103
0000
0010
0000
0110
0000
0000
0000
0100
0000
0000
0000
,
0001
0100
0010
1000
0001
0000
2000
0000
0000
0000
3010
0000
0100
0000
0110
0000
,
0000
0000
0101
0000
0010
0000
2002
0000
3003
0000
0001
0010
0110
0000
0000
0000
,
0001
0100
0010
1000
0001
1000
1001
0000
0000
0000
1000
0100
0010
0100
1000
0100
,
1100
0000
0000
0000
1000
0000
0010
0000
0000
0000
0010
0000
1000
0000
0000
0000
1001
0000
0000
0000
1001
0000
0000
0000
0001
0100
0010
1000
0100
0000
1100
0000
,
0000
0000
2100
0000
0000
0000
3001
0000
0000
0000
0012
0000
0000
0000
0023
0000
0000
0000
0030
0000
0011
0000
0000
0000
0001
0010
0100
1000
0100
0010
0012
0000
,
0000
0000
0103
0000
0010
0000
0100
0000
0001
0010
0001
1000
0001
0100
0220
0000
0000
0000
0330
0000
0110
0000
0000
0000
0001
0010
0100
1000
0010
0100
0202
0000
,
0000
0000
0000
0000
0303
0000
1001
0000
0000
0000
2010
0000
0000
0000
3020
0000
0000
0000
0030
0000
1010
0000
0000
0000
0001
0100
0010
1000
0010
0100
0202
0000
,
0000
0000
0303
0000
0101
0000
0000
0000
0001
0010
0100
1000
0001
0010
0022
0000
0000
0000
0000
0000
0000
0000
0000
0000
0000
0000
0000
0000
0000
0000
0000
0000
,
0000
0000
0000
0000
,
0000
0000
0000
0033
;

//---------------dance-single - ----------------
#NOTEDATA:;
#CHARTNAME:;
#STEPSTYPE:dance-single;
#DESCRIPTION:;
#CHARTSTYLE:;
#DIFFICULTY:Beginner;
#METER:10;
#RADARVALUES:0.296137,0.426504,0.285205,0.361724,0.118256,298.000000,257.000000,41.000000,52.000000,0.000000,0.000000,0.000000,0.000000,0.000000,0.296137,0.426504,0.285205,0.361724,0.118256,298.000000,257.000000,41.000000,52.000000,0.000000,0.000000,0.000000,0.000000,0.000000;
#CREDIT:Karl with a K;
#OFFSET:1.282000;
#BPMS:0.000000=93.500000
,22.000000=187.000000
,54.000000=93.500000
,70.000000=187.000000
,174.000000=93.500000
,238.000000=187.000000
,302.000000=93.500000
;
#STOPS:;
#DELAYS:;
#WARPS:;
#TIMESIGNATURES:0.000000=4=4
;
#TICKCOUNTS:0.000000=4
;
#COMBOS:0.000000=1
;
#SPEEDS:0.000000=1.000000=0.000000=0
;
#SCROLLS:0.000000=1.000000
;
#FAKES:;
#LABELS:0.000000=Song Start
;
#NOTES:
// measure 0
0000
0000
0000
0000
,  // measure 1
0000
0000
0000
0000
,  // measure 2
0000
0000
0000
0000
,  // measure 3
0000
0000
0000
0000
0000
0000
0000
0000
1000
0000
0000
1000
0000
0000
1000
0000
,  // measure 4
0001
0000
0000
0001
0000
0000
0001
0000
1000
0000
1000
0000
0001
0000
0001
0000
,  // measure 5
0100
0010
1000
0100
1000
0000
0000
1000
,  // measure 6
0000
0000
0000
1000
0000
0000
0001
0000
,  // measure 7
1000
0000
0000
1000
0000
0000
0000
0000
0001
0000
0000
0000
0000
0000
0001
0000
,  // measure 8
0000
0000
0000
0001
0000
0000
1000
0000
,  // measure 9
0001
0000
0000
0001
0000
0000
0000
0000
1000
0000
0000
0010
0000
0000
1000
0000
,  // measure 10
0010
0100
0001
0010
,  // measure 11
0100
0000
1000
0000
0001
0000
0000
0001
,  // measure 12
0000
0000
0001
0000
1000
0000
0000
1000
,  // measure 13
0000
0002
2003
0000
,  // measure 14
3020
0000
0230
0000
,  // measure 15
0302
0000
0000
0000
1003
1000
0000
1000
,  // measure 16
0001
0001
0000
0001
0010
0010
0100
0100
,  // measure 17
0010
0000
0000
0010
0000
0000
0010
0000
0000
0000
0000
0000
0000
0000
0000
0000
0001
0000
0000
0000
0000
0000
0000
0000
0022
0000
0000
0000
0000
0000
0000
0000
,  // measure 18
0000
0000
0033
1000
0000
1010
0000
0010
,  // measure 19
0000
0110
0000
0202
0000
0303
0100
0000
,  // measure 20
0000
0010
0000
1000
0000
0000
0100
0000
,  // measure 21
0010
0001
1000
2020
,  // measure 22
0000
0000
3030
0001
0000
0011
0000
0010
,  // measure 23
0000
0110
0000
2200
0000
3300
0100
0000
,  // measure 24
0000
0010
0000
0001
0000
0000
0100
0000
,  // measure 25
0010
1000
2000
3000
,  // measure 26
1000
1000
0002
0003
,  // measure 27
0001
0001
0110
0000
,  // measure 28
0110
0000
0110
0000
,  // measure 29
1001
0000
0000
1000
0000
0000
1000
0000
,  // measure 30
0000
0000
0000
0001
0000
0001
0000
0011
,  // measure 31
0000
1100
0000
2002
0000
3003
1001
0000
,  // measure 32
0000
0000
0000
1100
0000
0000
0100
0000
,  // measure 33
1000
0100
0020
0000
,  // measure 34
0000
0000
0032
0203
,  // measure 35
0310
0000
0000
0000
1000
0000
0000
1000
,  // measure 36
0000
0000
0000
1000
0000
0000
0001
0000
,  // measure 37
1000
0000
0000
1000
0000
0000
0000
0000
0001
0000
0000
0000
0000
0000
0001
0000
,  // measure 38
0000
0000
0000
0001
0000
0000
1000
0000
,  // measure 39
0001
0000
0000
0001
0000
0000
0000
0000
0010
0000
0000
0000
0000
0000
0010
0000
,  // measure 40
0000
0000
0000
0010
0000
0000
0100
0000
,  // measure 41
0010
0000
0000
0010
0000
0000
0000
0000
0100
0000
0000
0000
0000
0000
0100
0000
,  // measure 42
0000
0000
0000
0100
0000
0000
2000
0000
,  // measure 43
3002
0003
1000
1010
,  // measure 44
0001
0000
0000
0000
0011
0000
0000
0000
1000
0000
0000
1100
0000
0001
0000
0001
,  // measure 45
0000
0000
0000
0000
0202
0000
0303
0000
0001
0000
0000
0010
0001
0000
0000
0000
,  // measure 46
1000
1010
0001
0001
,  // measure 47
1000
0010
1000
0100
0000
1100
0001
0000
,  // measure 48
1000
1100
0001
0020
,  // measure 49
0030
0000
0010
0001
1000
0000
1100
0000
,  // measure 50
0001
0000
0000
0000
0101
0000
0000
0000
1010
0000
0000
1001
0000
0001
0000
1000
,  // measure 51
0000
0100
2000
3000
,  // measure 52
0200
0300
0020
0030
,  // measure 53
0002
0003
2000
3000
,  // measure 54
0020
0030
0200
0300
,  // measure 55
0002
0003
0020
0030
,  // measure 56
0200
0300
2000
3000
,  // measure 57
0002
0003
0200
0300
,  // measure 58
0020
0030
1000
1000
,  // measure 59
0001
0001
1000
2200
,  // measure 60
0000
0000
3300
0001
0000
0101
0000
0100
,  // measure 61
0000
0110
0000
2020
0000
3030
0010
0000
,  // measure 62
0000
0100
0000
0001
0000
0000
0010
0000
,  // measure 63
0100
1000
0001
0202
,  // measure 64
0000
0000
0303
1000
0000
1100
0000
0100
,  // measure 65
0000
0110
0000
0022
0000
0033
0010
0000
,  // measure 66
0000
0100
0000
1000
0000
0000
0010
0000
,  // measure 67
0100
0001
0002
0003
,  // measure 68
0001
0001
2000
3000
,  // measure 69
1000
0000
0000
0000
1000
0000
0000
0000
0100
0000
0000
0100
0000
0000
0100
0000
,  // measure 70
0000
0100
0000
0000
0100
0000
0000
0010
0000
0000
0010
0000
0000
0010
0000
0000
,  // measure 71
0010
0000
0000
0001
0000
0000
0001
0000
,  // measure 72
0000
0000
0000
1000
0000
1000
0000
1010
,  // measure 73
0000
0101
0000
2002
0000
3003
1001
0000
,  // measure 74
0000
0000
0000
0101
0000
0000
0100
0000
,  // measure 75
0001
0000
0000
0000
0100
0000
0000
0000
0010
0000
0000
0000
0000
0000
0000
1000
,  // measure 76
0000
1000
0000
0001
0000
0001
0000
0010
0000
0000
0000
0000
0000
0000
0000
0010
,  // measure 77
0000
0000
0000
0000
0000
0000
0000
0100
0000
0000
0000
0000
0000
0000
0000
1000
,  // measure 78
0000
0000
0000
1000
0000
1000
0000
0010
0000
0000
0010
0000
0000
0000
0000
0010
,  // measure 79
0000
0000
0010
0000
0000
0000
0000
0020
0000
0000
0000
0000
0000
0000
0000
0000
,  // measure 80
0000
0000
0000
0000
,  // measure 81
0000
0000
0000
0030
;

//---------------dance-single - XO- DS JA XMOD JU+----------------
#NOTEDATA:;
#CHARTNAME:;
#STEPSTYPE:dance-single;
#DESCRIPTION:XO- DS JA XMOD JU+;
#CHARTSTYLE:;
#DIFFICULTY:Hard;
#METER:18;
#RADARVALUES:0.808910,1.222645,0.486936,0.486936,0.959960,814.000000,744.000000,70.000000,70.000000,0.000000,0.000000,0.000000,0.000000,0.000000,0.808910,1.222645,0.486936,0.486936,0.959960,814.000000,744.000000,70.000000,70.000000,0.000000,0.000000,0.000000,0.000000,0.000000;
#CREDIT:Karl with a K;
#OFFSET:1.282000;
#BPMS:0.000000=93.500000
,22.000000=187.000000
,54.000000=93.500000
,70.000000=187.000000
,174.000000=93.500000
,238.000000=187.000000
,302.000000=93.500000
;
#STOPS:;
#DELAYS:;
#WARPS:;
#TIMESIGNATURES:0.000000=4=4
;
#TICKCOUNTS:0.000000=4
;
#COMBOS:0.000000=1
;
#SPEEDS:0.000000=1.000000=0.000000=0
;
#SCROLLS:0.000000=1.000000
;
#FAKES:;
#LABELS:0.000000=Song Start
;
#NOTES:
0000
0000
0000
0000
,
0000
0000
0000
0000
,
0000
0000
0000
0000
,
0000
0000
0000
0000
0000
0000
0000
0000
1010
0010
0100
0101
0001
0010
0011
0000
,
0011
0000
0010
0000
0100
0000
1100
0000
1000
0000
0010
0000
1010
0000
0000
0000
0001
0100
0001
0000
1000
0100
1000
0000
0001
0010
0001
0000
1000
0010
1000
0000
,
0001
0000
1000
0000
0001
0000
1000
0100
0010
0001
1000
0000
1001
0000
0000
0000
1000
0000
0100
0000
0010
0000
0000
0000
0100
0000
0000
0000
0001
0000
0100
0000
,
0000
0000
1000
0000
0010
0000
0100
0001
0000
0000
0001
0000
0100
0010
1000
0000
,
0001
0000
0010
0100
0000
1000
0001
0000
0001
0100
0010
0000
0100
0000
1000
0100
,
0000
0000
0001
0000
0010
0000
0100
1000
0000
0000
1000
0000
0100
0010
0001
0000
,
1000
0000
0010
0100
0000
0001
1000
0000
0001
0000
0000
0101
0000
0000
1000
0010
,
1000
0001
1000
0100
0010
0001
0100
0010
1000
0100
0000
0010
0001
0000
1000
0100
,
0010
0001
0200
0000
1300
0100
0010
1000
0002
0000
0000
0013
0001
0000
1000
0000
,
0000
0000
1000
0000
0010
0000
1000
0000
2001
0000
0000
3010
1000
0000
0001
0000
,
1000
0000
0100
1000
0001
0010
0001
0010
0001
0000
0100
0010
0000
1000
0000
0001
,
0000
0010
0000
0100
0000
0010
0100
0000
1000
0000
0010
0100
0000
0001
0000
1000
,
0000
0100
0000
0010
0000
0001
0000
0100
0001
0000
0011
0000
0000
0100
1100
0000
,
1000
0000
0000
0000
1010
0000
0000
0000
0000
0000
0100
0000
0101
0000
0000
0000
0011
0000
0000
0001
0010
0000
0110
0000
0000
0100
1000
0000
0001
0100
0001
0100
,
0001
0000
0000
1000
0000
0000
1001
0000
0000
0000
0000
0000
0000
0000
0000
0000
0100
0000
0000
0000
0000
0000
0000
0000
0110
0000
0000
0000
0000
0000
0000
0000
,
1000
0100
0010
0001
0100
0000
0210
0000
0000
0000
0301
0000
0000
0000
0021
0000
,
0000
0000
0130
0000
0000
0000
2002
0000
3003
0000
1000
0001
1000
0000
0000
0000
,
0010
0100
0001
0100
0010
1000
0001
0000
0000
0000
1000
0000
1000
0000
0100
0000
,
0010
0010
0010
0010
0001
0000
0011
0000
,
0001
0100
0010
1000
0100
0000
0210
0000
0000
0000
1300
0000
0000
0000
1020
0000
,
0000
0000
0130
0000
0000
0000
2002
0000
3003
0000
1000
0001
1000
0000
0000
0000
,
0100
0010
0001
0010
0100
1000
0001
0000
0000
0000
1000
0000
1000
0000
0010
0000
,
0100
0001
0100
0001
1000
0100
0001
0100
2000
0000
0000
0000
0010
0000
0000
0000
,
3002
0000
0023
0000
0000
0000
2030
0000
3020
0000
0000
0230
0000
0000
0320
0000
,
0230
0000
0000
0320
0000
0000
0031
0000
0011
0000
0000
1010
0000
0000
0001
0010
,
0100
1000
0100
0010
0001
1000
0010
1000
0010
0000
0000
1010
0000
0000
0210
0000
,
2300
0000
3200
0000
0302
0000
2003
0000
0000
0000
3001
0100
0001
0000
0000
0000
,
1000
0010
0100
0001
1000
0000
0002
0000
0000
0000
1003
0100
0010
0000
0011
0000
,
0000
0000
1001
0000
0000
0000
1100
0000
0000
0000
0001
1000
0001
0000
0000
0000
,
0100
0010
1000
0010
0100
0001
0100
0000
0000
0000
0001
0010
0001
0010
0001
0000
,
1000
0000
0010
1000
0000
0010
1000
0000
0100
0010
0100
0010
0100
0010
0100
0010
,
0001
0100
0010
1000
0010
0100
0001
0000
0100
0010
0100
0010
0100
0010
0100
0010
,
0000
0000
0000
0000
0000
0000
0000
0000
1000
0010
0100
0000
0010
0000
0001
0010
,
0000
0000
1000
0000
0100
0000
0010
0001
0000
0000
0001
0000
0010
0100
1000
0000
,
0001
0000
0100
0010
0000
1000
0001
0000
0001
0010
0100
0000
0010
0000
1000
0010
,
0000
0000
0001
0000
0100
0000
0010
1000
0000
0000
1000
0000
0010
0100
0001
0000
,
1000
0000
0100
0010
0000
0001
1000
0000
0001
0010
0100
0000
0010
0000
1000
0010
,
0000
0000
0001
0000
0100
0000
0010
1000
0000
0000
1000
0000
0010
0100
0001
0000
,
1000
0000
0100
0010
0000
0001
1000
0000
1000
0010
0100
0000
0010
0000
0001
0010
,
0000
0000
1000
0000
0100
0000
0010
0100
0000
0000
0100
0000
0010
0100
0010
0000
,
0001
0000
0100
0000
0010
1000
0010
1000
0200
0000
0010
0010
0310
0000
0110
0100
,
0010
0001
0100
0001
0020
0000
0031
0001
1100
0000
0001
0101
0100
0000
0010
0010
,
0002
0000
0000
0000
0000
0000
0013
0100
0010
0000
0010
0000
1000
0000
0001
0000
0200
0000
0000
0000
0010
0000
0001
0000
0310
0000
0100
0000
0110
0000
0000
0000
,
0010
1000
0100
1000
0020
0000
1030
1000
0011
0010
0001
1000
1010
0010
1000
0001
,
0101
0100
0010
1000
0100
0100
0100
0100
0000
0000
0110
0010
0001
0100
0010
0000
,
0010
0000
1000
0000
0100
0000
1000
0000
0020
0000
0000
0000
1030
0000
1000
0000
0001
0000
0100
0000
0001
0000
0100
0000
0020
0000
0000
0000
1030
0100
0000
0000
,
0100
0000
0000
0000
0020
0000
2030
0000
3010
0000
0010
0100
0010
0000
0001
0000
2100
0000
3200
0000
0010
0000
1000
0000
0310
0000
0100
0000
0110
0000
0000
0000
,
0010
0001
0100
0001
0020
0000
0031
0001
1010
0010
1000
0011
0010
0001
1000
1000
,
0020
0000
0032
0000
0023
0000
2030
0000
3001
0000
0010
0000
0100
0010
0100
0000
,
1000
0000
0010
0000
0100
0010
0100
0000
0001
0000
1000
0000
0100
0010
0100
0000
,
1000
0000
0010
0000
0100
0010
0100
0000
0001
0000
0010
0000
0001
0100
0010
0000
,
1000
0000
0010
0000
1000
0100
0010
0000
0001
0000
1000
0000
0001
0100
0010
0000
,
1000
0000
0000
0000
0010
0000
0000
0000
1000
0000
0100
0000
0010
0000
0000
0000
0001
0000
0000
0000
0010
0000
0000
0000
0100
0010
0001
0000
0010
0000
0000
0000
,
0001
0000
0000
0000
0100
0000
0000
0000
0010
0100
0001
0000
0100
0000
0000
0000
0001
0000
0000
0000
1000
0000
0000
0000
0100
1000
0100
0000
0010
0000
0000
0000
,
0001
0000
0000
0000
1000
0000
0000
0000
0010
1000
0010
0000
0100
0000
0000
0000
0001
0000
0000
0000
0001
0000
0000
0000
0100
0010
1000
0000
0010
0000
0000
0000
,
1000
0000
0000
0000
1000
0000
0000
0000
0100
0010
0001
0000
0100
0000
0000
0000
0001
0000
0001
0000
0001
0000
0001
0000
1000
0000
1000
0000
1000
0000
1000
0000
,
0001
0000
0010
0000
0100
0000
1000
0000
0001
0000
0100
0000
1000
0100
0010
0100
0010
0000
0000
0000
0000
0000
0000
0000
0110
0000
0000
0000
0000
0000
0000
0000
,
0001
0100
0010
1000
0100
0000
0210
0000
0000
0000
1300
0000
0000
0000
1020
0000
,
0000
0000
0130
0000
0000
0000
2002
0000
3003
0000
0001
1000
0001
0000
0000
0000
,
0010
0100
1000
0100
0010
0001
1000
0000
0000
0000
0001
0000
0001
0000
0100
0000
,
0010
0010
0010
0010
1000
0000
1010
0000
,
1000
0100
0010
0001
0100
0000
0210
0000
0000
0000
0301
0000
0000
0000
0021
0000
,
0000
0000
0130
0000
0000
0000
2002
0000
3003
0000
0001
1000
0001
0000
0000
0000
,
0100
0010
1000
0010
0100
0001
1000
0000
0000
0000
0001
0000
0001
0000
0010
0000
,
0100
1000
0100
1000
0001
0100
0001
0100
0002
0000
0000
0000
0010
0000
0000
0000
,
2003
0000
3020
0000
0000
0000
0032
0000
0023
0000
0000
0230
0000
0000
0302
0000
,
0023
0000
0000
0230
0000
0000
0310
0000
1100
0000
0000
1100
0000
0000
1100
0000
,
0000
1100
0000
0000
1100
0000
0000
0011
0000
0000
0011
0000
0000
0010
0100
0010
,
0002
0000
0000
0203
0000
0000
0302
0000
0000
0000
1003
0100
1000
0000
0000
0000
,
0001
0010
0100
1000
0001
0000
2000
0000
0000
0000
3001
0000
0000
0000
1010
0000
,
0000
0000
1001
0000
0001
0000
0101
0000
0000
0000
1000
0001
1000
0000
0000
0000
,
0100
0010
0001
0010
0100
1000
0100
0000
0000
0000
1000
0010
1000
0010
1000
0000
,
0001
0000
0010
0001
0000
0010
0001
0000
0100
0000
0100
0000
0010
0010
0010
1000
,
0000
1100
0000
0110
0000
0012
0000
2000
0000
3003
1001
0000
1000
1000
0001
1001
,
0000
1000
0010
0100
0010
0010
1000
0100
0000
0000
0100
0000
0010
0010
0010
0002
,
0000
0000
0003
0101
0000
0120
0000
2030
0000
0000
3001
0000
0001
0001
1000
1001
,
0000
0000
1002
0000
0013
0100
1000
0020
0000
0000
0000
0000
0000
0000
0000
0000
,
0000
0000
0000
0000
,
0000
0000
0000
0030
;

//---------------dance-single - XO- DS JA XMOD JU----------------
#NOTEDATA:;
#CHARTNAME:;
#STEPSTYPE:dance-single;
#DESCRIPTION:XO- DS JA XMOD JU;
#CHARTSTYLE:;
#DIFFICULTY:Medium;
#METER:15;
#RADARVALUES:0.625067,0.739274,0.229556,0.340855,0.490414,629.000000,596.000000,33.000000,49.000000,0.000000,0.000000,0.000000,0.000000,0.000000,0.625067,0.739274,0.229556,0.340855,0.490414,629.000000,596.000000,33.000000,49.000000,0.000000,0.000000,0.000000,0.000000,0.000000;
#CREDIT:Karl with a K;
#OFFSET:1.282000;
#BPMS:0.000000=93.500000
,22.000000=187.000000
,54.000000=93.500000
,70.000000=187.000000
,174.000000=93.500000
,238.000000=187.000000
,302.000000=93.500000
;
#STOPS:;
#DELAYS:;
#WARPS:;
#TIMESIGNATURES:0.000000=4=4
;
#TICKCOUNTS:0.000000=4
;
#COMBOS:0.000000=1
;
#SPEEDS:0.000000=1.000000=0.000000=0
;
#SCROLLS:0.000000=1.000000
;
#FAKES:;
#LABELS:0.000000=Song Start
;
#NOTES:
// measure 0
0000
0000
0000
0000
,  // measure 1
0000
0000
0000
0000
,  // measure 2
0000
0000
0000
0000
,  // measure 3
0000
0000
0000
0000
0000
0000
0000
0000
1010
0000
0000
1000
0000
0000
0001
0000
,  // measure 4
0011
0000
0000
0001
0000
0000
1000
0000
0010
0000
0010
0000
0100
0000
0100
0000
,  // measure 5
0001
0000
0000
0000
0010
0000
0100
0000
1000
0100
1000
0000
0100
0000
0000
0000
1000
0000
0100
0000
0010
0000
0000
0000
0100
0000
0000
0000
1000
0000
0100
0000
,  // measure 6
0000
0000
0100
0000
0010
0000
0001
0100
0000
0000
0001
0000
0010
0000
0010
0000
,  // measure 7
0100
0000
0100
0010
0000
0100
0010
0000
0001
0100
0010
0000
0100
0000
0001
0100
,  // measure 8
0000
0000
0100
0000
0010
0000
1000
0100
0000
0000
1000
0000
0010
0000
0010
0000
,  // measure 9
0100
0000
0100
0010
0000
0100
0010
0000
1000
0000
0000
1000
0000
0000
0001
0010
,  // measure 10
0001
0100
0010
1000
0010
0100
1000
0100
,  // measure 11
0001
0000
0100
0000
0010
0100
0010
0100
0010
0000
0000
0010
1000
0000
0001
0000
,  // measure 12
0000
0000
0001
0000
1000
0000
0001
0000
0010
0000
0000
0001
1000
0000
0100
0000
,  // measure 13
0001
0000
0100
0000
0010
0000
0001
0000
0200
0000
0000
0001
0000
0001
0000
0010
,  // measure 14
0000
0010
0000
0302
0000
0013
0100
0000
0200
0000
0000
1000
0000
1000
0000
0010
,  // measure 15
0000
1000
0000
0001
0000
0010
0000
1300
0100
0000
0010
0000
0000
0001
1000
0000
,  // measure 16
0010
0000
0000
0000
0100
0000
0000
0000
0000
0000
0001
0000
1000
0000
0000
0000
0010
0000
0000
0100
0000
0000
0110
0000
0000
0000
0010
0000
0100
0000
0001
0000
,  // measure 17
0010
0000
0000
0010
0000
0000
0010
0000
0001
0000
0100
0000
0001
0000
0100
0000
0010
0000
0000
0000
0000
0000
0000
0000
1010
0000
0000
0000
0000
0000
0000
0000
,  // measure 18
1000
0100
0010
0012
0000
1003
0000
2010
,  // measure 19
0000
3001
0000
0101
0000
1000
0100
0000
,  // measure 20
0100
0010
0001
0100
0000
0010
0010
0010
,  // measure 21
1000
1000
0001
0001
0010
0000
0011
0000
,  // measure 22
0001
0100
0010
2010
0000
3100
0000
0012
,  // measure 23
0000
0103
0000
0101
0000
1000
0100
0000
,  // measure 24
0100
0010
0001
0100
0000
0010
0010
0010
,  // measure 25
1000
0010
1000
0000
0001
0010
0001
0000
2000
0000
0000
0000
0010
0000
0000
0000
,  // measure 26
0001
0010
3002
0010
,  // measure 27
1000
0000
0000
0000
0013
0000
0000
0000
0001
0000
0000
1000
0000
0000
1001
0000
,  // measure 28
1000
0000
0010
0000
0100
0000
0001
0000
1000
0000
0000
0001
0000
0000
2001
0000
,  // measure 29
3020
0032
0000
0023
0000
0130
0110
0000
,  // measure 30
0001
0010
0001
0000
0100
0000
0020
0000
0000
0000
1030
0100
1000
0000
1001
0000
,  // measure 31
0000
0110
0000
2001
0000
3001
1000
0000
,  // measure 32
0100
0010
0001
1001
0000
1000
1000
1000
,  // measure 33
0010
0000
0100
0010
0000
0100
0010
0000
1000
0100
1000
0000
0100
0000
0010
0000
,  // measure 34
0100
0000
1000
0000
0010
0000
0100
0000
0010
1000
0010
0000
1000
0000
0100
0000
,  // measure 35
0010
0000
0000
0000
0000
0000
0000
0000
0001
0010
0100
0000
0010
0000
0001
0010
,  // measure 36
0000
0000
0010
0000
0100
0000
1000
0010
0000
0000
1000
0000
0100
0000
0100
0000
,  // measure 37
0010
0000
0010
0100
0000
0010
0100
0000
1000
0010
0100
0000
0010
0000
1000
0010
,  // measure 38
0000
0000
0010
0000
0100
0000
0001
0010
0000
0000
0001
0000
0100
0000
0100
0000
,  // measure 39
0010
0000
0010
0100
0000
0010
0100
0000
0001
0100
0010
0000
0100
0000
0001
0100
,  // measure 40
0000
0000
0100
0000
0010
0000
1000
0100
0000
0000
1000
0000
0010
0000
0010
0000
,  // measure 41
0100
0000
0100
0010
0000
0100
0010
0000
1000
0100
0010
0000
0100
0000
1000
0100
,  // measure 42
0000
0000
0100
0000
0010
0000
0001
0100
0000
0000
0001
0000
0010
0000
1000
0000
,  // measure 43
0010
0000
0100
0000
0010
0001
0010
0000
0001
0000
1000
0001
1000
0000
1000
0000
,  // measure 44
1000
0100
0010
0001
0010
0000
0001
0000
1000
0000
0010
0100
0010
0100
0001
0001
,  // measure 45
0020
0000
0000
0031
0001
0010
0100
1000
0001
0000
1000
0010
1000
0100
1000
0000
,  // measure 46
1000
0010
0100
0001
0100
0000
0001
0000
2000
0000
3200
0000
0320
0000
0032
0000
,  // measure 47
0103
0001
0010
0001
0100
0100
0010
0010
0000
0000
1001
0000
0001
1000
0001
0000
,  // measure 48
0001
0010
0100
1000
0100
0000
1000
0000
0001
0000
0100
0010
0020
0000
1030
1000
,  // measure 49
0200
0000
1000
0000
1300
0100
0010
0001
1000
0000
0001
0100
0001
0010
0001
0000
,  // measure 50
0001
0100
0010
1000
0010
0000
1000
0000
0011
0000
0010
0100
0000
0100
1000
1000
,  // measure 51
0020
0230
0320
0230
0302
0100
0000
1000
,  // measure 52
2003
0100
0000
0001
3002
0010
0000
1000
,  // measure 53
0203
0010
0000
0001
0302
0010
0000
1000
,  // measure 54
2003
0010
0000
0001
3002
0100
0000
1000
,  // measure 55
0023
0100
0000
0031
1000
0100
0010
0010
,  // measure 56
0001
0100
0010
0010
1000
0010
0100
0100
,  // measure 57
0001
0000
0010
0000
0100
0000
0100
0000
1000
0000
0010
0000
0100
0001
1000
0000
,  // measure 58
0100
0000
1000
0000
0010
1000
0001
0000
1000
0000
1000
0000
0001
0000
0001
0000
,  // measure 59
0100
0000
0001
0010
0001
0010
0100
0010
0001
0000
0000
0000
0101
0000
0000
0000
,  // measure 60
0001
0010
0100
2100
0000
3001
0000
0102
,  // measure 61
0000
1003
0000
1010
0000
0001
0010
0000
,  // measure 62
0010
0100
1000
0010
0000
0100
0100
0100
,  // measure 63
0001
0001
1000
1000
0100
0000
1100
0000
,  // measure 64
1000
0010
0100
0102
0000
0013
0000
2100
,  // measure 65
0000
3010
0000
1010
0000
0001
0010
0000
,  // measure 66
0010
0100
1000
0010
0000
0100
0100
0100
,  // measure 67
0001
0100
0001
0000
1000
0100
1000
0000
0002
0000
0000
0000
0100
0000
0000
0000
,  // measure 68
1000
0100
2003
0100
,  // measure 69
3001
0000
0100
0000
0001
0000
1000
0000
0100
0000
0000
0100
0000
0000
0100
0000
,  // measure 70
0000
0100
0000
0000
0100
0000
0000
0010
0000
0000
0010
0000
0000
0010
0001
0010
,  // measure 71
0002
0000
0000
0203
0000
0000
0320
0000
0000
0000
0130
0000
0110
0000
0000
0000
,  // measure 72
1000
0010
1000
0000
0100
0000
0020
0000
0000
0000
0031
0000
0100
0000
1001
0000
,  // measure 73
0000
0110
0000
1002
0000
1003
0001
0000
,  // measure 74
0010
0100
1000
1001
0000
0001
0001
0001
,  // measure 75
0010
0000
0100
0010
0000
0100
0010
0000
0001
0000
0001
0000
1000
0010
0100
0001
,  // measure 76
0000
1000
0000
0010
0000
0010
0000
0020
0000
0030
0010
0000
1000
0100
0010
0001
,  // measure 77
0000
0001
0010
0001
0100
0010
1000
0001
0000
0000
0001
0000
1000
0100
0010
0002
,  // measure 78
0000
0000
0003
1000
0000
0010
0000
0200
0000
0000
0310
0000
1000
0010
0100
0001
,  // measure 79
0000
0000
0001
0000
0010
0100
1000
0200
0000
0000
0000
0000
0000
0000
0000
0000
,  // measure 80
0000
0000
0000
0000
,  // measure 81
0000
0000
0000
0300
;

//---------------dance-single - XO- DS- JA XMOD JU----------------
#NOTEDATA:;
#CHARTNAME:;
#STEPSTYPE:dance-single;
#DESCRIPTION:XO- DS- JA XMOD JU;
#CHARTSTYLE:;
#DIFFICULTY:Easy;
#METER:12;
#RADARVALUES:0.463086,0.540238,0.153037,0.368680,0.166950,466.000000,444.000000,22.000000,53.000000,0.000000,0.000000,0.000000,0.000000,0.000000,0.463086,0.540238,0.153037,0.368680,0.166950,466.000000,444.000000,22.000000,53.000000,0.000000,0.000000,0.000000,0.000000,0.000000;
#CREDIT:Karl with a K;
#OFFSET:1.282000;
#BPMS:0.000000=93.500000
,22.000000=187.000000
,54.000000=93.500000
,70.000000=187.000000
,174.000000=93.500000
,238.000000=187.000000
,302.000000=93.500000
;
#STOPS:;
#DELAYS:;
#WARPS:;
#TIMESIGNATURES:0.000000=4=4
;
#TICKCOUNTS:0.000000=4
;
#COMBOS:0.000000=1
;
#SPEEDS:0.000000=1.000000=0.000000=0
;
#SCROLLS:0.000000=1.000000
;
#FAKES:;
#LABELS:0.000000=Song Start
;
#NOTES:
// measure 0
0000
0000
0000
0000
,  // measure 1
0000
0000
0000
0000
,  // measure 2
0000
0000
0000
0000
,  // measure 3
0000
0000
0000
0000
0000
0000
0000
0000
1000
0000
0000
0100
0000
0000
1000
0000
,  // measure 4
0001
0000
0000
0100
0000
0000
0001
0000
1000
0000
0010
0000
0100
0000
0001
0000
,  // measure 5
1000
0100
1000
0000
0100
0000
0100
0000
1000
0000
0100
0000
0010
0000
0001
0000
,  // measure 6
0000
0100
0010
1000
0000
0100
0010
0100
,  // measure 7
1000
0000
0000
1001
0000
0000
1000
0000
0001
0000
0100
0000
0010
0000
1000
0000
,  // measure 8
0000
0100
0010
0001
0000
0100
0010
0100
,  // measure 9
0001
0000
0000
1001
0000
0000
0001
0000
1001
0000
0000
0110
0000
0000
0010
0000
,  // measure 10
1000
0100
0010
0100
1000
0001
0020
0000
,  // measure 11
0031
0100
0010
1000
0001
0000
1000
0100
,  // measure 12
0000
0000
1100
0000
0001
0000
0100
0001
,  // measure 13
0000
0000
0001
0000
0100
0000
0001
0000
2000
0000
0000
0000
0000
0000
0000
0010
,  // measure 14
0000
0010
0000
0002
3000
0000
1000
0000
1000
0000
0000
0000
0000
0000
0000
0100
,  // measure 15
0000
1000
0000
0020
0003
0100
0000
0000
0130
0000
0010
0000
0001
0000
0100
0000
,  // measure 16
0010
0000
0100
0000
0001
0000
0010
0000
0001
0000
1000
0001
0000
1000
0001
0000
,  // measure 17
0100
0000
0000
0100
0000
0000
0100
0000
0000
0000
0000
0000
0000
0000
0000
0000
0001
0000
0000
0000
0000
0000
0000
0000
1001
0000
0000
0000
0000
0000
0000
0000
,  // measure 18
1000
0100
0010
0002
0000
0103
0000
0020
,  // measure 19
0000
0130
0000
0002
0000
0103
0010
0000
,  // measure 20
1000
0100
0010
0001
0000
0010
0001
0100
,  // measure 21
0010
0100
0010
0100
0001
0000
1001
0000
,  // measure 22
1000
0010
0100
0002
0000
0013
0000
0200
,  // measure 23
0000
0310
0000
0002
0000
0013
0100
0000
,  // measure 24
1000
0010
0100
0001
0000
0100
0001
0010
,  // measure 25
0100
0010
0100
0100
2000
0000
0001
0000
,  // measure 26
0000
0010
3002
1000
,  // measure 27
0000
0000
0000
0000
0013
0000
0000
0000
0001
0000
0000
1000
0000
0000
0001
0000
,  // measure 28
1000
0000
0000
0100
0000
0000
0010
0000
0010
0000
0000
0001
0000
0000
0100
0000
,  // measure 29
0020
0000
0000
1030
0000
0000
1001
0000
,  // measure 30
1000
0010
0100
0002
0000
1003
0000
1001
,  // measure 31
0000
0110
0000
2002
0000
3003
1001
0000
,  // measure 32
1000
0100
0010
0100
0000
0010
0001
1000
,  // measure 33
0010
0000
0000
0010
0000
0000
0010
0000
0002
0000
0000
0000
0023
0000
0000
0000
,  // measure 34
2030
3200
0302
0203
,  // measure 35
1300
0000
0000
0000
0001
0100
0010
1000
,  // measure 36
0000
0100
0010
0001
0000
0100
0010
0100
,  // measure 37
0001
0000
0000
1001
0000
0000
0001
0000
1000
0000
0100
0000
0010
0000
0001
0000
,  // measure 38
0000
0100
0010
1000
0000
0100
0010
0100
,  // measure 39
1000
0000
0000
1001
0000
0000
0001
0000
1000
0000
0010
0000
0100
0000
0001
0000
,  // measure 40
0000
0010
0100
1000
0000
0010
0100
0010
,  // measure 41
1000
0000
0000
1001
0000
0000
1000
0000
0001
0000
0010
0000
0100
0000
1000
0000
,  // measure 42
0000
0010
0100
0001
0000
0010
0100
0010
,  // measure 43
0002
0000
2003
0000
3001
0100
0100
0100
,  // measure 44
0010
1000
0010
1000
0100
0010
0001
1000
,  // measure 45
0020
0000
0000
0000
1030
0000
1000
0000
1000
0000
0100
0000
0100
1000
0100
0000
,  // measure 46
0010
0001
0100
0001
0020
0000
0032
0000
,  // measure 47
0203
0000
0010
0000
0301
0000
0001
0000
0000
0000
0001
0100
0001
0000
0001
0000
,  // measure 48
1000
0010
1000
0010
0100
0010
1000
0001
,  // measure 49
0200
0000
0320
0000
1030
0000
1000
0000
1000
0000
0010
1000
0010
0000
0010
0000
,  // measure 50
1000
0000
0100
0000
0010
0000
0001
0000
0010
0000
0001
0100
0000
0100
0001
0000
,  // measure 51
0020
0230
0320
0001
,  // measure 52
0032
1000
2003
0100
,  // measure 53
3200
1300
0020
1000
,  // measure 54
2030
0001
3002
0100
,  // measure 55
0203
0000
0301
0000
0010
0000
0100
0010
,  // measure 56
0001
0000
0100
0010
1000
0000
0100
0010
,  // measure 57
0001
0000
0100
0010
1000
0000
0001
0100
,  // measure 58
0001
0000
1000
0100
1000
0000
1000
0000
,  // measure 59
0001
0000
0001
1000
0001
0000
1001
0000
,  // measure 60
0001
0100
0010
2000
0000
3100
0000
0020
,  // measure 61
0000
0130
0000
2000
0000
3100
0010
0000
,  // measure 62
0001
0100
0010
1000
0000
0010
1000
0100
,  // measure 63
0010
0100
0010
0100
1000
0000
1001
0000
,  // measure 64
0001
0010
0100
2000
0000
3010
0000
0200
,  // measure 65
0000
0310
0000
2000
0000
3010
0100
0000
,  // measure 66
0001
0010
0100
1000
0000
0100
1000
0010
,  // measure 67
0100
0010
0100
0100
0002
0000
1000
0000
,  // measure 68
0000
0010
2003
0001
,  // measure 69
0000
0000
0000
0000
0010
0000
0000
0000
3010
0000
0000
0010
0000
0000
0010
0000
,  // measure 70
0000
0010
0000
0000
0010
0000
0000
0100
0000
0000
0100
0000
0000
0100
0000
0000
,  // measure 71
0200
0000
0301
1000
0000
0000
1001
0000
,  // measure 72
1000
0100
0010
0002
0000
1003
0000
1001
,  // measure 73
0000
0110
0000
2002
0000
3003
1001
0000
,  // measure 74
1000
0010
0100
0010
0000
0100
0001
1000
,  // measure 75
0100
0000
0000
0100
0000
0000
0100
0000
1000
0000
1000
0000
0001
0000
0000
0100
,  // measure 76
0000
0100
0000
0010
0000
0010
0000
1000
0000
0000
1000
0000
0001
0000
0000
1000
,  // measure 77
0000
1000
0000
0000
0100
0000
0010
0001
0000
0000
0001
0000
1000
0000
0000
0100
,  // measure 78
0000
0000
0000
0010
0000
0010
0000
0001
0000
0000
0001
0000
1000
0000
0000
0001
,  // measure 79
0000
0000
0001
0000
0100
0000
0010
2000
0000
0000
0000
0000
0000
0000
0000
0000
,  // measure 80
0000
0000
0000
0000
,  // measure 81
0000
0000
0000
3000
;
