#VERSION:0.83;
#TITLE:Ludus In Tenebris;
#SUBTITLE:;
#ARTIST:Akhuta;
#TITLETRANSLIT:;
#SUBTITLETRANSLIT:;
#ARTISTTRANSLIT:;
#GENRE:LIAISON;
#CREDIT:;
#MUSIC:Ludus In Tenebris.ogg;
#BANNER:Ludus In Tenebris.png;
#BACKGROUND:Ludus In Tenebris-bg.png;
#CDTITLE:;
#SAMPLESTART:79.062;
#SAMPLELENGTH:15.000;
#SELECTABLE:YES;
#OFFSET:0.908;
#BPMS:0.000=126.000;
#STOPS:;
#BGCHANGES:;
#FGCHANGES:;

//--------------- dance-single - ----------------
#NOTEDATA:;
#STEPSTYPE:dance-single;
#DESCRIPTION:;
#DIFFICULTY:Hard;
#METER:15;
#RADARVALUES:0,0,0,0,0;
#CREDIT:Talkion;
#NOTES:
0000
0000
0000
0000
,
0000
0000
0000
0000
,
0000
0000
0000
0000
,
0000
0000
0000
0000
,
0000
0000
0000
0000
,
1000
0000
0001
0000
1000
0000
0100
0000
0010
0000
0000
0001
0000
0001
0000
0000
,
1000
0000
0020
0000
0100
0000
0000
1000
0000
0000
0100
0000
0000
1030
0000
0000
,
0001
0000
1000
0000
0001
0000
0010
0000
0100
0000
0000
1000
0000
1000
0000
0000
,
0001
0000
0200
0000
0010
0000
0000
0001
0000
0000
0010
0000
0000
0302
0000
0000
,
1000
0000
0000
0010
0000
0000
1000
0000
0000
0100
0000
0000
2003
0000
0000
0000
,
3100
0000
0000
1100
0000
0000
0101
0000
0000
1002
0000
0000
0013
0000
0010
0000
,
0100
1000
0010
0000
0110
0000
1002
0000
0003
0100
0001
0010
0000
0110
0000
0100
,
2000
0000
3001
0100
0010
0100
0001
0000
1000
0100
0010
0001
0000
0001
0000
0000
,
1001
0000
2000
0010
0000
3001
0010
0100
0002
0000
0203
0010
0000
1300
0001
0100
,
0010
0000
0000
1010
0000
0000
0011
0000
0000
1002
0000
0000
0103
0000
0100
0000
,
0010
1000
0100
1000
0010
0100
0000
0100
0001
0010
0001
0100
0000
0110
0000
0010
,
2000
0000
3001
0010
0100
0010
0001
0000
0100
0010
1000
0100
0000
0100
0000
0000
,
0010
0001
0100
0010
0000
0010
0000
0100
1000
0100
0010
0000
1000
0001
0010
0100
,
1000
1100
0101
1001
0011
1010
2001
3000
,
0001
0100
0010
0001
0000
0000
1000
0100
0010
1000
0000
0000
0001
0010
0100
0001
,
0000
0000
2000
0000
0000
3010
0000
0002
0000
0000
0000
0000
1003
0000
0000
0000
,
0201
0000
0000
0010
0000
0000
0302
0000
0000
1003
0000
1000
0100
0000
1000
0000
,
0001
0010
0100
0000
2000
0001
0000
3010
0000
0010
0100
0000
0001
0000
0000
1002
,
0000
0000
0013
0000
0010
0000
0100
1000
0000
0000
0010
0000
0010
0000
0100
0000
,
1000
0100
0010
1000
0000
0001
0010
0000
0010
0000
0100
0000
1000
0100
1000
0010
,
0000
0100
0001
0010
0001
0000
1001
0000
1200
0000
0000
0001
0000
0000
2300
0000
,
0000
3001
0000
0001
0100
0000
0010
0000
1000
0000
1000
0000
0200
0010
0000
0301
,
0000
0001
0100
0000
1000
0000
0000
2001
0000
0000
3010
0000
0010
0000
0100
0001
,
0000
0000
0010
0000
0010
0000
0100
0000
0001
0100
0010
0001
0000
1000
0010
0000
,
0010
0000
0100
0000
0001
0100
0001
0010
0000
0100
1000
0010
1000
0000
0001
0000
,
0011
0000
0000
1010
0000
0000
1001
0000
1200
0000
0010
0000
0301
0100
0000
0100
,
1000
0000
0000
1100
0000
1001
0000
0000
0201
0000
0010
0000
1300
0100
0010
0100
,
0000
0001
0000
0101
0000
1001
0000
0000
1200
0000
0010
0000
0301
0100
0000
0100
,
1000
0001
0100
1000
0000
1200
0000
0000
0301
0000
0100
0001
0010
0000
0000
0011
,
0000
1100
0000
0000
1010
0000
0010
0100
2000
0000
0100
0000
3001
0010
0000
0010
,
1000
0000
0000
1010
0000
0001
0010
0100
0002
0000
0100
0000
1003
0010
0100
0010
,
0000
0001
0000
0011
0000
1000
0010
0100
2000
0000
0100
0000
3001
0010
0000
0010
,
1000
0001
0010
1000
0000
1001
0000
0000
0101
0000
0000
1100
0000
0000
1001
0000
,
0000
0110
0000
0000
1002
0000
0000
0000
0013
0000
0100
0010
0002
0000
0103
2000
,
0000
3100
0001
0000
0000
0000
0000
0000
1002
0000
0013
2000
0000
3010
0002
0000
,
0013
0000
0000
2000
0000
0000
0000
0000
0000
3010
0000
0000
0001
0000
0000
0000
0010
0000
0000
0000
0100
0000
0000
0000
1000
0000
0000
0000
0000
0000
2001
0000
0000
0000
0000
0000
3010
0000
0000
0200
0000
0000
0000
0000
0000
0310
0000
0000
,
0002
0000
1003
0200
0000
0000
0000
0300
1002
0000
0013
0200
0000
0310
1000
0000
,
0020
0000
0000
0000
0000
0000
0000
0000
0031
1000
0100
1000
0000
0001
0000
0200
,
0000
0000
0310
0000
1000
0001
1000
0100
0020
0000
0130
1000
0002
0000
0100
0000
,
2003
0000
0100
0000
3001
0100
0010
1000
0001
0000
0001
0010
0000
0010
1000
0000
,
1000
0010
0000
0010
0001
1000
0100
1000
0001
0000
0001
0100
0000
0100
1000
0000
,
0110
0000
1000
0001
0010
0100
1000
0000
2001
0000
3100
0010
0000
0010
1000
0000
,
0010
0100
0000
0100
1000
0001
1000
0000
1002
0000
0103
0010
0000
0010
0001
0000
,
1000
0100
0000
0100
0010
0100
0001
0000
1001
0000
1000
0100
0000
0100
0001
0000
,
0001
0100
0000
0100
2000
0000
0000
3000
0001
0100
0010
0001
0000
0011
0000
1010
,
0000
2100
0000
3100
0002
0000
0003
0000
0100
0010
0100
1000
0000
1001
0000
1020
,
0000
0000
0130
0000
0001
1000
0001
0010
0200
0000
0310
0001
2000
0000
0010
0000
,
3002
0000
0010
0000
1003
0010
0100
0001
1000
0000
1000
0100
0000
0100
0001
0000
,
0001
0100
0000
0100
1000
0001
0010
0001
2000
0000
3010
0002
0000
0013
1000
0000
,
0001
0010
0100
1000
0010
0100
0001
0000
0011
0000
0010
2000
0000
3010
0002
0000
,
0103
2000
0000
3100
0001
1000
0100
0010
1000
0010
0100
0010
0001
1000
0001
0010
,
0100
1000
0010
0100
1000
0000
0000
0000
1200
0000
0000
0000
0000
0000
0000
0000
,
0000
0000
0000
0000
,
0000
0000
0000
0000
0000
0000
0300
0000
0001
0000
0000
0100
0000
0100
0000
0000
,
0010
0100
0010
1000
0000
0000
0001
0000
0010
0000
0000
0100
0000
0100
0000
0000
,
1000
0001
0000
0001
0000
0100
0010
1000
0000
0000
0000
0000
0000
0000
0000
0000
;

//--------------- dance-single - ----------------
#NOTEDATA:;
#STEPSTYPE:dance-single;
#DESCRIPTION:;
#DIFFICULTY:Challenge;
#METER:17;
#RADARVALUES:0,0,0,0,0;
#CREDIT:Talkion;
#NOTES:
0000
0000
0000
0000
,
0000
0000
0000
0000
,
0000
0000
0000
0000
,
0000
0000
0000
0000
,
0000
0000
0000
0000
,
1000
0000
0100
0010
0001
0000
0100
0010
1000
0000
0001
0010
0000
0010
0100
0000
,
1000
0100
0010
0001
1000
0000
1000
0010
0000
0010
0100
0000
0100
0001
0010
0000
,
0001
0000
0010
0100
1000
0000
0010
0100
0001
0000
1000
0100
0000
0100
0010
0000
,
0001
0010
0100
1000
0001
0000
0001
0100
0000
0100
0010
0000
0010
1000
0100
0000
,
1000
0000
1000
0100
0000
0100
0010
0000
0010
0001
0100
0020
1000
0000
0000
0030
,
1002
0000
0000
0000
0000
0000
0003
0000
0000
0020
0000
0000
0100
0000
0000
0030
0000
0000
2001
0000
0000
0000
0000
0000
3000
0000
0000
0020
0000
0000
0000
0000
0000
0130
0000
0000
0001
0000
0000
0000
0000
0000
0001
0000
0100
0000
0010
0000
,
1000
0000
0000
0001
0000
0000
0010
0000
0000
0100
0000
0000
0010
0000
0000
0001
0000
0000
1000
0000
0010
0000
0100
0000
0001
0000
0100
0000
0010
0000
1000
0000
0000
0001
0000
0000
0000
0000
0000
0011
0000
0000
0000
0000
0000
0010
0000
0000
,
0200
0000
0000
0000
0000
0000
1300
0000
0000
0001
0000
0000
0100
0000
0000
0010
0000
0000
1000
0000
0000
0000
0000
0000
1000
0000
0000
0100
0000
0000
0010
0000
0000
0001
0000
0000
0000
0000
0000
0001
0000
0000
1000
0000
0100
0000
1000
0000
,
0001
0000
0000
0100
0000
0000
0010
0000
0000
1000
0000
0000
0100
0000
0000
0010
0000
0000
0001
0000
0000
0100
0000
0000
2000
0000
0000
0000
0000
0000
3100
0000
0000
0001
0000
0000
0010
0000
0100
0000
1000
0000
0001
0000
0100
0000
0010
0000
,
2000
0000
0000
0000
0000
0000
3000
0000
0000
0020
0000
0000
0100
0000
0000
0030
0000
0000
1002
0000
0000
0000
0000
0000
0003
0000
0000
0020
0000
0000
0000
0000
0000
0130
0000
0000
1000
0000
0000
0000
0001
0000
1000
0000
0100
0000
1000
0000
,
0001
0000
0100
0000
0010
0000
1000
0000
0001
0000
0010
0000
0001
0000
0000
1000
0000
0000
0000
0000
0000
0010
0000
0000
0100
0000
0000
0010
0000
0000
1000
0000
0000
1001
0000
0000
0000
0000
0000
1100
0000
0000
0000
0000
0000
0011
0000
0000
,
0002
0000
0103
0010
1000
0010
0100
0000
0001
0010
0100
1100
0000
1002
0000
0003
,
0100
0000
0010
0000
0100
0000
0001
0000
0000
0010
0000
0000
0000
0000
0000
0110
0000
0000
0000
0000
0000
2001
0000
0000
0000
0000
0000
3000
0000
0000
0010
0000
0000
0100
0000
0000
0001
0000
1000
0000
0100
0000
0010
0000
0100
0000
1000
0000
,
0001
0100
0010
0100
1000
0000
0001
0010
0100
0010
1000
0000
2001
0000
3000
0000
,
0001
0010
0100
1001
0000
0000
1000
0010
0100
1001
0000
0000
0001
0010
0100
1001
,
0000
0000
0000
0000
0000
0000
1000
0000
0000
0000
1000
0000
0010
0000
0000
0100
0000
0000
0000
0000
0000
0001
0000
0000
0020
0000
0000
0000
0000
0000
0000
0000
0000
0000
0000
0000
0130
0000
0000
0000
0000
0000
0000
0000
0000
0000
0000
0000
,
2001
0000
3200
0010
0000
2300
0001
0000
3000
0010
0100
0001
0100
0010
1000
0001
,
0010
0100
0010
0001
2000
0100
0000
3010
0000
0010
0100
0001
1000
0100
0010
0002
,
M000
M013
M100
M001
M100
M010
M001
M100
M000
M100
M010
M100
M001
M100
M010
M001
,
M010
M100
M001
M010
0000
0010
0100
1000
0100
0010
0100
1000
0001
0100
0010
1010
,
0000
0000
1000
0001
1000
0000
0100
0000
0010
0000
0000
0000
0110
0000
0000
0000
1002
0000
0000
0000
0203
0000
1000
0000
0000
0000
0302
0000
1000
0000
0000
0000
,
0003
0010
0100
1000
0010
0100
0010
1000
0001
0000
0001
0010
0200
1000
0000
0301
,
0000
0001
0100
0010
0001
0100
0010
2000
000M
301M
010M
100M
010M
001M
100M
010M
,
000M
010M
001M
010M
100M
010M
001M
100M
001M
010M
100M
001M
0000
0010
0100
0001
,
0100
0000
0010
0000
0100
0000
0001
0000
1000
0000
0100
0000
0010
0000
0011
0000
0000
0000
0001
1000
0001
0000
0100
0000
0001
0000
1000
0000
0001
0000
0010
0000
,
0021
0000
0130
1002
0000
0103
2001
0000
3200
0000
0301
0100
1000
0001
0000
0001
,
0100
0010
1000
1001
0000
1001
0001
0020
1000
0000
1030
0010
0001
1000
0100
2000
,
0000
3001
0000
0101
0000
2001
0000
3010
0200
0000
1300
0100
0001
1000
0000
1000
,
0100
0000
0010
0000
1000
0000
1010
0000
0000
0000
0011
0000
0000
0000
0001
1000
0002
0000
0000
0000
0103
0000
0010
0000
2001
0000
0000
0000
3200
0000
0010
0000
,
0000
1300
0010
0100
1002
0000
0013
2000
0010
0000
3001
0100
1000
0001
0000
0001
,
0100
0010
1000
1001
0000
1001
0001
0020
1000
0000
1030
0010
0001
1000
0100
2000
,
0000
3001
0000
0101
0000
0100
0010
0002
0010
0000
1003
0100
0001
1000
0000
1000
,
0100
0000
0001
0000
1000
0000
1010
0000
0000
0000
0011
0000
0000
0000
0001
1000
0002
0000
0000
0000
0103
0000
2001
0000
0000
0000
3100
0000
1002
0000
0000
0000
,
0013
0000
0000
2001
0000
0000
0000
0000
0000
3010
0000
0000
0100
0000
0001
0000
1000
0000
0001
0000
0010
0000
0100
0000
2000
0000
0000
0000
0000
0000
3100
0000
0000
0010
0000
0000
0012
0000
0000
0000
0000
0000
0013
0000
0000
2010
0000
0000
,
0000
3010
0011
0000
0000
0000
0000
0000
0102
0000
0103
2100
0000
3100
0102
0000
,
0103
0000
0000
1100
0000
0000
0000
0000
0000
1000
0000
0000
0100
0000
0000
0000
0100
0000
0000
0000
0100
0000
0000
0000
0110
0000
0000
0000
0000
0000
1002
0000
0000
0000
0000
0000
0013
0000
0000
2010
0000
0000
0000
0000
0000
3100
0000
0000
,
0102
0000
0013
2010
0000
3000
0000
0000
1200
0000
0310
2100
0000
3010
1001
0000
,
0000
0000
0000
0000
0000
0000
0000
0000
0000
0000
0000
0000
0000
0000
0000
0000
0000
0000
0000
0000
0000
0000
0000
0000
1000
0000
0001
0000
1000
0000
0100
0000
0000
0010
0000
0000
0000
0000
0000
0001
0000
0000
0000
0000
0000
2000
0000
0000
,
0000
0000
0000
3010
0000
0000
0100
0000
0000
0001
0000
0000
1000
0000
0100
0000
1000
0000
0001
0000
0000
0010
0000
0000
0200
0000
0000
0000
0000
0000
0310
0000
0000
0001
0000
0000
1000
0000
0000
0001
0000
0000
0100
0000
0000
0001
0000
0000
,
1000
0001
0010
0100
1000
0010
0100
0002
0010
0000
2003
0010
0000
3002
0100
0000
,
2003
0000
0000
0100
0000
0000
0000
0000
0000
3001
0000
0000
0010
0000
0000
0100
0000
0000
1000
0000
0000
0010
0000
0000
0200
0000
0000
0000
0000
0000
0320
0000
0000
0001
0000
0000
0000
0000
0000
0130
0000
0000
0001
0000
1000
0000
0001
0000
,
0010
0000
0000
0100
0000
0000
1000
0000
0000
0010
0000
0000
0100
0000
0000
0010
0000
0000
1000
0000
0000
0000
0000
0000
2001
0000
0000
0000
0000
0000
3100
0000
0000
0001
0000
0000
0000
0000
0000
0001
0000
0000
0100
0000
0010
0000
0100
0000
,
1000
0000
0000
0001
0000
0000
0000
0000
0000
0001
0000
0000
0100
0000
0010
0000
1000
0000
0002
0000
0000
0000
0000
0000
0203
0000
0000
0000
0000
0000
1300
0000
0000
0001
0000
0000
0000
0000
0000
0001
0000
0000
0010
0000
0100
0000
0010
0000
,
1000
0000
0000
0001
0000
0000
0000
0000
0000
0001
0000
0000
0010
0000
0100
0000
1000
0000
0001
0000
0000
0000
0000
0000
1001
0000
0000
0000
0000
0000
2000
0000
0000
0010
0000
0000
0000
0000
0000
3001
0000
0000
0010
0000
0100
0000
1000
0000
,
0002
0000
0000
0100
0000
0000
0000
0000
0000
2003
0000
0000
0100
0000
0000
0000
0000
0000
3001
0000
0100
0000
0010
0000
0001
0000
0000
0010
0000
0000
0100
0000
0000
1000
0000
0000
0000
0000
0000
1100
0000
0000
0000
0000
0000
0101
0000
0000
,
0000
0000
0000
0012
0000
0000
0000
0000
0000
0013
0000
0000
2000
0000
0000
0000
0000
0000
3000
0000
0000
0000
0000
0000
0010
0000
0100
0000
0010
0000
0001
0000
0000
1000
0000
0000
0000
0000
0000
1001
0000
0000
0000
0000
0000
0102
0000
0000
,
0000
0000
0000
0103
0000
0000
0010
0000
0000
1000
0000
0000
0001
0000
0010
0000
0001
0000
1000
0000
0000
0100
0000
0000
0020
0000
0000
0000
0000
0000
0130
0000
0000
1000
0000
0000
0001
0000
0000
1000
0000
0000
0010
0000
0000
1000
0000
0000
,
0001
1000
0100
0010
0001
0100
0010
2000
0100
0000
3002
0100
0000
2003
0010
0000
,
3002
0000
0000
0010
0000
0000
0000
0000
0000
1003
0000
0000
0100
0000
0000
0010
0000
0000
0001
0000
0000
0000
0000
0000
1002
0000
0000
0000
0000
0000
0013
0000
0000
2001
0000
0000
0000
0000
0000
3010
0000
0000
1000
0000
0001
0000
1000
0000
,
0100
0010
0001
0100
0020
0000
0000
0030
2010
0000
3100
0102
0000
0013
2010
0000
,
3100
0000
0000
0102
0000
0000
0000
0000
0000
0013
0000
0000
0010
0000
0000
1000
0000
0000
0100
0000
0000
0010
0000
0000
0001
0000
1000
0000
0001
0000
0100
0000
0010
0000
0100
0000
0001
0000
1000
0000
0100
0000
0010
0000
0100
0000
1000
0000
,
0001
0000
0100
0000
0010
0000
1000
0000
0100
0000
0010
0000
0001
0000
0000
0000
0000
0000
0000
0000
0000
0000
0000
0000
M101
0000
0000
M000
0000
0000
M000
0000
0000
M100
0000
0000
M000
0000
0000
M100
0000
0000
M001
0000
0000
M000
0000
0000
,
M010
M100
M000
M100
M000
M000
M010
M000
M001
M000
M000
M100
M000
M100
M001
M000
,
M010
M100
M000
M100
M000
M000
M010
M000
0001
0000
1000
0010
0000
0010
0100
0000
,
0001
0000
1000
0100
1000
0000
0001
0000
1000
0000
0000
0000
0100
0000
0000
0000
0010
0000
0000
0000
0001
0000
1000
0000
0000
0000
1000
0000
0010
0000
0000
0000
,
0100
0010
1000
0001
0010
0100
1000
1000
0000
0000
0000
0000
0000
0000
0000
0000
;

//--------------- dance-single - BR+ BU+ XO+ DS SJ BT- DSFS- ----------------
#NOTEDATA:;
#STEPSTYPE:dance-single;
#DESCRIPTION:BR+ BU+ XO+ DS SJ BT- DSFS-;
#DIFFICULTY:Edit;
#METER:18;
#RADARVALUES:0,0,0,0,0;
#CREDIT:Talkion;
#NOTES:
0000
0000
0000
0000
,
0000
0000
0000
0000
,
0000
0000
0000
0000
,
0000
0000
0000
0000
,
0000
0000
0000
0000
,
1000
0100
0010
0001
1000
0000
0001
0100
0010
0000
0100
0001
0000
0010
0001
0000
,
1000
0100
0010
0001
0100
0001
1000
0100
1000
0001
0100
0001
0010
0100
1000
0000
,
0001
0100
0010
1000
0001
0000
1000
0100
0010
0000
0100
1000
0000
0010
1000
0000
,
0001
0100
0010
1000
0100
1000
0001
0100
0001
1000
0100
1000
0010
0100
0001
0000
,
0010
0001
1000
0010
1000
0001
0010
0001
1000
0010
0100
0001
0020
0000
0000
0030
,
1002
0000
0000
0000
0000
0000
0003
0000
0000
0200
0000
0000
0011
0000
0000
0300
0000
0000
2001
0000
0000
0000
0000
0000
3000
0000
0000
0200
0000
0000
0000
0000
0000
0310
0000
0000
0001
0000
0010
0000
0001
0000
1000
0000
0001
0000
0100
0000
,
0010
0000
0000
1000
0000
0000
0001
0000
0000
0010
0000
0000
0100
0000
0000
0010
0000
0000
0001
0000
1000
0000
0010
0000
0100
0000
0001
0000
0100
0000
0010
0000
0000
1000
0000
0000
0000
0000
0000
1001
0000
0000
0000
0000
0000
0001
0000
0000
,
1020
0000
0000
0000
0000
0000
0130
0000
0000
1000
0000
0000
0101
0000
0000
0010
0000
0000
0101
0000
0000
0000
0000
0000
1000
0000
0000
0001
0000
0000
0100
0000
0000
0010
0000
0000
0000
0000
0000
0010
0000
0000
1000
0000
0001
0000
0010
0000
,
0101
0000
0000
1000
0000
0000
0001
0000
0000
1100
0000
0000
0001
0000
0000
1000
0000
0000
0001
0000
0010
0000
0100
0000
2000
0000
0000
0011
0000
0000
0000
0000
0000
3001
0000
0000
0100
0000
0010
0000
1000
0000
0010
0000
0100
0000
0001
0000
,
2000
0000
0000
0000
0000
0000
3000
0000
0000
0200
0000
0000
1010
0000
0000
0300
0000
0000
1002
0000
0000
0000
0000
0000
0003
0000
0000
0200
0000
0000
0000
0000
0000
0301
0000
0000
1000
0000
0100
0000
0010
0000
0001
0000
1000
0000
0100
0000
,
1000
0000
0000
0000
0001
0000
0000
0000
1000
0000
0000
0000
0010
0000
0000
0000
0100
0000
0000
0000
0001
0000
0000
0000
1000
0000
0000
0000
0000
0000
0100
0000
0000
0000
0000
0000
0000
0000
0000
0000
0000
0000
0010
0000
0000
0000
0000
0000
0100
0000
0000
0000
0000
0000
1000
0000
0000
0001
0000
0000
1000
0000
0000
0000
0000
0000
0011
0000
0000
0000
0000
0000
0000
0000
0000
0000
0000
0000
1001
0000
0000
0000
0000
0000
0000
0000
0000
0000
0000
0000
1000
0000
0000
0000
0000
0000
,
0201
0000
0000
0000
0000
0000
0310
0000
0000
0001
0000
0000
1100
0000
0000
0010
0000
0000
1100
0000
0000
0000
0000
0000
0001
0000
0000
1000
0000
0000
0100
0000
0000
1010
0000
0000
0000
0000
0000
1010
0000
0000
0001
0000
1000
0000
0001
0000
,
0100
0000
0000
0000
0010
0000
0000
0000
0100
0000
0000
0000
0001
0000
0000
0000
0000
0000
1010
0000
0000
0000
0000
0000
0000
0000
0000
0000
0000
0000
0101
0000
0000
0000
0000
0000
0000
0000
0000
0000
0000
0000
1010
0000
0000
0001
0000
0000
1000
0000
0000
0000
0000
0000
0010
0000
0000
0000
0000
0000
0100
0000
0000
0000
0000
0000
0010
0000
0000
0000
0000
0000
1000
0000
0000
0000
0001
0000
0000
0000
0010
0000
0000
0000
0100
0000
0000
0000
1000
0000
0000
0000
0001
0000
0000
0000
,
1100
0010
1100
0001
1010
0000
0101
0010
0101
1000
0011
0000
1002
0000
0003
0000
,
1100
0001
0001
1010
0000
0000
1002
0000
0000
1103
0000
0000
0011
1000
1000
0101
,
0000
0000
0000
0000
0000
0000
1000
0000
0000
0000
2000
0000
0100
0000
0000
3001
0000
0000
0000
0000
0000
0100
0000
0000
0010
0000
1000
0000
0010
0000
1000
0000
0010
0000
1000
0000
0100
0000
0000
0000
0000
0000
0000
0000
0000
0000
0000
0000
,
1002
0000
0000
0000
0023
0000
0100
0000
0000
0000
0032
0000
1000
0000
0000
0000
0003
0000
0100
0010
0100
0000
0001
0000
1000
0000
0001
0000
0010
0000
0100
0000
,
1000
0000
0001
0000
0010
0000
0001
0000
2000
0000
0010
0000
0000
0000
3100
0000
0000
0000
0100
0000
0010
0000
0001
0000
1000
0000
0001
0100
0010
0000
1200
0000
,
0000
0000
0010
0000
1000
0000
0001
0000
1000
0000
0010
0000
1000
0000
0001
0000
0000
0000
1000
0010
1000
0000
0001
0000
1000
0000
0010
0000
1000
0000
0001
0000
,
1000
0000
0010
1000
0001
0000
1000
0000
0300
0000
0001
0000
0010
0000
0100
0010
0100
0000
1000
0000
0001
0000
1000
0000
0010
0000
0100
0000
0001
0000
1001
0000
,
0000
0000
1000
0100
0010
0000
0001
0000
1002
0000
0000
0000
1013
0000
0000
0000
2001
0000
0000
0000
3020
0000
0001
0000
0000
0000
2030
0000
0001
0000
0000
0000
,
3000
0000
0100
0010
0100
0000
1000
0000
0010
0000
0100
0000
0010
0000
1000
0000
0001
0000
0000
0000
0001
0000
0010
0000
0200
0000
1000
0000
0000
0000
0301
0000
,
0000
0000
0001
0000
0100
0000
0010
0000
0001
0000
1000
0100
1000
0000
0002
0000
0000
0000
0100
0000
0010
0000
1000
0000
0010
0000
0100
0000
0010
0000
1000
0000
,
0000
0000
0010
0100
0010
0000
1000
0000
0010
0000
0100
0000
0010
0000
1000
0000
0010
0000
0100
0000
0010
0000
1000
0000
0003
0000
0001
0000
1000
0000
0100
0010
,
0100
0000
0010
0000
0001
0000
1000
0000
0010
0000
0100
0000
0001
0000
1001
0000
0000
0000
1000
0100
0010
0000
0001
0000
1000
0000
0010
0000
1000
0000
0002
0000
,
1010
0000
0203
0011
0000
0301
1010
0200
0010
0000
0301
0100
1010
0001
0000
0001
,
1000
0100
0010
0011
0000
0011
0001
0200
0010
0000
1300
0100
0011
1000
0001
1000
,
0000
2001
0000
0101
0000
3011
1000
0020
0100
0000
0031
0010
1100
0001
0000
0001
,
0010
0000
0100
0000
0001
0000
0101
0000
0000
0000
1100
0000
0000
0000
0100
0010
0100
0000
1000
0000
0001
0000
2000
0000
0011
0000
0000
0000
3002
0000
1010
0000
,
0000
1103
0010
1000
0001
0010
0100
0002
0100
0000
1003
0010
0101
1000
0000
1000
,
0001
0010
0100
1100
0000
1100
1000
0020
0100
0000
0031
0010
1100
0001
1000
0001
,
0000
0000
0000
1002
0000
0000
0000
0000
0000
1010
0000
0000
0000
0000
0000
1103
0000
0000
0010
0000
0100
0000
2000
0000
0100
0000
0000
0000
0000
0000
3001
0000
0000
0010
0000
0000
1100
0000
0000
0001
0000
0000
0000
0000
0000
0001
0000
0000
,
0010
0000
1000
0000
0001
0000
0101
0000
0000
0000
1100
0000
0000
0000
0001
1000
0002
0000
0000
0000
0203
0000
0011
0000
0000
0000
0302
0000
1010
0000
0000
0000
,
0203
0000
0000
0011
0000
0000
0000
0000
0000
0301
0000
0000
1000
0000
0100
0000
0010
0000
0001
0000
0100
0000
0010
0000
2100
0000
0000
0000
0000
0000
3001
0000
0000
0020
0000
0000
0101
0000
0000
0030
0000
0000
002M
0000
0000
1100
0000
0000
,
0030
M010
0101
0000
0000
0000
0000
0000
1002
0000
0203
0011
0300
020M
1010
0300
,
M100
0000
0000
0000
0000
0000
0011
0000
0000
0000
0000
0000
0000
0000
0000
0000
0000
0000
1000
0000
0000
0010
0000
0000
0100
0000
0000
0000
0000
0000
0000
0000
0100
0000
0000
0000
0000
0000
0000
0000
0100
0000
0000
0000
0000
0000
0000
0000
0021
0000
0000
0000
0000
0000
0000
0000
0000
0000
0000
0000
1100
0000
0000
0000
0000
0000
0030
0000
0000
0000
0000
0000
M020
0000
0000
0000
0000
0000
0101
0000
0000
0000
0000
0000
0030
0000
0000
0000
0000
0000
001M
0000
0000
0000
0000
0000
,
1100
0000
0001
0000
0100
0000
2000
0000
0000
0000
0000
0000
0000
0000
3100
0010
0200
0000
0000
0000
0302
0000
1100
0000
0000
0000
1003
0000
0101
0000
0000
0000
,
1000
0000
0100
0000
0010
0000
0001
0000
0010
0000
0100
0000
1000
0000
0001
0000
0010
0000
0001
0000
1000
0000
0010
0000
0100
0000
1000
0000
0100
0000
0010
0000
0000
1000
0000
0000
0000
0000
0000
0001
0000
0000
0000
0000
0000
0200
0000
0000
,
0000
0000
0000
0301
0000
0000
1000
0000
0000
0001
0000
0000
0010
0000
0100
0000
0010
0000
0001
0000
0000
1000
0000
0000
0020
0000
0000
0000
0000
0000
1030
0000
0000
0001
0000
0000
0010
0000
0100
0000
1000
0000
0001
0000
0100
0000
0001
0000
,
1000
0000
0010
0000
1000
0000
0001
0000
0010
0000
0001
0000
1000
0000
0000
0010
0000
0000
0100
0000
0000
0002
0000
0000
0010
0000
0000
0000
0000
0000
2003
0000
0000
0010
0000
0000
0000
0000
0000
3001
0000
0000
0010
0000
0100
0000
0010
0000
,
0002
0000
0000
1000
0000
0000
0000
0000
0000
0103
0000
0000
0010
0000
1000
0000
0001
0000
1000
0000
0100
0000
0010
0000
0002
0000
0000
0000
0000
0000
2003
0000
0000
0100
0000
0000
0000
0000
0000
3001
0000
0000
0100
0000
0010
0000
0100
0000
,
0001
0000
0000
1000
0000
0000
0010
0000
0000
1000
0000
0000
0100
0000
0000
1000
0000
0000
0010
0000
0000
0100
0000
0000
0002
0000
0000
0000
0000
0000
0013
0000
0000
1000
0000
0000
0000
0000
0000
1000
0000
0000
0010
0000
0100
0000
0010
0000
,
0001
0000
0000
1000
0000
0000
0000
0000
0000
1000
0000
0000
0010
0000
0100
0000
0001
0000
2000
0000
0000
0000
0000
0000
3020
0000
0000
0000
0000
0000
0031
0000
0000
1000
0000
0000
0000
0000
0000
1000
0000
0000
0100
0000
0010
0000
0100
0000
,
0001
0000
0000
1000
0000
0000
0000
0000
0000
1000
0000
0000
0100
0000
0010
0000
0001
0000
2000
0000
0000
0000
0000
0000
3010
0000
0100
0000
0010
0000
2000
0000
0000
0001
0000
0000
0000
0000
0000
3100
0000
0000
0010
0000
0001
0000
1000
0000
,
0002
0000
0000
0100
0000
0000
0000
0000
0000
1003
0000
0000
0100
0000
0010
0000
0001
0000
1000
0000
0010
0000
0100
0000
1000
0000
0000
0100
0000
0000
0001
0000
0000
1100
0000
0000
0000
0000
0000
0101
0000
0000
0000
0000
0000
1010
0000
0000
,
0000
0000
0000
0011
0000
0000
0000
0000
0000
1100
0000
0000
0102
0000
0000
0000
0000
0000
1003
0000
0100
0000
0010
0000
0100
0000
0001
0000
0100
0000
0010
0000
0000
0001
0000
0000
0000
0000
0000
1001
0000
0000
0000
0000
0000
1200
0000
0000
,
0000
0000
0000
1300
0000
0000
0001
0000
0000
1000
0000
0000
0010
0000
0100
0000
0010
0000
1000
0000
0000
0001
0000
0000
0020
0000
0000
0000
0000
0000
0031
0000
0000
1000
0000
0000
0010
0000
0100
0000
0001
0000
1000
0000
0100
0000
1000
0000
,
0001
0000
0010
0000
0001
0000
1000
0000
0010
0000
1000
0000
0001
0000
0000
0010
0000
0000
0100
0000
0000
2000
0000
0000
0010
0000
0000
0000
0000
0000
3002
0000
0000
0010
0000
0000
0000
0000
0000
1003
0000
0000
0010
0000
0100
0000
0010
0000
,
2000
0000
0000
0001
0000
0000
0000
0000
0000
3100
0000
0000
0010
0000
0001
0000
1000
0000
0001
0000
0100
0000
0010
0000
2100
0000
0000
0000
0000
0000
3002
0000
0000
1010
0000
0000
0000
0000
0000
1003
0000
0000
0011
0000
0100
0000
0010
0000
,
1000
0000
0001
0000
0100
0000
0001
0000
1000
0000
0100
0000
1000
0000
0010
0000
0100
0000
0001
0000
0010
0000
0100
0000
0002
0000
0000
0000
0000
0000
0203
0000
0000
1010
0000
0000
0300
0000
0000
M200
0000
0000
0011
0000
0000
0300
0000
0000
,
020M
0000
0000
1010
0000
0000
0300
0000
0000
M100
0000
0000
0011
0000
0000
1000
0000
0000
0100
0000
0000
0010
0000
0000
1000
0000
0010
0000
0100
0000
1000
0000
0001
0000
0010
0000
0001
0000
0100
0000
0010
0000
1000
0000
0100
0000
1000
0000
,
0010
0000
0100
0000
0001
0000
1000
0000
0100
0000
0010
0000
0101
0000
0000
0000
0000
0000
0000
0000
0000
0000
0000
0000
1020
0000
0000
0000
0000
0000
0000
0000
0000
0100
0000
0000
0000
0000
0000
0100
0000
0000
1000
0000
0000
0000
0000
0000
,
0000
0001
0000
1000
0000
0000
0100
0000
1000
0000
0000
0001
0000
0001
1000
0000
,
0000
0100
0000
1000
0000
0000
0031
0000
1000
0010
0100
0010
1000
0001
0000
0010
,
0100
0000
1000
0001
1000
0000
0010
0000
0100
0000
0000
0000
0001
0000
0000
0000
1000
0000
0100
0000
0010
0000
0100
0000
1000
0000
0001
0000
0000
0000
0100
0000
,
0010
1000
0001
1000
0100
0010
0001
0001
0000
0000
0000
0000
0000
0000
0000
0000
;
