#VERSION:0.83;
#TITLE:Listen;
#SUBTITLE:;
#ARTIST:Said The Sky;
#TITLETRANSLIT:;
#SUBTITLETRANSLIT:;
#ARTISTTRANSLIT:;
#GENRE:;
#ORIGIN:;
#CREDIT:darkanine;
#BANNER:Listen.png;
#BACKGROUND:Listen-bg.png;
#PREVIEWVID:;
#JACKET:Listen-jacket.png;
#CDIMAGE:;
#DISCIMAGE:;
#LYRICSPATH:;
#CDTITLE:;
#MUSIC:Listen.ogg;
#OFFSET:-0.010000;
#SAMPLESTART:83.487999;
#SAMPLELENGTH:13.913000;
#SELECTABLE:YES;
#BPMS:0.000=69.000,
12.000=34.500,
14.000=69.000,
90.000=34.500,
92.000=69.000,
125.750=8.625;
#STOPS:;
#DELAYS:;
#WARPS:;
#TIMESIGNATURES:0.000=4=4;
#TICKCOUNTS:0.000=4;
#COMBOS:0.000=1;
#SPEEDS:0.000=1.000=0.000=0;
#SCROLLS:0.000=1.000;
#FAKES:;
#LABELS:0.000=Song Start;
#BGCHANGES:;
#KEYSOUNDS:;
#ATTACKS:
;

//---------------dance-single - ----------------
#NOTEDATA:;
#CHARTNAME:;
#STEPSTYPE:dance-single;
#DESCRIPTION:;
#CHARTSTYLE:;
#DIFFICULTY:Hard;
#METER:8;
#RADARVALUES:0.331438,0.369516,0.304128,0.399712,0.451848,267.000000,232.000000,35.000000,46.000000,0.000000,0.000000,3.000000,1.000000,0.000000,0.331438,0.369516,0.304128,0.399712,0.451848,267.000000,232.000000,35.000000,46.000000,0.000000,0.000000,3.000000,1.000000,0.000000;
#CREDIT:;
#NOTES:
0000
0000
0000
0000
,
0000
0000
0000
0000
,
0000
0000
0000
0000
,
0000
0000
0000
0000
0000
0000
0000
0000
1000
0000
0010
0000
0110
0000
0100
0001
,
0000
0001
1000
0000
1001
0000
1000
0100
0020
0000
0000
0000
0031
0000
0000
1100
,
0000
0101
0000
0000
0220
0000
0330
0000
1000
0000
0001
0000
1001
0000
0001
0100
,
0000
0100
1000
0001
0000
0001
0010
1000
0000
0220
0330
0000
2002
3003
0000
0000
,
0000
0000
0000
0000
0000
0000
0000
0000
0000
0000
0000
0000
2020
0000
0000
0000
0000
0000
0000
0000
0000
0000
0000
0000
3030
0000
0000
0000
0000
0000
0000
0000
0000
0000
0000
0000
0000
0000
0000
0000
0000
0000
0000
0000
0000
0000
0000
0000
0104
0000
0000
0000
0000
0000
0000
0000
0000
0000
0000
0000
0000
0000
0000
0000
0000
0000
0000
0000
0000
0000
0000
0000
0000
0000
0000
0000
0000
0000
0000
0000
0000
0000
0000
0000
0000
0000
0000
0000
0000
0000
0000
0000
0000
0000
0000
0003
0001
0000
0000
0000
0000
0000
0000
0000
0000
0000
0000
0000
0000
0000
0000
0000
0000
0000
0000
0000
0000
0000
0000
0000
0100
0000
0000
0000
0000
0000
0000
0000
0000
0000
0000
0000
0000
0000
0000
0000
0000
0000
0000
0000
0000
0000
0000
0000
0110
0000
0000
0000
0000
0000
0000
0000
0000
0000
0000
0000
0000
0000
0000
0000
0000
0000
0000
0000
0000
0000
0000
0000
0001
0000
0000
0000
0000
0000
0000
0000
0000
0000
0000
0000
0100
0000
0000
0000
0000
0000
0000
0000
0000
0000
0000
0000
,
0000
0010
1000
0100
0000
0010
0001
1000
0100
1000
0010
0100
1000
0100
0010
1000
,
4000
0000
0000
0000
0000
0000
0000
0000
0000
0000
0000
0000
0000
0000
0000
0000
0000
0000
0000
0000
0000
0000
0000
0000
0000
0000
0000
0000
0000
0000
0000
0000
0000
0000
0000
0000
0000
0000
0000
0000
0000
0000
0000
0000
0000
0000
0000
3000
1001
0000
0000
0000
0000
0000
0000
0000
0000
0000
0000
0000
0000
0000
0000
0000
0000
0000
0000
0000
0000
0000
0000
0000
0100
0000
0000
0000
0000
0000
0000
0000
0000
0000
0000
0000
0010
0000
0000
0000
0000
0000
0000
0000
0000
0000
0000
0000
0100
0000
0000
0000
0000
0000
0000
0000
0000
0000
0000
0000
0000
0000
0000
0000
0000
0000
0000
0000
0000
0000
0000
0000
0010
0000
0000
0000
0000
0000
0000
0000
0000
0000
0000
0000
0000
0000
0000
0000
0000
0000
0000
0000
0000
0000
0000
0000
0110
0000
0000
0000
0000
0000
0000
0000
0000
0000
0000
0000
0000
0000
0000
0000
0000
0000
0000
0000
0000
0000
0000
0000
1000
0000
0000
0000
0000
0000
0000
0000
0000
0000
0000
0000
0100
0000
0000
0000
0000
0000
0000
0000
0000
0000
0000
0000
,
0000
0100
0001
1000
0000
1000
0010
0001
0000
0220
0330
0000
2002
3003
0000
2000
,
3100
0000
0000
0000
0000
0000
0000
0000
0000
0000
0000
0000
0000
0000
0000
0000
0000
0000
0000
0000
0000
0000
0000
0000
0100
0000
0000
0000
0000
0000
0000
0000
0000
0000
0000
0000
0000
0000
0000
0000
0000
0000
0000
0000
0000
0000
0000
0000
1004
0000
0000
0000
0000
0000
0000
0000
0000
0000
0000
0000
0000
0000
0000
0000
0000
0000
0000
0000
0000
0000
0000
0000
0000
0000
0000
0000
0000
0000
0000
0000
0000
0000
0000
0000
0000
0000
0000
0000
0000
0000
0000
0000
0000
0000
0000
0003
0001
0000
0000
0000
0000
0000
0000
0000
0000
0000
0000
0000
0010
0000
0000
0000
0000
0000
0000
0000
0000
0000
0000
0000
0000
0000
0000
0000
0000
0000
0000
0000
0000
0000
0000
0000
0000
0000
0000
0000
0000
0000
0000
0000
0000
0000
0000
0000
0110
0000
0000
0000
0000
0000
0000
0000
0000
0000
0000
0000
0000
0000
0000
0000
0000
0000
0000
0000
0000
0000
0000
0000
0000
0000
0000
0000
0000
0000
0000
0000
0000
0000
0000
0000
1000
0000
0000
0000
0000
0000
0000
0000
0000
0000
0000
0000
,
0000
0000
0010
0000
0010
0100
0000
0000
0001
0000
0000
0010
0100
0000
0100
0000
,
0000
1000
0000
0000
1020
0000
0000
0001
0031
0000
0010
0000
0110
0000
0000
0000
,
1000
0000
0000
0010
0100
0000
0001
0000
0000
0010
0000
0100
0010
0000
0000
0001
,
0000
0000
1000
0000
0000
0001
0000
0000
0100
0002
0000
0103
0002
1000
0000
0013
,
0002
1000
0000
0103
0001
0020
0000
0130
2000
0010
0000
3100
2000
0001
0000
3010
,
2000
0001
0000
3100
1000
0020
0000
0130
0001
1000
0020
0030
1000
0020
0030
0100
,
0000
0001
0020
0030
0001
0020
0030
0000
0100
1000
0002
0003
0100
0002
0003
0010
,
0000
0100
2000
3000
0001
0020
0030
0000
0100
0010
0000
0000
0001
0010
0000
0000
,
0100
0010
0000
0000
0001
1000
0000
0000
1000
0010
0000
0000
0100
0010
0000
0000
,
0001
0010
0000
0000
0100
0010
0000
0000
1000
0010
0000
0000
2000
0000
0000
0000
,
3002
0000
0000
0023
0000
0000
0130
0000
0000
0000
00L0
0000
0000
0000
0000
0000
,
0001
0000
0000
0000
0001
0000
0000
0000
0101
0000
0000
0000
0000
0100
0000
0000
0000
0000
0100
0000
0000
0100
0000
0000
0120
0000
0000
0000
0000
0000
0000
0000
,
1030
0000
0000
0000
1000
0000
0000
0000
1001
0000
0000
0000
0000
0000
0000
0001
0000
0000
0001
0000
0000
0000
0000
0000
2010
0000
0000
0000
0000
0000
0100
0000
,
3100
0000
0000
0000
0010
0000
0000
0000
0011
0000
0000
0000
0000
0001
0000
0000
0000
0000
1000
0000
0000
1000
0000
0000
1020
0000
0000
0000
0000
0000
0000
0000
,
0130
0000
0000
0000
0001
0000
0000
0000
1001
0000
0000
0000
0000
0000
0000
1000
0000
0000
1000
0000
0000
0000
0000
0000
0012
0000
0000
0000
0000
0000
0000
0000
,
0103
0000
0000
0000
0001
0000
0000
0000
0012
0000
0013
0000
0000
0010
0000
0000
0000
0000
0100
0000
1000
0000
0000
0000
1002
0000
0000
0000
0000
0000
0000
0000
,
1003
0000
0000
0000
0010
0000
0000
0000
0120
0000
0130
0000
0000
0000
0000
0001
0000
0000
0001
0000
1000
0000
0000
0000
2010
0000
0000
0000
3100
0000
0100
0000
,
0010
0000
0000
0000
0010
0000
0000
0000
0021
0000
0031
0000
0000
0001
0000
0000
0000
0000
1000
0000
0000
1000
0000
0000
1020
0000
0000
0000
0000
0000
0000
0000
,
0130
0000
0000
0000
0001
0000
0000
0000
0021
0000
0031
0000
0000
0000
0000
0100
0000
0000
0000
0000
0010
0000
0000
0000
1001
0000
0000
0000
0000
0000
0000
0000
,
0001
0100
0010
0001
1000
0100
0010
2000
3000
0000
0000
0000
0000
0000
0000
0000
;

//---------------dance-single - ----------------
#NOTEDATA:;
#CHARTNAME:;
#STEPSTYPE:dance-single;
#DESCRIPTION:;
#CHARTSTYLE:;
#DIFFICULTY:Challenge;
#METER:11;
#RADARVALUES:0.458055,0.561117,0.139030,0.356265,0.895006,369.000000,353.000000,16.000000,41.000000,0.000000,0.000000,0.000000,1.000000,0.000000,0.458055,0.561117,0.139030,0.356265,0.895006,369.000000,353.000000,16.000000,41.000000,0.000000,0.000000,0.000000,1.000000,0.000000;
#CREDIT:;
#NOTES:
0000
0000
0000
0000
,
0000
0000
0000
0000
,
0000
0000
0000
0000
,
0000
0000
0000
0000
0000
0000
0000
0000
1000
0001
0010
0100
1100
0000
1000
0010
,
0000
0100
0010
1000
0000
0100
1000
0001
0200
0000
0320
0000
1030
0001
0000
0100
,
0010
1000
0000
0100
0120
0000
0000
0000
0031
1000
0100
0010
0011
0000
0001
0010
,
0000
0100
1000
0010
0000
0001
0010
1000
0001
0101
0000
1000
1100
0000
0001
0010
,
0100
0000
0110
0000
0000
0000
0000
0100
1000
0000
0001
0010
0001
0010
0001
0010
0100
0000
1000
0000
0010
0000
0100
0000
0101
0000
0000
0000
0001
0000
0010
0000
,
0000
0100
1000
0001
0000
0100
0010
1000
0001
0100
0100
0100
0110
0010
1000
0001
,
0001
0000
0020
0000
0000
0000
0130
1000
0100
0000
1000
0000
0001
0100
0001
0100
0010
0000
1000
0000
0001
0000
0100
0000
0110
0000
0000
0000
1000
0000
0001
0000
,
0000
0000
0100
0000
0001
0000
0010
0000
0000
0000
1000
0000
0010
0000
0001
0000
0000
0000
2200
0000
3300
0000
0000
0001
0200
0000
0300
0000
0000
0000
0010
0000
,
0010
0000
1000
0010
1000
0000
0001
0000
0011
0000
0100
0010
0100
0010
0100
0000
1000
0000
0010
0000
0100
0000
0100
0000
0101
0000
0001
0000
0001
0000
0010
0000
,
0100
0100
1000
0001
0011
0010
0100
0100
0010
0001
0001
1000
1010
0010
1000
0001
,
0001
0000
0101
0000
0100
0000
0100
0000
0010
0000
2000
0000
0001
0000
0100
0000
3100
0000
1000
0000
0010
0000
0100
0000
0110
0000
1000
0000
0000
0001
0000
0000
,
0010
0000
0100
0000
0000
0100
0000
0100
1000
0000
0000
0000
0010
0000
0100
0000
0001
0000
0010
0000
0000
0000
0100
0000
1000
0000
0000
0000
0001
0000
0100
0000
,
0000
0010
1000
0000
0000
0001
1000
0000
0100
0020
0000
0130
1000
0020
0000
0130
,
0001
0020
0000
0031
1000
0020
0000
0130
0010
1000
0001
0100
0001
0020
0000
0130
,
1000
0001
0010
0001
0100
0020
0000
1030
0010
0100
0002
1003
0100
0020
0030
0001
,
0010
0100
2000
3020
0000
0000
0130
0001
1000
0010
2000
3100
0010
0002
0003
0010
,
0100
1000
0002
0103
0010
1000
0000
0001
2000
0010
3000
0100
2000
0010
3000
0001
,
2000
0010
3000
0010
0200
0001
0300
0100
0002
1000
0003
0100
0002
0010
0003
1000
,
0002
0100
0003
0100
0020
1000
0030
0010
2000
3001
0000
1000
0200
0000
0300
1000
,
0002
0000
0000
0023
0000
0000
0130
0000
0000
0000
00L0
0000
0000
0000
0000
0000
,
1000
0000
0000
0000
1000
0000
0000
1000
0010
0000
0100
0000
0000
0100
0000
0000
0000
0000
0001
0000
0000
0001
0000
0001
0200
0000
0000
0000
0000
0000
0300
0100
,
0010
0000
0000
0000
0010
0000
0000
0010
1000
0000
0000
0001
0000
0000
0000
0001
0000
0000
0001
0000
0000
0000
0000
0010
0200
0000
0000
0000
0000
0000
0310
0000
,
0010
0000
0000
0000
0010
0000
0000
0010
0001
0000
1000
0000
0000
1000
0000
0000
0000
0000
0010
0000
0000
0010
0000
0010
0200
0000
0000
0000
0000
0000
0300
0100
,
0001
0000
0000
0000
0001
0000
0000
0001
0010
0000
0000
0100
0000
0000
0000
0100
0000
0000
0100
0000
0000
0000
0000
1000
0002
0000
0000
0000
0003
0000
0001
0000
,
0010
0000
0100
0000
1000
0000
0001
0000
0010
0000
0100
0000
0000
0100
0000
0000
0000
0000
1000
0000
0010
0100
0000
0100
0001
0000
1000
0000
0000
0000
0000
1000
,
0100
0000
0010
0000
0001
0000
0000
0100
0010
0000
0000
2000
0000
0000
0000
0001
0000
0000
0001
0000
3000
0000
0000
1000
0100
0000
0010
0000
0000
0000
0010
0000
,
0100
0000
0010
0000
0001
0000
1000
0000
0010
0000
0100
0000
0000
0100
0000
0000
0000
0000
0001
0000
0010
0100
0000
0100
1000
0000
0001
0000
0000
0000
0000
0001
,
0100
0000
0010
0000
1000
0000
0000
0010
0100
0000
0000
0002
0000
0000
0000
0010
0000
0000
0013
0000
0000
0000
0000
0001
2000
0000
0000
0000
3000
0000
1000
0000
,
0010
0100
1000
0001
0010
0100
0001
0020
0030
0000
0000
0000
0000
0000
0000
0000
;

//---------------dance-single - ----------------
#NOTEDATA:;
#CHARTNAME:;
#STEPSTYPE:dance-single;
#DESCRIPTION:;
#CHARTSTYLE:;
#DIFFICULTY:Medium;
#METER:6;
#RADARVALUES:0.247027,0.260030,0.295439,0.425780,0.221579,199.000000,165.000000,34.000000,49.000000,0.000000,0.000000,0.000000,1.000000,0.000000,0.247027,0.260030,0.295439,0.425780,0.221579,199.000000,165.000000,34.000000,49.000000,0.000000,0.000000,0.000000,1.000000,0.000000;
#CREDIT:;
#NOTES:
// measure 0
0000
0000
0000
0000
,  // measure 1
0000
0000
0000
0000
,  // measure 2
0000
0000
0000
0000
,  // measure 3
0000
0000
0000
0000
0000
0000
0000
0000
0001
0000
0100
0000
0110
0000
0000
1000
,  // measure 4
0000
0000
0001
0000
1001
0000
0000
0010
0100
0000
0000
0000
1000
0000
0000
0001
,  // measure 5
0000
1000
0000
0000
0220
0000
0330
0000
0001
0000
1000
0000
1001
0000
0000
0001
,  // measure 6
0000
0000
1000
0010
0000
0000
1000
0001
0000
0200
0300
0000
2002
3003
0000
0000
,  // measure 7
0000
0202
0303
0000
2010
0000
0000
0000
3000
0000
0010
0000
0110
0000
0000
1000
,  // measure 8
0000
0000
0001
0010
0000
0000
1000
0001
0000
0000
0100
0000
0101
0000
0100
0000
,  // measure 9
0002
0000
0000
0000
1003
0000
0010
0000
0010
0000
0100
0000
0110
0000
0000
0001
,  // measure 10
0000
0000
0001
1000
0000
0000
0010
1000
0000
0020
0030
0000
2002
3003
0000
0002
,  // measure 11
0013
0010
2001
0000
3100
0000
0110
0000
,  // measure 12
0001
0100
0110
0000
1000
0000
1010
0000
,  // measure 13
0001
0001
0201
0000
0310
0100
0110
0000
,  // measure 14
0001
0000
0000
0000
0011
0000
0000
0000
0100
0000
0000
0100
0000
0000
0000
0000
,  // measure 15
0000
0000
0000
0000
0000
0000
0000
0000
2000
0010
3000
0000
2000
0001
3000
0000
,  // measure 16
2000
0100
3000
0000
2000
0001
3000
0000
0002
0100
0003
0000
0002
1000
0003
0000
,  // measure 17
0002
0010
0003
0000
0002
1000
0003
0000
0000
0000
2000
3000
0000
2000
3000
0000
,  // measure 18
0000
0000
0200
0300
0000
0200
0300
0000
0000
0000
2000
3000
0000
2000
3000
0000
,  // measure 19
0000
0000
0002
0003
0000
0020
0030
0000
1000
0100
0000
0000
1000
0100
0000
0000
,  // measure 20
0010
0100
0000
0000
1000
0001
0000
0000
0001
0100
0000
0000
0001
0100
0000
0000
,  // measure 21
0010
0100
0000
0000
0001
1000
0000
0000
1000
0100
0000
0000
0010
0000
0000
0000
,  // measure 22
0002
0000
0000
0023
0000
0000
0130
0000
0000
0000
0L00
0000
0000
0000
0000
0000
,  // measure 23
1000
0000
1000
0000
1010
0000
0000
0000
0000
0010
0000
0000
0210
0000
0000
0000
,  // measure 24
0301
0000
0001
0000
1001
0000
0000
0000
0000
1000
0000
0000
0102
0000
0000
0000
,  // measure 25
0013
0000
0100
0000
1100
0000
0000
0000
0000
0001
0000
0000
0201
0000
0000
0000
,  // measure 26
0310
0000
1000
0000
1001
0000
0000
0000
0000
0001
0000
0000
2100
0000
0000
0000
,  // measure 27
3010
0000
1000
0000
2200
0000
3300
0000
0000
0010
0001
0000
2001
0000
0000
0000
,  // measure 28
3001
0000
0100
0000
0220
0000
0330
0000
0000
1000
0001
0000
0102
0000
0000
0000
,  // measure 29
0103
0000
0100
0000
2200
0000
3300
0000
0000
0001
0000
0000
0201
0000
0000
0000
,  // measure 30
0310
1000
2200
3300
0000
0100
1001
0000
,  // measure 31
1000
0001
1000
0100
1000
0001
0100
0020
0030
0000
0000
0000
0000
0000
0000
0000
;

//---------------dance-single - ----------------
#NOTEDATA:;
#CHARTNAME:;
#STEPSTYPE:dance-single;
#DESCRIPTION:;
#CHARTSTYLE:;
#DIFFICULTY:Beginner;
#METER:1;
#RADARVALUES:0.070756,0.109486,0.052136,0.017379,0.000000,57.000000,51.000000,6.000000,2.000000,0.000000,0.000000,0.000000,0.000000,0.000000,0.070756,0.109486,0.052136,0.017379,0.000000,57.000000,51.000000,6.000000,2.000000,0.000000,0.000000,0.000000,0.000000,0.000000;
#CREDIT:;
#NOTES:
0000
0000
0000
0000
,
0000
0000
0000
0000
,
0000
0000
0000
0000
,
0000
0000
0000
1000
,
0000
0001
0000
0100
,
0000
0001
0000
1000
,
0000
0010
0000
0000
,
0000
1000
0000
0001
,
0000
1000
0000
0010
,
0000
1000
0000
0001
,
0000
0100
0000
1000
,
0000
0100
0000
0001
,
0000
0001
0000
1000
,
0000
1000
0000
0010
,
0000
0010
0010
0000
,
0000
0000
1000
0000
,
0001
0000
1000
0000
,
0010
0000
1000
0000
,
0001
0000
1000
0000
,
0100
0000
1000
0000
,
0000
0000
0001
0000
,
0000
0000
0100
0000
,
0020
0000
0030
0000
,
0000
0001
0000
1001
,
0000
1000
0000
1001
,
0000
0010
0000
1001
,
0000
0100
0000
1001
,
0000
1000
0000
1000
,
0000
0001
0000
1001
,
0000
0010
0000
0010
,
0000
0100
0000
1001
,
0200
0000
0300
0000
;

//---------------dance-single - ----------------
#NOTEDATA:;
#CHARTNAME:;
#STEPSTYPE:dance-single;
#DESCRIPTION:;
#CHARTSTYLE:;
#DIFFICULTY:Easy;
#METER:4;
#RADARVALUES:0.150202,0.191601,0.165098,0.060826,0.000000,121.000000,102.000000,19.000000,7.000000,0.000000,0.000000,0.000000,0.000000,0.000000,0.150202,0.191601,0.165098,0.060826,0.000000,121.000000,102.000000,19.000000,7.000000,0.000000,0.000000,0.000000,0.000000,0.000000;
#CREDIT:;
#NOTES:
0000
0000
0000
0000
,
0000
0000
0000
0000
,
0000
0000
0000
0000
,
0000
0000
1000
0010
,
1000
1001
0001
0010
,
0001
1001
1000
0100
,
0010
0110
0001
0100
,
0010
0110
1000
0001
,
0010
0011
0001
1000
,
0010
1010
0001
1000
,
0100
0110
0000
0001
,
0000
1000
0010
1000
,
0010
0100
0001
0010
,
0001
1000
0100
0010
,
0100
1000
0001
0000
,
0000
0000
1000
1000
,
0001
0001
1000
1000
,
0010
0010
0100
0100
,
0001
0001
0100
0100
,
0010
0010
2000
3000
,
0002
0003
0020
0030
,
0200
0300
2000
3001
,
0020
0000
0000
0030
0000
0000
0000
0000
,
1000
1001
0010
1001
,
0100
1001
0001
1001
,
1000
0110
0010
0110
,
0100
0110
0001
0110
,
1000
0010
1000
1010
,
0001
0010
0001
0011
,
1000
0100
1000
1100
,
0001
0100
0001
1001
,
1000
0010
0100
0002
0003
0000
0000
0000
;
