#TITLE:Konzert V;
#SUBTITLE:;
#ARTIST:Remo-con vs. dj TAKA;
#TITLETRANSLIT:;
#SUBTITLETRANSLIT:;
#ARTISTTRANSLIT:;
#GENRE:JUNGLE CLASSIC;
#CREDIT:;
#BANNER:Konzert V.png;
#BACKGROUND:Konzert V-bg.png;
#LYRICSPATH:;
#CDTITLE:;
#MUSIC:Konzert V.ogg;
#OFFSET:-0.020000;
#SAMPLESTART:79.489151;
#SAMPLELENGTH:14.900000;
#SELECTABLE:YES;
#BPMS:0.000000=160.000000
,288.000000=153.000000
,290.000000=152.000000
,291.000000=150.000000
,293.000000=147.000000
,294.000000=137.000000
,295.000000=130.000000
,296.000000=124.999992
,297.500000=122.000000
,298.000000=110.000000
,298.500000=100.000000
,299.000000=85.000000
,299.500000=110.000000
,301.000000=160.000000
;
#STOPS:
;
#BGCHANGES:2.000=Konzert V.avi=1.000=0=0=1=====,
99999=-nosongbg-=1.000=0=0=0 // don't automatically add -songbackground-
;
#KEYSOUNDS:;
#ATTACKS:;

//---------------dance-single - ----------------
#NOTES:
     dance-single:
     :
     Hard:
     17:
     0.825703,0.967402,0.122456,0.457169,0.816373,708.000000,693.000000,15.000000,56.000000,17.000000,0.000000,0.825703,0.967402,0.122456,0.457169,0.816373,708.000000,693.000000,15.000000,56.000000,17.000000,0.000000:
// measure 0
0000
0000
0000
0000
,  // measure 1
0000
0000
0000
0000
,  // measure 2
0000
0000
0000
0000
,  // measure 3
0000
0000
0000
0000
,  // measure 4
0000
0000
0000
0000
,  // measure 5
2002
0000
0000
0000
,  // measure 6
3003
0000
0000
0000
,  // measure 7
0000
0000
0000
0000
,  // measure 8
1000
0000
1000
0000
0001
0000
0100
0010
0100
0010
0100
0000
0001
0000
1000
0100
,  // measure 9
0010
0001
0010
0100
1000
0000
0010
0100
0000
0010
1000
0000
0002
0000
0013
0100
,  // measure 10
2000
0000
0000
0000
,  // measure 11
3000
0000
0000
0000
,  // measure 12
0000
0000
0000
0000
,  // measure 13
0001
0000
0001
0000
0100
0000
0010
1000
0010
1000
0010
0000
1000
0000
0001
0000
,  // measure 14
0001
0000
0010
0100
1000
0001
0000
1000
0000
0100
0000
0010
0001
0100
0010
1000
,  // measure 15
0002
0000
0000
0000
,  // measure 16
0003
0000
0000
0000
,  // measure 17
0000
0000
0000
0000
,  // measure 18
1000
0000
1000
0000
0001
0000
0100
0010
0100
0001
0100
0000
0010
0000
1000
0000
,  // measure 19
0001
0000
0001
0000
0010
0000
0100
1000
0001
0100
0001
0100
0010
1000
0010
1000
,  // measure 20
0001
0010
0100
0010
0001
0000
1000
0000
0001
0100
0010
0100
0001
0000
1000
0000
,  // measure 21
1001
1000
0002
0103
0101
0001
2000
3100
,  // measure 22
1100
1000
0002
0013
0011
0001
2000
3010
,  // measure 23
1010
0010
0200
0301
0101
0001
0020
0130
,  // measure 24
1100
0000
1000
0001
0100
0000
0001
1000
0100
0000
0010
0000
0001
0100
0010
1000
,  // measure 25
0001
0000
0010
0000
0100
0000
1000
0001
1000
0100
1000
0100
0010
0001
0010
0001
,  // measure 26
1000
0000
0001
0100
0010
0000
0001
0000
0010
1000
0100
0000
1000
0000
0001
0000
,  // measure 27
1000
0000
0100
0010
1000
0000
0010
0000
0001
0100
0010
0000
1000
0000
0001
0000
,  // measure 28
1001
0000
0001
0010
0100
1000
0100
0010
0001
0000
0010
000M
0010
0000
1000
0000
,  // measure 29
0001
0100
0010
0100
1000
0100
0010
0100
,  // measure 30
0001
0000
1000
0100
0010
0001
0010
0100
1000
0000
0100
M000
0100
0000
0001
0000
,  // measure 31
1000
0010
0100
0010
0001
0010
0100
0010
,  // measure 32
1000
0000
0001
0010
0100
1000
0100
0010
0001
0000
0010
000M
0010
0000
1000
0000
,  // measure 33
0001
0100
0010
0100
1000
0100
0010
0100
,  // measure 34
0001
0000
1000
0100
0010
0001
0010
0100
1000
0000
0010
0100
0010
0000
1000
0000
,  // measure 35
0001
0010
0100
0010
1000
0010
0100
0010
,  // measure 36
0001
0100
0010
0100
1000
0100
0010
0100
,  // measure 37
0002
0000
0010
0000
1003
0000
0001
0100
0010
0000
0M10
0000
0001
1000
0001
0000
,  // measure 38
2000
0000
0010
0000
3001
0000
1000
0010
0100
0000
0101
0000
1001
0000
1000
0000
,  // measure 39
0001
0000
1000
0000
1010
0000
1000
0001
0010
0100
0010
0100
1000
0001
1000
0001
,  // measure 40
0200
0000
0310
0000
1000
0100
0010
0001
0100
0010
1000
0001
0010
0100
1000
0001
,  // measure 41
1000
0000
0010
0000
0100
0001
0100
0001
1000
0000
0100
0000
0010
0001
0010
0001
,  // measure 42
1000
0000
0010
0000
0100
0001
1000
0001
0020
0000
0130
0000
2000
0000
3001
0000
,  // measure 43
0200
0310
0200
1300
0200
0310
0200
0301
,  // measure 44
1000
0000
0100
0000
0010
0001
1000
0001
0100
0000
0010
0000
1000
0001
1000
0010
,  // measure 45
0100
0000
0000
0100
0001
0010
0100
1000
0020
0000
0130
0000
0002
0000
1003
0000
,  // measure 46
0020
0130
0020
0031
0020
0130
0020
1030
,  // measure 47
0001
0000
0010
0000
0100
1000
0001
1000
0010
0000
0100
0000
0001
1000
0001
0010
,  // measure 48
0001
0000
0000
0001
1000
0010
0100
0001
2000
0000
3100
0000
0002
0000
1003
0000
,  // measure 49
0020
0130
2000
3001
0200
1300
0002
0013
,  // measure 50
0100
0001
0100
0001
1000
0010
1000
0010
1000
0100
1000
0100
0010
0001
0010
0001
,  // measure 51
1000
0000
0010
0000
0001
0000
0010
0000
0100
0010
1000
0010
0100
0001
0100
0010
,  // measure 52
1000
0001
1000
0001
1000
0001
1000
0001
0010
0100
0010
0100
0010
0100
0010
0100
,  // measure 53
2000
0000
0100
0000
3001
0000
1000
0010
0100
0010
0100
0000
0020
0000
0031
0000
,  // measure 54
0010
0000
0100
0001
0010
0000
001M
0000
1000
0001
0100
0000
020M
0000
1300
0000
,  // measure 55
0001
0000
0100
0000
0010
0000
0100
1000
0100
1000
0100
0000
0001
0100
0001
0100
,  // measure 56
0002
0000
1003
0001
0100
0000
0001
0000
1000
0100
0010
0000
0001
0100
0010
1000
,  // measure 57
0001
0000
0010
0000
0100
0000
0010
1000
0010
1000
0010
0000
0001
0010
0001
0010
,  // measure 58
0001
0100
0010
1000
0001
0000
1000
0000
0100
0010
0100
0010
0100
1000
0001
0100
,  // measure 59
0001
0000
0010
0100
1000
0000
0010
0000
0100
0001
1000
0000
0200
0000
0310
0000
,  // measure 60
0001
0100
0010
0100
0001
0100
0010
0100
1000
0100
0010
0100
1000
0100
0010
0100
,  // measure 61
0002
0013
0200
0310
2000
3010
0200
0310
,  // measure 62
0001
0000
0100
1000
0100
0001
0100
0001
1000
0000
0100
M000
0100
0000
0010
0000
,  // measure 63
2000
3010
0200
0310
0002
0013
0200
0320
,  // measure 64
1030
0000
0100
0001
0100
1000
0100
1000
0001
0000
0100
000M
0100
0000
0010
0000
,  // measure 65
0002
0103
0020
0130
2000
3100
0020
0130
,  // measure 66
0001
0000
1000
0010
1000
0010
0001
0010
1000
0000
0100
M000
0100
0000
0010
0000
,  // measure 67
2000
3100
0020
0130
0002
0103
0020
0130
,  // measure 68
1000
0010
0100
0010
1000
0010
0001
0010
1000
0100
0010
0100
1000
0100
0001
0100
,  // measure 69
1000
0000
0001
0100
0010
0100
0001
0100
0010
0M00
0010
0000
0001
0000
1000
0000
,  // measure 70
0001
0000
1000
0010
0100
0010
1000
0010
0100
00M0
0100
0000
1000
0000
0001
0000
,  // measure 71
1000
0000
0001
0010
0100
0010
0001
0010
0100
00M0
0100
0000
0001
0000
1000
0000
,  // measure 72
0001
0000
1000
0010
0100
0010
0001
0010
1000
00M0
1000
0000
0010
0000
0001
0000
,  // measure 73
1000
0000
0001
0100
0010
0100
1000
0100
0001
0M00
0001
0000
0010
0000
1000
0000
,  // measure 74
0001
0000
0010
1000
0001
0100
1000
0010
0100
00M0
0100
0000
0010
0000
0001
0000
,  // measure 75
0000
0000
0000
0000
1001
0000
0001
0000
0101
0000
0001
0010
0100
1000
0001
0000
,  // measure 76
0100
0000
0000
0000
0100
0000
0000
0000
0100
0000
0000
0000
0001
0000
0000
0000
0000
0000
0010
0000
0000
000M
0000
0000
0010
0000
0000
1000
0000
0000
0000
0000
0000
1000
0000
0000
0100
0000
0000
0010
0000
0000
0001
0000
0000
0000
0000
0000
,  // measure 77
2000
0000
0000
0000
3001
0100
000M
0100
1000
0000
1001
0000
1000
0100
0001
0000
,  // measure 78
0001
0100
0010
0100
2000
0000
0000
0000
0000
0000
0000
0000
0000
0000
0000
0000
,  // measure 79
3000
0000
0000
0000
;

//---------------dance-single - ----------------
#NOTES:
     dance-single:
     :
     Medium:
     13:
     0.669426,0.806169,0.097965,0.204093,0.253076,574.000000,562.000000,12.000000,25.000000,0.000000,0.000000,0.669426,0.806169,0.097965,0.204093,0.253076,574.000000,562.000000,12.000000,25.000000,0.000000,0.000000:
0000
0000
0000
0000
,
0000
0000
0000
0000
,
0000
0000
0000
0000
,
0000
0000
0000
0000
,
0000
0000
0000
0000
,
2002
0000
0000
0000
,
3003
0000
0000
0000
,
0000
0000
0000
0000
,
0001
0001
0100
0001
1000
1000
0100
1000
,
0001
0010
0001
0001
1000
0010
1000
0001
,
2002
3003
0000
0000
,
0000
0000
0000
0000
,
0000
0000
0000
0000
,
1000
1000
0010
1000
0001
0001
0010
0001
,
1000
0100
1000
1000
0001
0100
0001
1000
,
2002
3003
0000
0000
,
0000
0000
0000
0000
,
0000
0000
0000
0000
,
1000
1000
0010
0100
0001
1000
1000
0001
,
1000
0100
0010
0001
0001
0100
0001
1000
,
0001
0010
1000
1000
0010
0001
0001
1000
,
0001
0100
0101
0000
1000
0100
1100
0000
,
0001
0010
0011
0000
1000
0010
1010
0000
,
1000
0001
1001
0000
0010
0100
0110
0000
,
0001
1000
0110
0000
1000
0001
0110
0000
,
1000
0100
0010
0100
0001
0100
0010
0100
,
1000
0010
0100
0010
0001
0010
0100
0010
,
1000
0100
0001
0100
1000
0010
0001
0010
,
1000
0000
0001
0100
0001
0000
0100
0000
0001
0000
1000
0000
1000
0000
1000
0000
,
0001
0010
0100
0010
0001
0010
0100
0010
,
0001
0000
1000
0010
1000
0000
0010
0000
1000
0000
0010
0000
0010
0000
0010
0000
,
1000
0100
0010
0100
1000
0100
0010
0100
,
1000
0000
0001
0100
0001
0000
0100
0000
0001
0000
1000
0000
1000
0000
1000
0000
,
0001
0010
0100
0010
1000
0010
0100
0010
,
0001
0000
0100
0010
0100
0000
0001
1000
0001
0000
0010
0100
0010
0000
0010
0000
,
0001
0100
0010
0100
1000
0100
0010
0100
,
0001
0010
0100
0010
1000
0010
0100
0010
,
0001
0001
0100
0100
0010
0010
0010
0100
,
0001
0001
0010
0010
0100
1000
1000
0001
,
1000
0010
0001
0010
0100
0100
0100
0001
,
1000
0000
0100
0000
0001
0000
0100
0000
0010
0000
0010
0000
0001
1000
0001
1000
,
0001
0100
0100
0001
1000
0100
0100
1000
,
0001
0010
0010
0001
2000
3010
0200
0310
,
0002
0013
0200
0310
2000
3010
0200
0310
,
1000
0100
0010
0001
1000
0010
0100
0001
,
1000
0000
0000
1000
0100
0000
0010
0000
0002
0000
0103
0000
0020
0000
0130
0000
,
2000
3100
0020
0130
0002
0103
0002
1003
,
0001
0010
1000
0010
0001
0100
1000
0100
,
0010
0000
0000
0010
1000
0000
0001
0000
2000
0000
3100
0000
0002
0000
0103
0000
,
0020
0130
2000
3001
2000
3010
0002
0013
,
1000
0010
0100
1000
0001
0010
0100
0001
,
1000
0100
0001
0100
1000
1000
1000
0001
,
0100
0000
0010
0000
1000
0000
0001
0000
1000
0001
1000
0001
1000
0001
1000
0001
,
0010
0010
0100
0100
1000
1000
0001
0001
,
0100
0000
0010
1000
0010
0000
0100
0000
0001
0000
0001
0000
1000
0000
1000
0000
,
0001
0001
0010
0010
0100
0100
1000
1000
,
0001
0000
0100
0010
1000
0000
0001
0000
0010
0000
0010
0000
0100
0000
0100
0000
,
1000
1000
0010
0010
0100
0100
0001
0001
,
1000
0000
0001
0100
0001
0000
1000
0100
1000
0000
0001
0000
0001
0000
1000
0000
,
0001
0010
0100
0010
1000
0010
0001
0010
,
0001
0100
0001
0000
1000
0010
1000
0000
0001
0010
0001
0000
1000
0100
1000
0000
,
0001
0100
1000
0100
0001
0100
1000
0100
,
0010
0000
1000
0010
1000
0010
1000
0010
1000
0000
0001
0000
0001
0000
0001
0000
,
1000
0100
0001
0100
1000
0100
0001
0100
,
0010
0000
0001
0010
0001
0010
0001
0010
0001
0000
1000
0000
1000
0000
1000
0000
,
0001
0100
1000
0100
0001
0100
1000
0100
,
0010
0000
1000
0010
1000
0010
1000
0010
1000
0000
0001
0000
0001
0000
0001
0000
,
1000
0100
0001
1000
0010
0001
1000
0001
,
1000
0010
1000
0000
0001
0100
0010
0000
1000
0100
1000
0000
0001
0010
0100
0000
,
1000
0000
0001
0100
0001
0100
0001
0100
0001
0000
0001
0000
0001
0000
0001
0000
,
0010
0000
0100
1000
0100
1000
0100
1000
0100
0000
0100
0000
0100
0000
0100
0000
,
1000
0000
0010
0100
0010
0100
0010
0100
0010
0000
0010
0000
0010
0000
0010
0000
,
1000
0000
0100
0010
0100
0010
0001
0010
0001
0000
1000
0000
0001
0000
1000
0000
,
0001
0000
0100
0010
0100
0010
1000
0010
1000
0000
0001
0000
1000
0000
0001
0000
,
1000
0000
0100
0010
0001
0010
0100
1000
0001
0000
1000
0000
0001
0000
1000
0000
,
0000
0000
0001
0001
0100
1000
1000
0100
,
0010
0000
0000
0000
1000
0000
0000
0000
0010
0000
0000
0000
1000
0000
0000
0000
0000
0000
0100
0000
0000
0000
0000
0000
0000
0000
0000
0100
0000
0000
0000
0000
0000
0000
0000
0000
0010
0000
0000
0000
0000
0000
0001
0000
0000
0000
0000
0000
,
1100
0000
0000
0000
1000
0010
0000
1000
0010
0000
0100
0001
0000
0100
0001
0000
,
1000
0100
0010
0001
2000
0000
0000
0000
0000
0000
0000
0000
0000
0000
0000
0000
,
3000
0000
0000
0000
;

//---------------dance-single - ----------------
#NOTES:
     dance-single:
     :
     Easy:
     9:
     0.475829,0.515948,0.465333,0.106129,0.000000,408.000000,351.000000,57.000000,13.000000,0.000000,0.000000,0.475829,0.515948,0.465333,0.106129,0.000000,408.000000,351.000000,57.000000,13.000000,0.000000,0.000000:
0000
0000
0000
0000
,
0000
0000
0000
0000
,
0000
0000
0000
0000
,
0000
0000
0000
0000
,
0000
0000
0000
0000
,
2002
0000
0000
0000
,
3003
0000
0000
0000
,
0000
0000
0000
0000
,
0001
0101
1000
1100
,
0001
0011
1000
1010
,
2002
0000
0000
0000
,
3003
0000
0000
0000
,
0000
0000
0000
0000
,
1000
1100
0001
0101
,
1000
1010
0001
0011
,
2002
0000
0000
0000
,
3003
0000
0000
0000
,
0000
0000
0000
0000
,
1000
1010
0000
0101
,
0001
0011
0000
1100
,
1000
0000
1001
0000
0001
0001
0001
0001
,
0001
0101
1000
1100
,
0001
0011
1000
1010
,
1000
1001
0010
1001
,
0100
1001
0100
1001
,
1000
0010
0001
0100
,
0001
0010
1000
0001
,
1000
0100
0001
0100
,
1000
0000
0010
0000
0100
0100
0100
0100
,
0100
0001
1000
0100
,
0010
0000
0010
0000
0010
0010
0010
0010
,
0010
0100
1000
0001
,
0100
0000
0100
0000
0100
0100
0100
0100
,
0100
0001
0010
0100
,
1000
0000
1000
0000
1000
1000
1000
1000
,
1000
0010
0100
0001
,
1000
0100
1000
0000
0001
0010
0001
0000
,
1000
0010
1000
0000
0001
0100
0001
0000
,
1000
0001
0100
0000
0001
1000
0100
0000
,
1000
0001
0010
0000
0010
0010
0010
0000
,
0001
0000
0100
0000
0010
1000
0001
0100
,
0020
1030
0002
0103
,
0002
0013
1100
0011
,
1010
0101
1001
0110
,
0010
1000
0100
0000
0010
0001
0100
0000
,
0020
0130
0101
1010
,
0011
1100
0011
1001
,
0100
0001
0010
0000
0100
1000
0010
0000
,
0200
0310
1010
0101
,
0011
1100
1001
0110
,
0010
1000
0100
0000
0010
0001
0100
0000
,
0010
1000
0010
1000
0010
0000
0101
0000
,
0001
0010
0001
0010
0100
1000
0100
1000
,
0001
0101
1000
1100
,
0001
0100
0001
0100
0001
0100
0001
0100
,
0001
0011
1000
1010
,
1000
0100
1000
0100
1000
0100
1000
0100
,
1000
0101
0001
1100
,
0001
1000
0001
1000
0010
0100
0010
0100
,
0001
0011
1000
1010
,
0001
0010
0100
1000
0100
0010
0001
1000
,
0001
0001
0001
0000
1000
1000
1000
0000
,
0010
0010
0010
0010
0010
0010
0010
0010
,
0100
0100
0100
0000
0001
0001
0001
0000
,
1000
1000
1000
1000
1000
1000
1000
1000
,
0001
0001
0001
0000
0010
0010
0010
0000
,
0100
0100
0100
0100
0100
0100
0100
0100
,
1000
1000
1000
0000
0001
0001
0001
0000
,
0100
0100
0100
0000
0010
0010
0010
0000
,
1000
1000
1000
1000
1000
1000
1000
0000
,
0001
0001
0001
0001
0001
0001
0001
0000
,
0010
0010
0010
0010
0010
0010
0010
0000
,
0100
0100
0100
0100
0100
0100
0100
0000
,
1000
1000
1000
1000
1000
1000
1000
0000
,
0001
0001
0001
0001
0001
0001
0001
0001
,
0000
1001
0101
1000
,
1100
0001
0011
1000
,
1010
0000
0001
0010
0100
1000
0100
0010
,
0001
1000
2002
0000
0000
0000
0000
0000
,
3003
0000
0000
0000
;

//---------------dance-single - ----------------
#NOTES:
     dance-single:
     :
     Beginner:
     5:
     0.214590,0.257974,0.024491,0.089801,0.000000,184.000000,181.000000,3.000000,11.000000,0.000000,0.000000,0.214590,0.257974,0.024491,0.089801,0.000000,184.000000,181.000000,3.000000,11.000000,0.000000,0.000000:
0000
0000
0000
0000
,
0000
0000
0000
0000
,
0000
0000
0000
0000
,
0000
0000
0000
0000
,
0000
0000
0000
0000
,
2002
0000
0000
0000
,
3003
0000
0000
0000
,
0000
0000
0000
0000
,
1000
1000
0000
0010
,
0000
0100
0000
0001
,
0002
0000
0000
0000
,
0003
0000
0000
0000
,
0000
0000
0000
0000
,
0010
0010
0000
0100
,
0000
1000
0000
0001
,
0002
0000
0000
0000
,
0003
0000
0000
0000
,
0000
0000
0000
0000
,
1000
1000
0000
0100
,
0000
0010
0000
1000
,
1000
1000
0000
0001
,
0001
0001
0000
0010
,
0010
0010
0000
0100
,
0100
0100
0000
1000
,
1000
1000
0000
0001
,
0001
0001
0001
0000
,
1000
1000
1000
0000
,
0010
0010
0010
0010
,
0010
0000
0000
0000
,
0100
0100
0100
0100
,
0200
0000
0300
0000
,
0001
0001
0001
0001
,
0002
0000
0003
0000
,
1000
1000
1000
1000
,
2000
0000
3000
0000
,
0010
0010
0010
0000
,
0100
0100
0100
0000
,
0001
0001
0001
0000
,
1000
1000
1000
0000
,
0010
0010
0010
0000
,
0100
0100
0100
0000
,
0001
0000
1000
1000
,
1000
0000
0010
0010
,
0010
0010
0010
0010
,
0010
0000
0100
0000
,
0001
0000
1000
1000
,
1000
1000
1000
1000
,
1000
0000
0001
0000
,
0010
0000
0100
0100
,
0100
0100
0100
0100
,
0100
0000
1000
0000
,
0001
0001
0001
0000
,
1000
1000
1000
1000
,
1000
0000
0010
0000
,
0100
0100
0100
0100
,
0100
0000
0001
0000
,
0010
0010
0010
0010
,
0010
0000
0100
0000
,
1000
1000
1000
1000
,
1000
0000
0001
0000
,
0010
0010
0010
0010
,
0010
0000
0001
0000
,
0100
0100
0100
0100
,
0100
0000
0010
0000
,
1000
1000
1000
1000
,
1000
0000
0001
0000
,
0010
0010
0010
0010
,
0010
0000
0100
0000
,
1000
1000
1000
0000
,
0001
0001
0001
0000
,
0100
0100
0100
0000
,
0010
0010
0010
0000
,
1000
1000
1000
0000
,
0001
0001
0001
0000
,
0010
0010
0010
0000
,
0000
2002
0000
0000
,
0000
3003
0000
0000
,
0000
0000
0000
0000
,
0000
2002
0000
0000
,
3003
0000
0000
0000
;
