#TITLE:Komm Susser Tod;
#SUBTITLE:;
#ARTIST:Florence;
#TITLETRANSLIT:;
#SUBTITLETRANSLIT:;
#ARTISTTRANSLIT:;
#CREDIT:;
#BANNER:Komm Susser Tod.png;
#BACKGROUND:Komm Susser Tod-jacket.png;
#LYRICSPATH:;
#CDTITLE:;
#MUSIC:Komm Susser Tod.ogg;
#OFFSET:-0.056;
#SAMPLESTART:48.056;
#SAMPLELENGTH:24.000;
#SELECTABLE:YES;
#BPMS:0.000=160.000,192.000=80.000,196.000=160.000,256.000=80.000,258.000=160.000;
#STOPS:;
#BGCHANGES:;

//---------------dance-single - ----------------
#NOTES:
     dance-single:
     :
     Hard:
     12:
     0.560,0.719,0.370,0.044,0.200: // measure 1
0000
0000
0000
0000
,  // measure 2
0000
0000
0000
0000
,  // measure 3
0000
0000
0000
0000
,  // measure 4
0000
0000
0000
0000
,  // measure 5
0000
0000
0000
0000
,  // measure 6
0000
0000
0000
0000
,  // measure 7
0000
0000
0000
0000
,  // measure 8
0000
0000
0000
0000
,  // measure 9
1000
0000
0000
0000
0010
0000
0000
0010
0100
0000
0000
0100
0001
0000
0000
0001
,  // measure 10
0010
1100
0010
0101
,  // measure 11
1001
1000
0110
0001
,  // measure 12
0110
1000
1001
0000
,  // measure 13
0011
0100
1010
0100
,  // measure 14
0011
0100
1010
0100
,  // measure 15
0001
1000
0001
1000
0001
1000
0001
0000
,  // measure 16
0100
0010
1000
0001
0100
0010
1000
0000
,  // measure 17
0100
0010
0100
0000
1000
0001
1000
0000
,  // measure 18
0010
0100
0001
0000
1000
0000
0100
0010
,  // measure 19
0001
0000
1000
0000
0010
0100
1000
0000
,  // measure 20
0100
0000
0001
1000
0000
1000
0100
0000
,  // measure 21
0010
0000
0001
0000
1000
0010
0100
0000
,  // measure 22
0001
0000
0010
0100
0000
0100
1000
0000
,  // measure 23
1001
0000
1000
0010
0000
0010
0100
0000
,  // measure 24
0001
1000
0100
0010
,  // measure 25
0001
0010
0001
0000
1000
0010
1000
0000
,  // measure 26
0001
0100
0010
1000
0100
0010
0100
0000
,  // measure 27
1000
0010
1000
0000
0001
0010
0001
0000
,  // measure 28
1000
0010
0100
0001
0010
0100
1000
0100
,  // measure 29
0010
0001
1000
0000
0010
1000
0001
0000
,  // measure 30
0100
0010
1000
0000
0100
0010
0001
0000
,  // measure 31
1000
0010
1000
0000
0001
0100
0010
1000
,  // measure 32
0000
0100
0010
0001
0100
0000
0010
0000
,  // measure 33
1010
0000
0000
1000
0100
0000
0000
0000
0011
0000
0000
0001
0100
0000
0000
0000
,  // measure 34
1010
0000
0000
0010
1000
0000
0000
1000
0100
0000
0000
0100
0010
0000
0000
0000
,  // measure 35
0011
0000
0000
1000
0010
0000
0000
0000
0101
0000
0000
1000
0100
0000
0000
0000
,  // measure 36
0110
0000
0000
0010
0001
0000
0000
0001
0100
0000
0000
0100
0010
0000
0000
0000
,  // measure 37
1010
0000
0000
0100
0010
0000
0000
0000
0011
0000
0000
0100
0010
0000
0000
0000
,  // measure 38
1010
0000
0000
0010
1000
0000
0000
1000
0100
0000
0000
0100
0001
0000
0000
0000
,  // measure 39
0001
0000
0000
0001
0100
0000
0000
0100
1000
0000
0000
1000
0010
0000
0000
0010
,  // measure 40
0001
0000
0000
0001
1000
0000
0100
0010
0100
0000
0000
0000
0001
0000
0000
0000
,  // measure 41
1001
0000
0000
0000
0001
0000
0000
0000
0010
0000
0000
0100
1000
0000
0000
0001
,  // measure 42
0100
0000
0000
0000
0010
0000
0000
0000
1000
0000
0000
0100
0010
0000
0000
0001
,  // measure 43
0100
0000
0000
0000
0010
0000
0000
0000
1000
0000
0000
0001
0010
0000
0000
0100
,  // measure 44
0010
0000
0000
0000
0001
0000
0000
0000
1000
0000
0000
0010
0100
0000
0000
0010
,  // measure 45
1000
0000
0000
0100
0000
0000
0010
0000
0001
0100
0000
0010
,  // measure 46
0001
0000
0000
0001
0000
0000
0010
0000
0000
0000
0010
0000
0100
0000
0000
0000
,  // measure 47
0001
1000
0100
0000
0100
0010
0100
0000
,  // measure 48
0100
1000
0010
0000
0010
0100
0001
0001
,  // measure 49
M101
0000
0100
0000
0010
0000
0100
0100
0001
1000
0000
0100
0020
0100
0030
0000
,  // measure 50
1M01
0000
0000
0000
0101
0000
0000
0100
0010
0000
1000
0000
0100
0000
0010
0000
,  // measure 51
0100
1000
0001
0000
0001
0100
1000
0000
,  // measure 52
0001
0000
0001
0000
1000
0100
0010
0000
,  // measure 53
1000
0100
0010
0001
0000
0010
0100
1000
,  // measure 54
0001
0000
0001
0000
0001
0100
0010
1000
,  // measure 55
0100
0000
0010
0100
1000
0001
0100
0000
,  // measure 56
0010
1000
0100
1000
0001
0100
0010
0000
,  // measure 57
1000
0100
1100
0000
0010
0001
0011
0000
,  // measure 58
1001
0000
0000
0000
0001
0000
0000
0100
0010
0000
1000
0000
0100
0000
0010
0000
,  // measure 59
0100
1000
0001
0000
0100
0010
1000
0000
,  // measure 60
1000
0001
0010
0100
0010
0001
0100
0000
,  // measure 61
0010
1000
0001
0010
0100
1000
0100
0010
,  // measure 62
0001
0100
0010
0000
0010
0100
1000
0000
,  // measure 63
1000
0100
0001
1000
0100
0010
0100
0000
,  // measure 64
0001
0100
0010
0001
1000
0010
0100
0001
,  // measure 65
1M00
1000
1000
1000
1M01
0000
1001
0000
,  // measure 66
1100
1100
1001
1001
,  // measure 67
0101
0000
0000
0000
0101
0000
0000
0000
0010
1000
0000
0000
1010
0000
0000
0000
,  // measure 68
1001
1001
0011
0011
,  // measure 69
1001
0000
0000
0000
1001
0000
0000
0000
1100
0000
0000
1000
0100
0000
0000
1000
,  // measure 70
0100
0000
0000
1000
0001
0000
0000
1000
0001
0000
0000
0100
0001
0000
0000
0100
,  // measure 71
0001
0000
0000
1000
0001
0000
0000
1000
0010
1000
0000
0000
0100
0000
0000
0000
,  // measure 72
0001
0100
1000
0001
,  // measure 73
0100
0000
1000
0000
0100
0001
1000
0100
,  // measure 74
0010
0100
1000
0001
0100
0010
1000
0100
,  // measure 75
0010
0100
0001
0000
0001
0100
1000
0001
,  // measure 76
0100
0010
0100
0001
1000
0100
0010
0001
,  // measure 77
0100
0010
0100
0000
1000
0100
0001
1000
,  // measure 78
1100
0000
0010
0001
1000
0010
1010
0000
,  // measure 79
0010
1000
0001
0010
0110
0000
0100
1000
,  // measure 80
1001
0000
0001
0100
0110
0000
0010
1000
,  // measure 81
1010
0000
0001
0010
0021
0000
0100
0000
,  // measure 82
1000
0100
0032
0100
,  // measure 83
1000
0010
2003
0010
,  // measure 84
0001
3100
0200
0001
,  // measure 85
0010
0000
0000
1300
0000
0000
0001
0000
0010
0100
0000
0000
,  // measure 86
1000
0000
0000
1000
0000
0010
0100
0000
0000
0001
0000
0000
,  // measure 87
0001
0000
0010
0100
0000
0000
2000
0000
0000
0000
0000
0000
,  // measure 88
0000
0000
0000
0000
,  // measure 89
0000
3000
0000
0000
;

//---------------dance-single - ----------------
#NOTES:
     dance-single:
     :
     Medium:
     8:
     0.422,0.588,0.407,0.185,0.022:
0000
0000
0000
0000
,
0000
0000
0000
0000
,
0000
0000
0000
0000
,
0000
0000
0000
0000
,
0000
0000
0000
0000
,
0000
0000
0000
0000
,
0000
0000
0000
0000
,
0000
0000
0000
0000
,
1000
0000
0000
0000
1000
0000
0000
0000
0010
0000
0000
0010
0100
0000
0000
0000
,
0101
0000
1001
0000
,
1100
0000
0000
0000
1000
0000
0000
0000
0100
0000
0000
0010
0001
0000
0000
0000
,
0011
0000
1010
0000
,
1001
0100
1001
0000
,
0101
1000
1100
0000
,
1100
0010
0011
0000
,
0011
1000
1010
0001
,
1001
0000
0000
0000
0000
0000
0000
1000
,
0100
0000
0010
0000
0100
0000
1000
0001
,
0100
0000
0000
0010
,
1000
0000
0100
0010
0000
0100
0001
0000
,
2000
0000
3000
0010
,
0001
0000
1000
0010
0000
0100
0000
0000
,
1000
0000
0100
0001
0000
1000
0000
0100
,
0010
0000
0001
1000
,
0010
0000
1010
0000
0001
0000
0011
0010
,
0100
0000
1000
0100
0000
0010
0000
0001
,
0100
1000
0100
0010
,
1000
0000
0001
0010
0000
0100
0010
0002
,
0000
0103
0010
0100
,
0002
0013
2000
3010
,
0002
0000
0103
0000
0010
0100
0000
0100
,
0001
1000
0100
0010
,
0011
0000
0011
0001
,
1001
0000
1000
0000
1010
0000
0010
0100
,
0001
0000
0010
0100
,
1100
1000
1001
0001
,
0101
0000
0110
0010
,
1010
0000
1000
0100
0010
0000
0001
0000
,
0102
1003
2010
3001
,
0021
0130
2100
3001
,
0101
0000
0100
0000
0010
1000
0000
1000
,
0100
0000
0010
0000
0001
0000
0100
0010
,
2000
0000
3000
0001
0010
0000
0010
1000
,
0000
0010
0000
0100
1000
0001
0000
0001
,
0100
0000
0010
0000
1000
0010
0100
0010
,
0001
0000
0000
0001
0000
0000
0010
0000
0000
0000
0000
0000
1000
0000
0000
0000
,
2100
3001
0102
1003
,
2010
3001
0012
1003
,
1001
0000
1000
0000
0010
0100
0001
0000
,
2002
0000
0000
0000
3003
0000
0000
1000
,
0100
0010
0100
1000
,
2002
0000
3003
0001
,
0100
0000
0010
0100
0000
0100
0001
0000
,
0020
0000
0030
0100
,
1000
0000
0001
0100
0000
0010
0000
0000
,
1000
0000
0010
0100
0000
0001
0000
0010
,
0100
0000
1000
0000
0001
0000
0100
0010
,
0120
0000
0000
0000
0031
0000
1000
0100
,
0010
0000
0010
0100
0000
0000
0100
0001
,
0100
1000
0001
0100
,
0110
0000
0010
1000
0000
1000
0001
0010
,
0100
1000
0001
0100
,
0010
0100
0001
1000
,
0100
0010
0000
0000
0001
0100
0000
0000
,
0010
1000
0001
0100
0110
0000
0010
0000
,
0010
1000
0001
0001
,
0001
0010
0100
0100
,
0100
1000
0001
0001
,
0001
0100
0110
0010
,
0110
1000
1001
0001
,
1001
1000
1100
0010
,
1100
0010
0101
0010
,
1000
0000
0001
0000
1001
0000
1000
0100
,
0010
0000
0001
0000
1000
0000
0010
0100
,
0001
1000
0110
0001
,
1001
1000
0110
0001
,
0010
0000
0100
0000
1000
0010
0100
0000
,
0101
0000
0001
0010
0100
0000
1100
0000
,
1000
0001
0100
0000
0110
0000
0010
0000
,
1000
0001
0010
0100
,
1000
0010
1020
0000
,
0000
0130
0002
0000
,
0000
0013
0200
0000
,
2300
0000
3000
0001
,
1000
0000
0000
0001
0000
0000
0100
0000
0100
0010
0000
0000
,
1000
0000
0000
0100
0000
0100
0010
0000
0000
0001
0000
0000
,
0100
0000
0100
0010
0000
0000
2000
0000
0000
0000
0000
0000
,
0000
0000
0000
0000
,
0000
3000
0000
0000
;

//---------------dance-single - ----------------
#NOTES:
     dance-single:
     :
     Easy:
     6:
     0.257,0.392,0.104,0.044,0.000:
0000
0000
0000
0000
,
0000
0000
0000
0000
,
0000
0000
0000
0000
,
0000
0000
0000
0000
,
0000
0000
0000
0000
,
0000
0000
0000
0000
,
0000
0000
0000
0000
,
0000
0000
0000
0000
,
1000
0000
0000
0000
,
1000
0010
1000
0100
,
0010
0000
0001
0000
,
1000
0000
0010
0000
,
0100
0000
0000
0000
,
0001
0000
0001
0000
,
1000
0000
0010
0000
,
0100
0000
0000
0001
,
0010
0000
0000
0000
,
0010
0100
1000
0100
,
0001
0000
0000
1000
,
0010
0100
1000
0001
,
0100
0000
0000
0010
,
0100
1000
0100
0001
,
1000
0100
0010
0001
,
1000
0000
0000
0010
,
0100
0000
0000
0000
,
0001
0010
0100
1000
,
0001
0000
0000
1000
,
0010
1000
0100
0010
,
0001
0000
0000
0000
,
0001
0100
0010
1000
,
0100
0010
0100
1000
,
0002
0000
0000
0000
,
0003
0000
0100
0010
,
1000
0100
0010
0100
,
1000
0000
1000
0001
,
0100
0010
0100
0001
,
1000
0000
0000
0100
,
1000
0010
0100
0001
,
0011
0000
0010
0000
,
0100
0000
1000
0000
,
0001
0100
0010
0100
,
1000
0100
0001
1000
,
0100
0000
0010
0100
,
1000
0001
1000
0010
,
0100
0000
0000
0001
,
0010
0100
1000
0010
,
2010
0000
3001
0000
,
0020
0000
0230
0000
,
1300
0000
0000
0000
0000
0000
0000
0001
,
1001
0000
0000
0000
,
0001
0100
0010
1000
,
0100
0000
0000
0010
,
0100
1000
0001
0100
,
0101
0000
0000
0100
,
0010
1000
0100
0010
,
0100
1000
0001
0100
,
0110
0000
0000
0010
,
1001
1000
0100
0000
,
0010
0001
1000
0010
,
0100
0000
0000
0001
,
0010
0100
0001
0100
,
1000
0000
0000
1000
,
0010
0100
1000
0100
,
0001
1000
0100
0010
,
0002
0000
0003
0000
,
1000
0010
0000
0100
,
0010
0000
0001
0010
,
0000
0000
0010
1000
,
0000
0000
1000
0100
,
0000
0000
0001
0100
,
0000
0000
0010
0100
,
0000
0000
1000
0100
,
0000
0000
0011
0001
,
1000
0010
0100
0001
,
0010
0100
1000
0010
,
1000
0001
0010
0100
,
1000
0001
0100
0010
,
1010
1000
0100
0011
,
0001
0100
1010
1000
,
0100
0010
0001
1000
,
0010
0100
0101
0000
,
0000
0001
0010
0000
,
0000
0000
0010
0000
0100
0000
0000
0100
,
0000
0000
0000
0100
,
1000
0010
1010
0010
,
0100
0101
0001
0010
,
0011
0010
0200
0000
,
0000
0000
0000
0000
,
0000
0300
0000
0000
;
