#VERSION:0.83;
#TITLE:リアルにぶっとばす;
#SUBTITLE:;
#ARTIST:ピノキオP feat. 初音ミク;
#TITLETRANSLIT:KICK-ASS *LITERALLY;
#SUBTITLETRANSLIT:;
#ARTISTTRANSLIT:PinocchioP feat. Hatsune Miku;
#GENRE:;
#CREDIT:;
#MUSIC:KICK-ASS LITERALLY.ogg;
#BANNER:STPlatinum.png;
#BACKGROUND:STPlatinum-bg.png;
#CDTITLE:;
#SAMPLESTART:45.750;
#SAMPLELENGTH:12.000;
#SELECTABLE:YES;
#OFFSET:0.750;
#BPMS:0.000=160.000;
#STOPS:;
#BGCHANGES:1.625=KICK-ASS LITERALLY.avi=1.000=1=0=0=StretchNoLoop==CrossFade==,
99999.000=-nosongbg-=1.000=0=0=0=StretchNoLoop====
;
#FGCHANGES:;

//--------------- dance-single - ----------------
#NOTEDATA:;
#STEPSTYPE:dance-single;
#DESCRIPTION:;
#DIFFICULTY:Hard;
#METER:14;
#RADARVALUES:0,0,0,0,0;
#CREDIT:Talkion;
#NOTES:
0000
0000
0000
0000
,
0000
0000
0000
0000
,
0000
0000
0000
0000
,
0000
0000
0000
0000
,
1000
0100
1000
0000
0001
0000
0100
0020
0000
0000
0000
0000
MM3M
0000
0000
0000
,
1002
0000
0000
0000
0013
0000
0000
0100
0000
0100
0000
0100
1000
0000
0001
0000
,
0010
0000
0001
0000
1000
0000
0000
0010
0000
0010
0000
0010
0100
0000
0001
0000
,
0000
0000
1000
0000
1000
0000
0000
0100
0000
0100
0000
0100
0010
0000
0001
0000
,
0100
0000
0001
0000
0010
0000
0000
0020
0000
0000
0130
0000
1000
0001
1000
0001
,
0200
0000
0000
0000
0310
0000
0000
0100
0000
0100
0000
0100
0001
0000
1000
0000
,
0010
0000
1000
0000
0001
0000
0000
0010
0000
0010
0000
0010
0100
0000
1000
0000
,
0000
0000
0001
0000
0001
0000
0000
0100
0000
0100
0000
0100
0010
0000
1000
0000
,
0002
0010
0000
0003
2000
0100
0000
3000
0002
0010
0000
0003
1000
0000
0010
0000
,
0100
0001
0010
0001
0100
0010
1000
0002
,
0000
0000
0013
0000
0100
0000
0000
0100
1000
0000
0001
0000
0001
0000
0100
0010
,
0100
0001
2000
0000
3100
0010
0001
0200
,
0000
0000
0310
0000
1000
0001
1000
0000
0020
0000
0000
0000
0130
0000
0001
1000
,
0002
0100
0013
0100
1000
0010
0200
0001
,
0000
0310
0010
1000
0000
2001
0000
3100
,
0010
0001
0100
0001
0010
0001
0100
0010
,
1000
0000
0001
0000
0010
0100
0000
0100
1000
0000
0010
0100
0010
0000
1000
0001
,
1000
0000
0100
0000
0001
0000
0100
0000
1000
0000
0100
0010
0001
0000
1000
0000
,
0010
0100
0010
0000
0001
0000
0010
0000
1000
0000
0010
0100
0001
0000
1000
0000
,
0100
0010
0002
0000
0010
0000
1003
0000
0100
0010
0002
0000
0010
0000
1003
0000
,
0001
0000
0100
0010
0100
0000
0001
0000
0002
0000
0000
0000
MMM3
0000
0001
0000
,
0010
0000
0010
0000
0010
0000
0100
1000
0000
0100
0010
0000
0001
0000
1000
0000
,
0010
0100
0010
0000
1000
0000
0001
0010
0000
0010
0001
0000
1000
0000
0010
0000
,
0100
0000
0100
0000
0100
0000
0001
0010
0000
1000
0000
0010
0001
0000
0100
0000
,
0010
0000
1000
0000
1000
0001
0010
0100
,
0002
0000
1003
0010
0100
1000
0010
0100
,
1000
0000
0000
1000
0000
0000
1000
0000
0100
0000
0000
0000
0020
0030
0000
0000
,
1000
0001
1000
0000
0100
0000
0010
0000
2000
0000
3020
0000
0130
0000
0000
0000
,
1000
0001
1000
0000
0010
0000
0100
0000
2000
0000
3200
0000
0310
0000
0000
0000
,
1000
0001
0000
0001
1000
0000
0100
0000
0020
0000
2030
0000
3010
0000
0000
0000
,
0100
0000
0100
0000
0100
0000
1000
0001
1000
0010
0000
0200
0000
0000
0300
0000
,
0001
0010
0001
0000
1000
0000
0010
0200
0000
0000
0001
0000
M3MM
0000
0000
0000
,
1000
0010
1000
0000
0001
0000
0010
0200
0000
0000
1000
0000
M3MM
0000
0000
0000
,
0001
0010
0001
0000
1000
0000
0010
0200
0000
0000
0001
0000
0310
0000
0000
0000
,
1001
0110
2002
3003
,
1000
1000
1000
1000
0100
0020
1000
0000
,
0230
0001
0000
0310
1000
0010
0200
0000
,
1300
0000
0010
0000
0010
0000
0010
0000
0020
0000
0000
0230
0000
0000
0301
0000
,
0100
0000
0000
0100
0010
0000
0010
0000
0010
0000
1000
0000
0002
0000
0000
0000
,
1003
0100
1000
0000
0001
0000
0100
0020
0000
0000
1000
0000
MM3M
0000
0000
0000
,
0001
0100
0001
0000
1000
0000
0100
0020
0000
0000
0001
0000
MM3M
0000
0000
0000
,
1000
0000
0000
1000
0010
0000
0000
0010
0100
0000
0001
0000
1000
0000
0001
0000
,
0020
0000
0030
0100
2000
0000
3000
0100
0010
0000
0001
0000
1000
0001
0100
0010
,
2000
0000
0100
0100
3000
0000
0001
0100
,
0020
0000
0230
0000
0302
0000
1003
0100
,
0020
0000
0000
0001
0000
0000
0130
0000
0010
0000
0001
0000
0000
0000
1000
0000
,
0010
0100
0002
0000
2003
0000
3100
0010
,
1000
0010
0100
0002
0000
0103
0020
0000
,
0031
0010
0100
2000
0000
3001
0000
0100
,
0010
0200
0000
0302
0000
1003
0100
0010
,
0001
0000
0110
0000
1001
0000
1000
0010
,
0200
0000
0000
0000
0001
0000
0000
0310
0000
0010
0000
0010
0100
0000
0001
0000
,
2000
0000
0000
0000
3100
0000
0000
0010
0000
0010
0200
0000
0001
0000
0300
0000
,
2100
0000
3001
0100
0020
1000
1030
0001
,
0010
0100
0001
0100
0010
0100
2000
0000
,
3001
0100
0010
1000
0000
0000
1000
0100
0010
0001
0000
0000
,
0001
0000
0100
0000
0010
0000
1000
0000
0000
0000
0000
0000
0120
0000
0000
0030
0000
0000
2001
0000
0000
3000
0000
0000
,
0010
2000
0100
3001
0000
0000
0010
0002
0100
1003
0000
0000
,
0010
1000
0100
1000
0010
0010
0020
0000
,
0030
0000
0000
0000
,
0000
0000
0100
0100
,
0001
1000
0001
0000
0010
0000
0100
0000
0002
0000
0203
0000
0310
0001
0010
0001
,
1000
0100
1000
0000
0001
0000
1000
0010
0100
0000
0000
0100
0000
0000
0100
0000
,
0001
1000
0000
1000
0001
0000
0010
0000
0200
0000
0302
0000
0103
0000
0000
0000
,
0010
0000
0010
0000
0010
0000
0001
1000
0001
0100
0000
0020
0000
0000
0030
0000
,
1000
0100
1000
0000
0001
0000
0100
0020
0000
0000
0001
0000
MM3M
0000
0000
0000
,
0001
0100
0001
0000
1000
0000
0100
0020
0000
0000
1000
0000
MM3M
0000
0000
0000
,
1000
0100
1000
0000
0001
0000
0100
0020
0000
0000
0001
0000
0130
0000
0000
0000
,
1001
0110
2002
3003
,
0001
0001
0001
0001
0010
0200
0001
0000
,
0320
1000
0000
0230
0001
0000
0310
0010
,
0001
0100
0020
1000
0000
0130
1000
0100
,
0010
1000
0001
1000
0100
0010
0100
0001
,
1000
0010
0100
2000
0000
3002
0000
0103
,
0020
0000
0000
0000
1000
0000
0000
0130
0000
0100
0000
0100
0001
0000
1000
0000
,
0001
0020
0000
0130
0010
1000
0010
0200
,
1000
0000
0000
0000
1000
0000
0000
0310
0000
0010
0000
0010
0100
0000
0001
0000
,
1000
0010
0100
0010
0001
1000
0001
0100
,
0020
0000
1030
0010
0100
0001
0001
0000
,
1000
0000
0000
1000
0100
0000
0000
0100
0010
0000
0001
0000
1000
0000
0001
0000
,
0200
0000
0300
0010
0002
0000
0003
0010
0100
0000
0001
1000
0001
0000
0020
0000
,
0000
0000
0000
0000
,
2000
0000
0000
0000
0000
0000
0000
0000
0000
0000
3030
0000
1000
0010
0100
0010
,
0002
0000
0000
0000
0103
0000
0000
0010
0000
0010
0000
0010
1000
0000
0001
0000
,
0100
0000
0001
0000
1000
0000
0000
0100
0000
0100
0000
0100
0010
0000
0001
0000
,
0000
0000
1000
0000
1000
0000
0000
0010
0000
0010
0000
0010
0100
0000
0001
0000
,
0010
0000
0001
0000
0100
0000
0000
0200
0000
0000
0310
0000
1000
0001
1000
0001
,
0020
0000
0000
0000
0130
0000
0000
0010
0000
0010
0000
0010
0001
0000
1000
0000
,
0100
0000
1000
0000
0001
0000
0000
0100
0000
0100
0020
0000
0000
0000
1030
0000
,
0001
0010
0001
0100
0001
0010
0001
0100
,
0010
0000
2000
0000
0000
0000
0000
0000
0000
0000
0000
0000
0000
0000
0000
3000
;

//--------------- dance-single - ----------------
#NOTEDATA:;
#STEPSTYPE:dance-single;
#DESCRIPTION:;
#DIFFICULTY:Challenge;
#METER:16;
#RADARVALUES:0,0,0,0,0;
#CREDIT:Talkion;
#NOTES:
0000
0000
0000
0000
,
0000
0000
0000
0000
,
0000
0000
0000
0000
,
0000
0000
0000
0000
,
1000
0001
0100
0001
1000
0000
0100
0020
0000
0000
0000
0000
MM3M
0000
0000
0000
,
1000
0100
1000
0100
1000
0001
0000
0100
0000
0100
0000
0100
0010
0000
1000
0000
,
0100
0000
1000
0000
0010
0100
0000
0001
0000
0001
0000
0001
0020
0000
0100
0000
,
0030
0000
0001
0000
0001
1000
0000
0010
0000
0100
0000
0100
0010
0000
1000
0000
,
0001
0000
0001
0000
0001
0010
0000
0200
0000
0000
1300
0000
0001
0100
0001
0100
,
0020
0000
0000
0000
1030
0001
0000
0010
0000
1000
0000
0010
0100
0000
1000
0000
,
0010
0000
1000
0000
0100
0010
0000
0001
0000
0001
0000
0001
0200
0000
0010
0000
,
0300
0000
0001
0000
0001
1000
0000
0100
0000
0010
0000
0010
0100
0000
1000
0000
,
0002
0100
0000
0003
2000
0010
0000
3000
0002
0100
0000
0003
1000
0001
1000
0010
,
0100
0001
0010
0001
0100
0010
1000
0002
,
0000
0000
0013
0100
1000
0001
0000
0001
0100
0000
0010
0000
0010
0000
1000
0001
,
1000
0100
2000
0000
3010
0100
0001
0020
,
0000
0000
0130
1000
0100
0010
0001
0000
0200
0000
0000
0000
0310
0000
1000
0001
,
2000
0100
3010
0100
0001
0010
0200
1000
,
0000
0000
0310
0000
0001
0000
0100
0010
0100
0000
0002
0000
0000
0000
1003
0000
,
0100
1000
0010
1000
0100
1000
0001
0100
,
0010
0000
1000
0010
0100
0001
0000
0010
0100
0000
0100
0010
0001
0000
1000
0010
,
0200
0000
0001
0000
0320
0000
1000
0000
0130
0000
0001
1000
0001
0000
0010
0000
,
0100
0010
0001
0000
2000
0000
0100
0000
3001
0000
0100
0010
2000
0000
0001
0000
,
3100
1000
0010
0000
2000
0000
0001
0000
3100
1000
0010
0000
1000
0000
0001
0000
,
1000
0100
0010
0100
1000
0000
0010
0000
0020
0000
0000
0000
MM3M
0000
0001
0000
,
0100
0000
0100
0000
0100
0000
0010
1000
0000
0100
1000
0001
1000
0000
0100
0000
,
0010
0001
0010
0000
0100
0000
1000
0010
0000
0010
0100
0000
0001
0000
0100
0000
,
0010
0000
0010
0000
0010
0000
1000
0100
0000
0001
0000
0100
1000
0000
0010
0000
,
0100
0000
0000
0000
0001
0000
0000
0000
0001
0000
1000
0000
0001
0010
0100
0010
,
2000
0000
3001
0100
0010
0001
0100
0010
,
0001
0000
0000
0001
0000
0000
0001
0000
0010
0000
0000
0000
0200
0300
0000
0000
,
0001
1000
0100
0010
0001
0000
0010
0100
0002
0000
0203
0000
1300
0000
0000
0000
,
1000
0001
0100
0000
0100
0000
0010
0100
2000
0000
3200
0000
0301
0000
0000
0000
,
0001
1000
0000
1000
0100
0000
0010
0100
0002
0000
0203
0000
1300
0000
0000
0000
,
0010
0000
0010
0000
0010
0000
0100
0001
0100
0010
0000
1002
0000
0000
0003
0000
,
0010
0100
1000
0100
0010
0000
0001
0200
0000
0000
0010
0000
M3MM
0000
0000
0000
,
0100
0010
1000
0010
0100
0000
0001
0020
0000
0000
0100
0000
MM3M
0000
0000
0000
,
0010
0100
1000
0100
0010
0000
0001
0200
0000
0000
0310
0100
0001
0000
0000
0000
,
1002
0003
0010
0000
2001
3000
0010
0000
1002
0003
0010
0000
0001
1000
0100
0010
,
1000
0000
1000
0000
1000
0000
0010
0100
1000
0000
0001
0000
1000
0010
0100
0000
,
1000
0000
0100
0010
1000
0000
0001
0000
1000
0100
0010
0000
0002
0000
0000
0000
,
0013
0000
1000
0000
1000
0000
1000
0010
0200
0000
0000
0320
0000
0000
0032
0000
,
0103
0000
0000
0010
0100
0000
0100
0000
0100
0000
0000
0000
0001
1000
0100
1000
,
0001
0100
0010
0100
0001
0000
0010
0200
0000
0000
1000
0000
M3MM
0000
0000
0000
,
0001
0010
0100
0010
0001
0000
0100
0020
0000
0000
1000
0000
MM3M
0000
0000
0000
,
0001
0000
0000
0001
0100
0000
0000
0100
0010
0000
1010
0000
1001
0000
0011
0000
,
0020
0000
0030
0100
2000
0000
3000
0100
0010
0000
0001
0000
1000
0001
0100
0010
,
2000
0000
0100
0100
3000
0000
0001
0100
,
0020
0000
0230
0000
0302
0000
1003
0100
,
0020
0000
0000
0001
0000
0000
0130
0000
0010
0000
0001
0000
0000
0000
1000
0000
,
0010
0100
0002
0000
2003
0000
3100
0010
,
1000
0010
0100
0002
0000
0103
0020
0000
,
0031
0010
0100
2000
0000
3001
0000
0100
,
0010
0200
0000
0302
0000
1003
0100
0010
,
0001
0000
0000
0000
0110
0000
0000
0000
1001
0000
0000
0000
1000
0001
0100
0010
,
2000
0000
0000
0000
0001
0000
0000
3100
0000
0100
0000
0100
0010
0000
0001
0000
,
0100
0000
0001
0000
0010
0100
0000
1000
0000
1000
0020
0000
0001
0000
0030
0000
,
2010
0000
0000
0000
3100
0010
0000
0010
0002
0000
1000
0000
1003
0000
0010
0000
,
0100
0000
1000
0000
0100
0000
0010
0000
0100
1000
0100
0000
0010
1000
0010
1000
,
0001
0100
0100
1000
0000
0000
1000
0010
0010
0001
0000
0000
,
0001
0000
0100
0000
0100
0000
1000
0000
0000
0000
0000
0000
0120
0000
0000
0030
0000
0000
2001
0000
0000
3000
0000
0000
,
0010
0000
1000
0001
1000
0000
0100
0000
0000
0000
0000
0000
0100
0000
0001
1000
0001
0000
0010
0000
0000
0000
0000
0000
,
0010
0000
1000
0010
0100
0000
0001
0010
0100
0000
0100
0000
0200
0000
0000
0000
,
2300
0000
0000
0000
,
3020
0000
0230
0301
,
1000
0001
0010
0100
1000
0000
0100
0010
2000
0000
3020
0000
0031
1000
0001
1000
,
0100
0010
0001
1000
0001
0100
0010
0100
1000
0000
0000
1000
0000
0000
1000
0000
,
0100
0001
0000
0001
0010
0000
0100
0010
2000
0000
3020
0000
0031
0000
0000
0000
,
0100
0000
0100
0000
0100
0000
0010
1000
0010
0100
0000
2001
0000
0000
3000
0000
,
0100
0010
0001
1000
0001
0000
0100
0020
0000
0000
0001
0000
MM3M
0000
0000
0000
,
0010
0100
0001
1000
0001
0000
0010
0200
0000
0000
0001
0000
M3MM
0000
0000
0000
,
0100
0010
0001
1000
0001
0000
0100
0020
0000
0000
0031
0010
0100
0000
0000
0000
,
2001
3000
0100
0010
0002
0003
0100
0010
2000
3000
0001
0000
1000
0100
0010
0100
,
0001
0000
0001
0000
0001
0000
1000
0010
0100
0000
1000
0000
0001
0100
0010
0000
,
0001
0000
1000
0100
0010
0000
1000
0000
0001
0010
0100
0000
2000
0000
0000
0000
,
3001
0000
0100
0010
0100
0000
1000
0000
0000
0000
0001
0000
0010
0100
0010
0000
,
1000
0000
0001
0010
0001
0000
1000
0100
0010
0000
0010
0000
0001
1000
0010
0100
,
1000
0001
0001
0002
0000
0023
0000
1030
,
0200
0000
0000
0000
0010
0000
0000
1300
0000
1000
0000
1000
0001
0000
0100
0000
,
0010
0020
0000
1030
0100
0010
1000
0020
,
0100
0000
0000
0000
0100
0000
0000
0031
0000
0001
0000
0001
0100
0000
0010
0000
,
0001
0000
1000
0000
1000
0000
1000
0100
0010
0000
1000
0000
0001
0000
0010
0000
,
0200
0000
0000
0000
1300
0000
0010
0100
0010
0000
1000
0000
1000
0000
0000
0000
,
0001
0000
0000
0001
0010
0000
0000
0010
0100
0000
1100
0000
1001
0000
0101
0000
,
0200
0000
0300
0010
0002
0000
0003
0010
0100
0000
0001
1000
0001
0000
0020
0000
,
0000
0000
0000
0000
,
0130
0000
0001
0000
1000
0010
0100
1000
0001
1000
0010
0100
0001
0010
0100
1000
,
0010
0100
0010
0100
0001
1000
0000
0100
0000
0100
0000
0100
0010
0000
0001
0000
,
0100
0000
0001
0000
0010
0100
0000
1000
0000
1000
0000
1000
0020
0000
0100
0000
,
0030
0000
1000
0000
1000
0001
0000
0010
0000
0100
0000
0100
0010
0000
0001
0000
,
1000
0000
1000
0000
1000
0010
0000
0100
0001
0100
0000
0001
1000
0100
1000
0100
,
0020
0000
0000
0000
0031
1000
0000
0010
0000
0001
0000
0010
0100
0000
0001
0000
,
0010
0000
0001
0000
0100
0010
0000
1000
0000
1000
0200
0000
0000
0000
0310
0000
,
0001
0000
1000
0000
0001
0100
0000
0100
0000
0100
0000
0002
0000
0000
1003
0000
,
0100
0000
0010
0000
0001
0010
0000
0010
0000
0010
0000
0010
0100
1000
0100
1000
;
