#TITLE:If You Buy This Record (Your Life Will Be Better) (Thunderpuss 2000 Mix);
#ARTIST:The Tamperer feat. Maya;
#BANNER:If You Buy This Record (Thunderpuss 2000 Club Mix).png;
#BACKGROUND:If You Buy This Record (Thunderpuss 2000 Club Mix)-bg.png;
#JACKET:If You Buy This Record (Thunderpuss 2000 Club Mix)-jacket.png;
#CDTITLE:./CDTITLES/NONE.PNG;
#MUSIC:If You Buy This Record (Thunderpuss 2000 Club Mix).ogg;
#SAMPLESTART:67.272;
#SAMPLELENGTH:15;
#BPMS:0=132;
#STOPS:208=0.22727272727272727272727272727273,208.5=0.22727272727272727272727272727273,209=0.22727272727272727272727272727273,209.5=3.8636363636363636363636363636364;

//---------------dance-single - t7r----------------
#NOTES:
     dance-single:
     t7r:
     Beginner:
     2:
     :
0000
0000
0000
0000
,
0000
0000
0000
0000
,
0000
0000
0000
0000
,
0000
0000
0000
0000
,
0000
0000
0000
0000
,
0010
0000
0000
0000
,
1000
0000
0000
0000
,
0001
0000
0000
0000
,
0100
0000
0000
0000
,
0001
0000
0000
0000
,
1000
0000
0000
0000
,
0100
0000
0100
0000
,
0100
0100
0100
0000
,
0010
0000
0000
0000
,
0001
0000
0000
0000
,
1000
0000
0000
0000
,
0010
0000
0000
0000
,
0100
0000
0100
0000
,
0100
0000
0000
0000
,
0010
0000
0010
0000
,
0010
0010
0010
0000
,
0000
1000
0000
1000
,
1000
0000
0001
0000
,
0001
0000
0001
0000
,
0100
0100
0100
0000
,
0000
0001
0000
0001
,
0001
0000
1000
0000
,
0010
0000
0010
0000
,
0100
0000
0100
0100
,
0100
0000
0000
0000
,
0010
0000
0000
0000
,
1000
0000
0000
0000
,
0001
0000
0000
0000
,
1000
0000
1000
0000
,
0100
0000
0100
0000
,
0010
0000
0010
0000
,
0001
0000
0000
0000
,
1000
0000
1000
0000
,
0001
0000
0001
0000
,
0100
0000
0100
0000
,
0010
0000
0010
0000
,
1000
0000
1000
0000
,
0001
0000
0001
0000
,
0010
0000
0010
0000
,
0100
0100
0100
0000
,
0000
1000
0000
0000
,
0001
0000
0001
0000
,
0000
0100
0000
0000
,
0010
0000
0010
0000
,
1000
0000
0000
0000
,
0100
0000
0000
0000
,
0001
0000
0010
0000
,
0100
0100
0000
0000
;

//---------------dance-single - t7r----------------
#NOTES:
     dance-single:
     t7r:
     Easy:
     5:
     :
0000
0000
0000
0000
,
0000
0000
0000
0000
,
0000
0000
0000
0000
,
0000
0000
0000
0000
,
0000
0000
0000
0000
,
1000
0100
1000
0000
,
0001
0100
0001
0000
,
1000
0010
1000
0000
,
0001
0010
0001
0000
,
1000
0001
0100
0000
,
0001
1000
0100
0000
,
2000
3000
0002
0003
,
0100
0100
0010
0010
,
1000
0000
1000
0000
,
0100
0000
0100
0000
,
0010
0000
0010
0000
,
0001
0000
0001
0000
,
0100
0100
0100
0000
,
0010
0010
0010
0000
,
1000
1000
1000
0000
,
0001
0001
0001
0000
,
0000
0000
1000
0000
1000
1000
1000
0000
,
0000
0000
0001
0000
0001
0001
0001
0000
,
0000
0000
0100
0000
0100
0100
0100
0000
,
0010
0010
0010
0010
,
0000
0000
1000
0000
1000
1000
1000
0000
,
0000
0000
0100
0000
0100
0100
0100
0000
,
0000
0000
0010
0000
0010
0010
0010
0000
,
0001
0001
0001
0000
,
1001
0000
0000
0000
,
0110
0000
0000
0000
,
1001
0000
0000
0000
,
1100
0000
0000
0000
0000
0000
0000
0010
,
0010
0000
0000
1000
1000
0000
0000
0001
,
0001
0000
0000
0100
0100
0000
0000
0010
,
0010
0100
0010
0110
,
2000
0000
0002
3003
,
1000
1000
0100
0100
,
0010
0010
0001
0001
,
0100
0010
1000
0001
,
0010
0000
0100
0000
0000
2000
0000
0000
,
3001
0001
0100
0100
,
0010
0010
1000
1000
,
0002
0003
2000
3000
,
0010
0010
0010
1002
,
1003
0000
0100
0000
,
0010
0001
0001
1000
,
0001
0000
0100
0000
,
0010
1000
1000
0001
,
1000
0100
0010
0011
,
0001
0100
0010
1010
,
0100
1001
0010
1001
,
1000
0100
0010
0002
0003
0000
0000
0000
;

//---------------dance-single - t7r----------------
#NOTES:
     dance-single:
     t7r:
     Medium:
     9:
     :
0000
0000
0000
0000
,
0000
0000
0000
0000
,
0000
0000
0000
0000
,
0000
0000
0000
0000
,
0000
0000
0000
0000
,
0001
0000
0000
0000
0100
0000
0000
0000
0001
0000
0000
0010
0000
0000
0001
0000
,
1000
0000
0000
0000
0100
0000
0000
0000
1000
0000
0000
0010
0000
0000
1000
0000
,
0001
0100
1000
0100
,
0001
0000
1000
0000
0100
0002
0000
0000
,
0103
0000
0000
0000
0010
0000
0000
0000
0001
0000
0000
1000
0000
0000
0010
0000
,
0100
0000
0000
0000
0010
0000
0000
0000
1000
0000
0000
0001
0000
0000
0010
0000
,
0100
0010
0010
0010
0000
0001
0001
0001
,
1000
0000
0000
0000
1001
0000
0000
0000
0101
0000
0000
0001
0000
0000
0001
0000
,
1000
0000
0100
0000
1000
0010
1000
0000
,
0001
0000
0100
0010
2000
0000
3000
0000
,
0001
0000
0010
0000
0001
0100
0001
0000
,
2000
0100
0001
3010
,
1000
0000
0100
0000
0010
0001
1000
0000
,
0001
0000
0100
0010
2000
0000
3000
0000
,
1001
1000
1001
0001
,
0100
0110
0010
2000
,
3000
0001
0001
0001
0001
0001
0001
2000
,
0000
3001
0001
0001
0001
0001
0001
0001
,
0000
1000
1000
1000
1000
1000
1000
1000
,
0002
0203
0320
2030
,
3000
0100
0100
0100
0100
0100
0100
0100
,
0000
0010
0010
0010
0010
0010
0010
0010
,
0000
0001
0001
0001
0001
0001
0001
0001
,
1000
0000
0010
0010
0100
0000
0001
0000
,
1001
0000
0000
0000
0000
0000
0000
1000
,
0100
0000
0000
0000
0000
0000
0000
0010
,
0001
0000
0000
0000
0000
0000
0000
0100
,
0010
0000
0000
0000
0100
0002
0000
1003
,
1001
0000
0000
1000
1000
0000
0000
0001
,
1001
0000
0000
0001
0001
0000
0000
0100
,
0110
0000
0100
0000
0010
0010
0010
0000
,
1000
1000
0200
0000
0320
0000
0032
0000
,
1003
0000
0000
0000
0100
0000
0000
0000
0001
0000
0000
0100
0000
0000
1000
0000
,
0001
0000
0000
0000
0100
0000
0000
0000
1000
0000
0000
0100
0000
0000
0001
0000
,
1000
0100
0001
0100
1000
0000
1001
0000
,
0001
0100
1000
0100
0001
2000
0000
0000
,
3001
0000
0000
0000
0010
0000
0000
0000
1000
0000
0000
0010
0000
0000
0001
0000
,
1000
0000
0000
0000
0010
0000
0000
0000
0001
0000
0000
0010
0000
0000
1000
0000
,
0001
1000
1000
1000
0000
0100
0100
0100
,
0010
0011
0001
2001
,
3001
0000
0000
0000
0100
0000
0000
0000
1000
0000
0000
0100
0000
0000
0010
0000
,
0100
0000
0020
0030
0020
0030
1002
0000
,
1003
0000
0000
0000
0100
0000
0000
0000
0001
0000
0000
0100
0000
0000
1000
0000
,
0001
0000
0200
0300
0200
0300
0120
0000
,
1030
0000
0202
0303
0202
0303
1001
1000
,
0100
0000
2200
3300
2200
3300
1001
0001
,
0100
0000
2010
0100
3001
0000
0012
0100
,
1003
0001
0110
2002
3003
0000
0000
0000
;

//---------------dance-single - t7r----------------
#NOTES:
     dance-single:
     t7r:
     Hard:
     12:
     :
0000
0000
0000
0000
,
0000
0000
0000
0000
,
0000
0000
0000
0000
,
0000
0000
0000
0000
,
0000
0000
0000
0000
,
1000
0000
0000
0000
1100
0000
0000
0000
1001
0000
0000
0001
0100
0000
0001
0000
,
0010
0000
0000
0000
0011
0000
0000
0000
1001
0000
0000
1000
0100
0000
1000
0000
,
0001
0100
1000
0100
0001
0000
1000
0001
,
1000
0100
0001
0100
0010
0002
0100
0000
,
1003
0000
0000
0000
1010
0000
0000
0000
0110
0000
0000
0010
1000
0000
0001
0000
,
0010
0000
0000
0000
0110
0000
0000
0000
0011
0000
0000
0010
0001
0000
0100
0000
,
0010
0100
0100
0100
1000
0100
0100
0100
,
0020
0000
0000
0130
0002
0000
1003
0000
0200
0300
0000
1100
0000
0000
1100
0000
,
1000
0100
0010
0001
1000
0100
0010
0100
,
1000
0000
0010
0000
0100
0000
0001
0000
2000
0000
0000
0010
0000
0000
0010
0000
,
3001
0100
0010
1000
0001
0010
0100
1000
,
0002
0000
0000
0000
0100
0000
0000
0000
1003
0000
0000
0010
1000
0000
0001
0000
,
1000
0000
0100
0000
0010
0000
0100
0000
0001
0000
0000
0100
1000
0000
0001
0000
,
1000
0000
0010
0000
0100
0000
0010
0000
0001
0000
0000
0010
1000
0000
0001
0000
,
1001
0001
0100
0010
1010
1000
0100
0010
,
0022
0000
0033
0000
0022
0000
0033
0000
2001
0000
0000
3001
2000
0000
0010
0000
,
3001
0000
1000
0000
1000
0000
1000
0000
1000
0000
1000
0100
1000
0000
2000
0000
,
0000
0000
3001
0000
0001
0000
0001
0000
0001
0000
0001
0100
0001
0000
0001
0000
,
0000
0000
1000
0000
1000
0000
1000
0000
1000
0000
1000
0010
1000
0000
1000
0000
,
0002
0000
0000
0013
0200
0000
0000
0310
0002
0000
0000
1003
0020
0000
0100
0000
,
1030
0000
0100
0000
0100
0000
0100
0000
0100
0000
0100
0010
0100
0000
0001
0000
,
1000
0000
0010
0000
0010
0000
0010
0000
0010
0000
0010
0100
0010
0000
0001
0000
,
1000
0000
0010
0000
0010
0000
0010
0000
0010
0000
0010
0100
0010
0000
0001
0000
,
2000
0000
3200
0302
0013
0200
0001
0310
,
1001
0000
0000
0000
0000
0000
0000
1100
,
1001
0000
0000
0000
0000
0000
0000
0101
,
1001
0000
0000
0000
0000
0000
0000
1100
,
1001
0000
0000
0000
0001
0200
1300
0100
,
0110
0000
0100
0001
1000
0000
0100
0000
1100
0000
0000
0000
0000
0000
1000
0000
,
1001
0000
1000
0100
0010
0000
0100
0000
0101
0000
0000
0000
0000
0000
0100
0000
,
1100
0000
1000
0001
0100
0000
0001
1000
0100
0000
1000
0001
0100
0000
0001
1000
,
0100
0100
0100
0100
0010
0010
0010
0010
,
0001
0000
0000
0100
0001
0000
1000
0000
0100
0000
0000
1000
0010
0000
1000
0000
,
0001
0000
0000
0010
0100
0000
0010
0000
0001
0000
0000
1000
0010
0000
0100
0000
,
1000
0100
0010
0100
0001
0000
1000
0100
,
0001
0100
0010
0100
1000
0020
0100
1030
,
1001
0000
0000
1000
0100
0000
1000
0000
0010
0000
0000
0100
0001
0000
0010
0000
,
0001
0000
0000
0100
0010
0000
1000
0000
0001
0000
0000
0010
0100
0000
1000
0000
,
0001
0000
0100
0010
0100
0000
0100
0000
1000
0000
0100
0010
0100
0000
0100
0000
,
0002
0000
0000
0013
0200
0000
0000
1300
0020
0000
0000
0130
0002
0000
0100
0000
,
1003
0000
0001
0010
0001
0000
1000
0000
0001
0000
0000
0100
0010
0000
0100
0000
,
0001
0000
0010
1000
0020
0000
0130
0000
0020
0000
0031
0000
2000
0000
0100
0000
,
3001
0000
1000
0010
1000
0000
0001
0000
1000
0000
0000
0100
0010
0000
0100
0000
,
1000
0000
0010
0001
0020
0000
0130
0000
0020
0000
1030
0000
0002
0000
0100
0000
,
1003
0000
0100
0010
0200
0000
0301
0000
0200
0000
0010
0000
2300
0000
0100
0000
,
3001
0000
0100
0010
0200
0000
1300
0000
0200
0000
0010
0000
0302
0000
0010
0000
,
1003
0100
1000
0100
0020
0000
0001
0000
0130
1000
0100
1000
0002
0000
0100
0000
,
1003
0110
1001
2020
3030
0000
0000
0000
;

//---------------dance-double - t7r----------------
#NOTES:
     dance-double:
     t7r:
     Easy:
     5:
     :
00000000
00000000
00000000
00000000
,
00000000
00000000
00000000
00000000
,
00000000
00000000
00000000
00000000
,
00000000
00000000
00000000
00000000
,
00000000
00000000
00000000
00000000
,
10000000
01000000
10000000
00000000
,
00010000
00100000
00010000
00000000
,
00100000
00001000
00010000
00000000
,
00000010
00010000
00001000
00000000
,
00010000
00000100
00010000
00000000
,
00000010
00001000
00000010
00000000
,
00000100
00000001
00001000
00000000
,
00000100
00010000
00001000
00010000
,
00011000
00000000
00010000
00000000
,
01000000
01000000
10000000
00000000
,
00100000
00000000
01000000
00000000
,
00001000
00001000
00010000
00000000
,
00001000
00000000
00000100
00000000
,
00000010
00000010
00001000
00000000
,
00000001
00000000
00000010
00000000
,
00001000
00010000
00100000
20000000
,
30000000
00000000
00010000
00000000
00010000
00010000
00010000
00000000
,
00000000
00000000
10000000
00000000
10000000
10000000
10000000
00000000
,
00000000
00000000
01000000
00000000
01000000
01000000
01000000
00000000
,
00100000
00001000
00010000
00000010
,
00000000
00000000
00000100
00000000
00000100
00000100
00000100
00000000
,
00000000
00000000
00000001
00000000
00000001
00000001
00000001
00000000
,
00000000
00000000
00001000
00000000
00001000
00001000
00001000
00000000
,
00000100
00010000
00001000
01000000
,
00100000
00000000
00000000
00000000
,
10010000
00000000
00000000
00000000
,
00011000
00000000
00000000
00000000
,
00001001
00000000
00000000
00000000
,
00000001
00000000
00000000
00000100
00000100
00000000
00000000
00001000
,
00001000
00000000
00000000
00010000
00010000
00000000
00000000
01000000
,
01000000
10000000
00010000
01000000
,
00200000
00000000
20000000
30300000
,
00010000
00010000
00100000
00100000
,
01000000
10000000
00010000
00000000
,
01000000
00001000
00010000
00000000
,
00000100
00000000
00001000
00000000
00000000
00000002
00000000
00000000
,
00001003
00001000
00000100
00000100
,
00000010
00000001
00001000
00000000
,
00000002
00000003
00000200
00000300
,
00001000
00010000
00001000
00012000
,
00103000
00000000
00010000
10000000
,
00010000
10000000
10000000
00100000
,
01000000
00000000
00001000
00000000
,
00010000
00001000
00001000
00000010
,
00000001
00000000
00000100
00001000
,
00011000
00000000
00001000
00010000
,
01010000
00000000
10010000
00000000
,
10000000
01000000
00100000
00002000
00003000
00000000
00000000
00000000
;

//---------------dance-double - t7r----------------
#NOTES:
     dance-double:
     t7r:
     Medium:
     8:
     :
00000000
00000000
00000000
00000000
,
00000000
00000000
00000000
00000000
,
00000000
00000000
00000000
00000000
,
00000000
00000000
00000000
00000000
,
00000000
00000000
00000000
00000000
,
00000001
00000000
00000000
00000000
00000100
00000000
00000000
00000000
00000001
00000000
00000000
00000010
00000000
00000000
00000001
00000000
,
00001000
00000000
00000000
00000000
00000100
00000000
00000000
00000000
00001000
00000000
00000000
00000001
00000000
00000000
00000100
00000000
,
00001000
00000000
00000000
00000000
00010000
00000000
00000000
00000000
00100000
00000000
00000000
01000000
00000000
00000000
00010000
00000000
,
10000000
00000000
01000000
00000000
10000000
00020000
00000000
00000000
,
10030000
00000000
00000000
00000000
01000000
00000000
00000000
00000000
10000000
00000000
00000000
00100000
00000000
00000000
10000000
00000000
,
00010000
00000000
00000000
00000000
01000000
00000000
00000000
00000000
00001000
00000000
00000000
00010000
00000000
00000000
00001000
00000000
,
00000100
00000000
00000010
00000010
00000010
00000000
00001000
00001000
,
00000100
00010000
00001000
00011000
,
00001000
00000000
00010000
00000000
01000000
10000000
01000000
00000000
,
10000000
00000000
00100000
01000000
00020000
00000000
10030000
00000000
,
00100000
00000000
01000000
00010000
01000000
00000000
00010000
00100000
,
00002000
00000100
00000000
00013000
,
00001000
00000000
00000100
00000000
00000010
00001000
00000010
00000000
,
00001000
00000000
00000100
00000010
00000002
00000000
00000003
00000000
,
00001001
00000001
00001100
00000100
,
00011000
00020000
02030000
23000000
,
30000000
00010000
00010000
00010000
00010000
00010000
00010000
00020000
,
00000000
10030000
10000000
10000000
10000000
10000000
10000000
10000000
,
00000000
01000000
01000000
01000000
01000000
01000000
01000000
01000000
,
00020000
00032000
00003020
00000032
,
00000003
00000100
00000100
00000100
00000100
00000100
00000100
00000100
,
00000000
00001000
00001000
00001000
00001000
00001000
00001000
00001000
,
00000000
00010000
00010000
00010000
00010000
00010000
00010000
00010000
,
00100000
00000000
00000000
00000000
10000000
00000000
00000000
00000000
00010000
00000000
00000000
00100000
00000000
00000000
00001000
00000000
,
00010000
00000000
00000000
00000000
00000000
00000000
00000000
00001000
,
00001000
00000000
00000000
00000000
00000000
00000000
00000000
00010000
,
00010000
00000000
00000000
00000000
00000000
00000000
00000000
00001000
,
00001000
00000000
00000000
00000000
00010000
02000000
00000000
13000000
,
10000000
00000000
00000000
00010000
00010000
00000000
00000000
00001000
,
00001000
00000000
00000000
00000001
00000001
00000000
00000000
00000100
,
00000100
00001000
00010000
00001000
,
00010000
00000000
01000000
10000000
00200000
00000000
00300000
00000000
,
10000000
00000000
00000000
00000000
01000000
00000000
00000000
00000000
00100000
00000000
00000000
00010000
00000000
00000000
10000000
00000000
,
00010000
00000000
00000000
00000000
01000000
00000000
00000000
00000000
00001000
00000000
00000000
00010000
00000000
00000000
00000100
00000000
,
00001000
00000000
00000001
00000100
00002000
00000000
00013000
00000000
,
00001000
00000000
00010000
01000000
10000000
00200000
00000000
00000000
,
10300000
00000000
00000000
00000000
01000000
00000000
00000000
00000000
10000000
00000000
00000000
00100000
00000000
00000000
10000000
00000000
,
00010000
00000000
00000000
00000000
00100000
00000000
00000000
00000000
00001000
00000000
00000000
00010000
00000000
00000000
00001000
00000000
,
00000010
00000100
00000100
00000100
00000000
00000010
00000010
00000010
,
00000002
00000203
00002300
00023000
,
00031000
00000000
00000000
00000000
00011000
00000000
00000000
00000000
00010000
00000000
00000000
00100000
00000000
00000000
01000000
00000000
,
00001000
00000000
00022000
00033000
00022000
00033000
00020020
00030030
,
00010000
00000000
00000000
00000000
00011000
00000000
00000000
00000000
00001000
00000000
00000000
00000010
00000000
00000000
00000100
00000000
,
00010000
00000000
00022000
00033000
00022000
00033000
00101000
00100000
,
00010000
00000000
02020000
03030000
02020000
03030000
10000000
01000000
,
00010000
00000000
00022000
00033000
00022000
00033000
00001000
00000100
,
00000001
00000010
00000200
00000000
00010300
00001000
02000000
00000000
,
03001000
01001000
00011000
00020020
00030030
00000000
00000000
00000000
;

//---------------dance-double - t7r----------------
#NOTES:
     dance-double:
     t7r:
     Hard:
     12:
     :
00000000
00000000
00000000
00000000
,
00000000
00000000
00000000
00000000
,
00000000
00000000
00000000
00000000
,
00000000
00000000
00000000
00000000
,
00000000
00000000
00000000
00000000
,
00100000
00000000
00000000
00000000
01100000
00000000
00000000
00000000
10010000
00000000
00000000
10000000
01000000
00000000
00100000
00000000
,
00001000
00000000
00000000
00000000
00011000
00000000
00000000
00000000
00010100
00000000
00000000
00010000
00001000
00000000
00000100
00000000
,
00000001
00000010
00000100
00001000
00000001
00000000
00000100
00001000
,
00010000
00100000
01000000
00010000
10000000
02000000
00100000
03000000
,
10010000
00000000
00000000
00000000
11000000
00000000
00000000
00000000
10010000
00000000
00000000
00010000
01000000
00000000
00001000
00000000
,
00010000
00000000
00000000
00000000
00011000
00000000
00000000
00000000
00010010
00000000
00000000
00010000
00001000
00000000
00000010
00000000
,
00000001
00000100
00001000
00001000
00010000
01000000
01000000
10000000
,
00020000
00000000
00000000
10030000
02000000
00000000
13000000
00000000
00020000
00030000
00000000
10010000
00000000
00000000
10010000
00000000
,
10000000
00100000
01000000
00010000
10000000
00100000
01000000
00010000
,
10000000
00000000
01000000
00000000
00010000
00000000
00001000
00000000
00010000
00000000
00000000
00001000
00000000
00000000
00001000
00000000
,
00000100
00000001
00001000
00000001
00000010
00000100
00001000
00000001
,
00000010
00000000
00000000
00000000
00001000
00000000
00000000
00000000
00010000
00000000
00000000
00001000
00010000
00000000
00001000
00000000
,
00010000
00100000
01000000
00010000
00100000
01000000
00010000
00001000
,
00000100
00000000
00000010
00000000
00001000
00000000
00000100
00000000
00000010
00000000
00000000
00000001
00001000
00000000
00000001
00000000
,
00000101
00000001
00001000
00000100
00010100
00000100
00010000
00001000
,
00022000
00000000
00033000
00000000
00022000
00000000
00033000
00000000
00201000
00000000
00000000
00301000
01000000
00000000
00010000
00000000
,
10000000
00000000
00010000
00000000
00010000
00000000
00010000
00000000
00010000
00000000
00010000
01000000
00010000
00000000
00020000
00000000
,
00000000
00000000
00130000
00000000
00100000
00000000
00100000
00000000
00100000
00000000
00100000
00010000
00100000
00000000
00100000
00000000
,
00001000
00000000
00010000
00000000
00010000
00000000
00010000
00000000
00010000
00000000
00010000
00001000
00010000
00000000
00010000
00000000
,
00002000
00000000
00000000
00003100
00000020
00000000
00000000
00000130
00000002
00000000
00000000
00001003
00000100
00000000
00000010
00000000
,
00000001
00000000
00000100
00000000
00000100
00000000
00000100
00000000
00000100
00000000
00000100
00000010
00000100
00000000
00000100
00000000
,
00001000
00000000
00010000
00000000
00010000
00000000
00010000
00000000
00010000
00000000
00010000
00001000
00010000
00000000
00010000
00000000
,
01000000
00000000
00100000
00000000
00100000
00000000
00100000
00000000
00100000
00000000
00100000
00010000
00100000
00000000
00100000
00000000
,
00020000
00000000
20030000
30200000
00310000
00002000
01000000
00013000
,
00011000
00000000
00000000
00000000
00000000
00000000
00000000
00000100
,
00010100
00000000
00000000
00000000
00000000
00000000
00000000
01000000
,
01001000
00000000
00000000
00000000
00000000
00000000
00000000
00001000
,
00011000
00000000
00000000
00000000
00010000
00002000
00003100
00000001
,
00001001
00001000
00000100
00010000
00011000
00001000
01000000
00010000
,
10010000
10000000
00100000
01000000
01010000
00010000
00100000
00001000
,
00011000
00000000
00010000
00000100
00001000
00000000
00000010
00000100
00000001
00000000
00000010
00000100
00010000
00000000
00001000
00000000
,
00010000
00010000
01000000
01000000
10000000
10000000
00100000
00100000
,
01000000
00000000
00000000
00100000
10000000
00000000
00010000
00000000
00100000
00000000
00000000
01000000
00100000
00000000
00001000
00000000
,
00010000
00000000
00000000
00000100
00001000
00000000
00000010
00000000
00000100
00000000
00000000
00000001
00000010
00000000
00000001
00000000
,
00000100
00001000
00010000
00100000
01000000
00000000
00010000
00100000
,
00001000
00010000
00001000
00000100
00000010
00002000
00000100
00003001
,
00001001
00000000
00000000
00000001
00000100
00000000
00000001
00000000
00000010
00000000
00000000
00000100
00010000
00000000
00001000
00000000
,
00010000
00000000
00000000
00001000
01000000
00000000
00010000
00000000
00100000
00000000
00000000
00010000
10000000
00000000
00100000
00000000
,
10000000
00000000
01000000
00100000
01000000
00000000
01000000
00000000
00010000
00000000
00001000
00010000
00001000
00000000
00001000
00000000
,
00000200
00000000
00000000
00000301
00000020
00000000
00000000
00000130
00020000
00000000
00000000
00031000
00010000
00000000
00001000
00000000
,
00011000
00000000
00000000
00001000
01000000
00000000
00010000
00000000
00100000
00000000
00000000
00010000
10000000
00000000
01000000
00000000
,
00010000
00001000
00000200
00000310
00000200
00000301
00002000
00000010
,
00003001
00000000
00000000
00000010
00000100
00000000
00000010
00000000
00000001
00000000
00000000
00001000
00000100
00000000
00010000
00000000
,
00001000
00010000
02000000
03100000
02000000
13000000
00020000
00100000
,
10030000
00100000
00020000
00031000
00020000
01030000
00020000
00001000
,
00030010
00000100
00002000
00013000
00002000
00003100
00002000
00100000
,
01003000
00010000
01000000
00000000
00002000
00000000
00010000
00000000
00003100
00000010
00000100
00000000
00000002
00000000
00000010
00000000
,
00001003
00001100
00011000
00202000
00303000
00000000
00000000
00000000
;
