#TITLE:I Found You (Flakee Remix);
#SUBTITLE:;
#ARTIST:Darwin;
#TITLETRANSLIT:;
#SUBTITLETRANSLIT:;
#ARTISTTRANSLIT:;
#GENRE:;
#CREDIT:;
#MUSIC:I Found You (Flakee Remix).ogg;
#BANNER:;
#BACKGROUND:;
#CDTITLE:;
#SAMPLESTART:89.143;
#SAMPLELENGTH:15.000;
#SELECTABLE:YES;
#OFFSET:0.000;
#BPMS:0.000=175.000
,164.000=87.500
,180.000=175.000
;
#STOPS:;
#BGCHANGES:;
#FGCHANGES:;

//--------------- dance-single - Pandemonium X ----------------
#NOTES:
     dance-single:
     Pandemonium X:
     Beginner:
     5:
     0,0,0,0,0:
0000
0000
0000
0000
,
0000
0000
0000
0000
,
0000
0000
0000
0000
,
0000
0000
0000
0000
,
0000
0000
0000
0000
,
0000
0000
0000
0000
,
0000
0000
0000
0000
,
0000
0000
0000
0000
,
0010
0010
0010
0000
,
1001
0000
0000
0000
,
0001
0000
0000
0000
,
1000
0000
0000
0000
,
0010
0000
0000
0000
,
0100
0000
0100
0000
,
0010
0000
0010
0000
,
1000
0000
0001
0000
,
0101
0000
0000
0000
,
1001
0000
1000
1000
,
0000
0000
0001
0001
,
0000
0000
0100
0100
,
0000
0000
0010
0010
,
0000
0000
1000
1000
,
0000
0000
0001
0001
,
0000
0000
0010
0010
,
0000
0000
0100
0100
,
1000
0000
0001
1000
,
0000
0000
0010
1000
,
0000
0000
0001
0100
,
0000
0000
0010
1000
,
0000
0000
0001
1000
,
0000
0000
0100
0010
,
0000
0000
0001
0100
,
0010
0000
0000
0000
,
1001
0000
0000
0001
,
0000
0000
0000
0000
,
1001
0000
0000
1000
,
0000
0000
0000
0000
,
0110
0000
0000
0100
,
0000
0000
0000
0000
,
0110
0000
0000
0010
,
0000
0000
0000
0000
,
1000
1000
1000
0000
,
0001
0001
0001
0000
,
0100
0100
0100
0000
,
0100
0100
0100
0000
,
0010
0000
0010
0000
,
0010
0000
0000
1000
,
1000
0000
0001
0000
,
0100
0000
0000
0000
,
0010
0000
0010
0000
,
0010
0000
1000
0000
,
0001
0000
1000
1000
,
0000
0000
0001
0001
,
1000
0000
0000
0000
,
0001
0000
0000
0100
,
0010
0000
0000
0000
,
1000
0000
0000
0100
,
0010
0000
0000
0000
,
0001
0000
0000
1000
,
0001
0000
0000
0000
,
0110
0000
0000
0000
,
0010
0010
0010
0010
,
0010
0000
0000
1000
,
0001
0001
0001
0001
,
0000
0000
0000
0000
,
1000
1000
1000
1000
,
1000
0000
0000
0000
,
1000
1000
1000
1000
,
1000
0000
0000
0000
,
0001
0001
1000
1000
,
0001
0000
0000
0100
,
0010
0010
0100
0100
,
0000
0000
0000
0000
,
0001
0001
0100
0100
,
0010
0000
0100
0100
,
0010
0010
1000
2000
,
0000
0000
0001
3001
,
1001
0000
1000
0000
,
0001
0000
0100
0000
,
0010
0000
1000
0000
,
0010
0000
0100
0000
,
0001
0000
0010
0000
,
0100
0000
1000
0000
,
0100
0000
1000
0000
,
0010
0000
0000
0100
,
1001
0000
0000
0000
;

//--------------- dance-single - Pandemonium X ----------------
#NOTES:
     dance-single:
     Pandemonium X:
     Easy:
     8:
     0,0,0,0,0:
0000
0000
0000
0000
,
0000
0000
0000
0000
,
0000
0000
0000
0000
,
0000
0000
0000
0000
,
0000
0000
0000
0000
,
0000
0000
0000
0000
,
0000
0000
0000
0000
,
0000
0000
0000
0000
,
1001
1001
1001
0000
,
1000
0001
0010
0000
,
0001
1000
0010
0000
,
1000
0001
0100
0000
,
0001
1000
0100
0000
,
0110
0010
0001
0000
,
0110
0100
1000
0000
,
1001
1000
1001
0001
,
0110
0000
0000
0000
,
1001
0000
0001
1000
,
0000
0000
0100
0010
,
0000
0000
0001
0010
,
0000
0000
0100
1000
,
0000
0000
0100
0010
,
0000
0000
0001
1000
,
0000
0000
0010
0100
,
0000
0000
0010
1000
,
0001
1000
0100
0100
,
0010
0001
1000
1000
,
0001
1000
0010
0010
,
1000
0001
0100
0100
,
0001
0010
0100
0100
,
0010
0001
1000
1000
,
0100
0010
0001
0001
,
2002
0000
0000
3003
,
0001
0000
0000
0001
,
0000
0000
0000
0001
,
0010
0100
1000
0001
,
0000
0000
0000
0000
0000
0000
1000
0001
,
1000
0000
0000
1000
,
0000
0000
0000
1000
,
0100
0010
0001
1000
,
0000
0000
0000
0000
,
0001
0100
0001
0100
0001
0000
0000
1000
,
0100
0010
0100
0010
0000
0000
0000
0000
,
0001
0010
0001
0010
0001
0000
0000
0000
,
1000
0100
1000
0100
1000
0000
0000
0000
,
0001
1000
0010
1000
,
0001
0000
0000
0000
0000
0000
1000
0001
,
1000
0001
0010
0200
,
0000
0300
0000
0000
,
0010
0001
1000
0010
,
0100
0000
0010
1000
,
0001
0010
0100
2000
,
0000
0000
3001
0002
,
0103
0000
0010
0100
0000
0010
0000
1000
,
0000
0001
0000
0010
0000
0100
1000
0000
,
0001
0000
1000
0001
0000
0010
0000
0001
,
0000
0100
0000
0010
0000
1000
0100
0010
,
0001
0000
0010
0001
0000
0100
0000
0001
,
0000
1000
0000
0001
0000
0010
0100
0000
,
0010
0000
0001
0100
0000
0010
0000
1000
,
0001
0000
0000
0000
,
1000
0100
0010
0001
,
0011
0000
0000
0000
0000
0000
0001
0010
,
0001
0010
0100
1100
,
0000
0000
0000
0000
,
0100
1000
0010
0100
,
0101
0000
0000
0000
,
0001
0100
0010
1000
,
1010
0000
0000
0000
,
1001
0001
1001
1000
,
1001
0000
0000
0000
0000
0000
0001
0100
,
0010
1000
1010
0101
,
0000
0000
0000
0000
,
0011
0010
0110
0100
,
1100
0000
1100
0100
,
0110
0010
0011
2001
,
0000
0000
0001
3002
,
0103
0010
1000
0100
,
0010
0001
0010
0001
,
0100
0010
1000
0001
,
0010
0100
1000
0001
,
1001
0001
1000
0010
,
1001
0001
0100
0001
,
1000
0001
0100
0010
,
1000
0000
0000
0100
,
1001
0000
0000
0000
;

//--------------- dance-single - Pandemonium X ----------------
#NOTES:
     dance-single:
     Pandemonium X:
     Medium:
     11:
     0,0,0,0,0:
0000
0000
0000
0000
,
0000
0000
0000
0000
,
0000
0000
0000
0000
,
0000
0000
0000
0000
,
0000
0000
0000
0000
,
0000
0000
0000
0000
,
0000
0000
0000
0000
,
0000
0000
0000
0000
,
1001
0110
1001
0000
,
0001
0000
1000
0000
0010
0000
0100
0001
,
0010
0000
0100
0000
1000
0000
0100
1000
,
0010
0000
0100
0000
0010
0000
1000
0010
,
0100
0000
0010
0000
0100
0000
0001
0010
,
0100
0000
0010
0000
0001
0000
0100
0001
,
1000
0000
0001
0000
0010
0000
0100
1000
,
0001
0000
0100
0000
0010
0000
0100
0001
,
1000
0001
1000
0001
1000
0001
1000
0001
,
0100
0001
2000
3020
,
0130
0001
2000
3200
,
0310
0100
2000
3002
,
1003
0001
0020
0032
,
1003
0001
0200
0320
,
1030
0100
0020
0230
,
1300
0010
2000
3002
,
0103
0010
2000
3002
,
1003
0100
0020
0032
,
0013
0001
0200
0320
,
1030
0001
0020
0230
,
1300
0100
2000
3020
,
0130
0001
0200
0320
,
1030
0100
0020
0032
,
1003
0001
1000
0000
0001
1000
0001
0000
,
0220
0000
0000
0330
,
1000
0000
0000
0001
,
0000
0000
0000
1000
,
0100
0010
0001
1000
,
0000
0000
0000
0001
,
1000
0000
0000
0001
,
0000
0000
1000
0100
,
0010
0001
0010
0100
,
0000
0000
0000
0000
,
0010
0000
0001
0000
0100
0000
0010
0000
1000
0000
0000
0000
0000
0000
0001
1000
,
0001
1000
0100
0010
0000
0000
0000
0000
,
0100
1000
0010
0100
0110
0000
0000
0000
,
0100
0001
0010
0100
0110
0000
0000
0000
,
1001
1000
0001
0100
,
0101
0000
0000
0000
0000
0000
0001
1000
,
0010
1000
0100
1100
,
0000
0000
0000
0000
,
0010
0001
0100
0010
,
1010
0000
1000
0010
,
0110
1000
1001
0012
,
0000
0000
1000
1003
,
0001
0000
1000
0001
0000
0100
0000
0001
,
0000
1000
0000
0100
0000
0010
0100
1000
,
0001
0000
1000
0010
0000
1000
0000
0001
,
0000
0010
0000
0001
0000
1000
0100
0010
,
0001
0000
0010
0001
0000
0100
0000
0001
,
0000
1000
0000
0100
0000
0010
0100
1000
,
0001
0000
1000
0001
0000
0100
0000
0010
,
1000
0000
0000
0000
,
0101
0011
0110
1100
,
1001
0000
0000
0000
0000
0000
1000
0001
,
0011
1100
0101
2002
,
0000
3003
0000
0000
,
0101
0011
0110
1100
,
1010
0000
0000
0000
,
0110
1001
0110
1001
,
0101
0000
0000
0000
,
1001
0101
0011
0110
,
1100
0000
1000
0100
0010
0001
0010
0100
,
1100
0101
1010
0101
,
0001
0000
1000
0001
0010
0001
1000
0010
,
1010
0101
0011
1100
,
1001
0000
0001
0010
0100
0010
0001
0100
,
0101
1100
0011
1002
,
0000
0000
1000
2003
,
0001
0001
0010
0010
,
0100
0000
0100
3000
1000
0000
0010
0000
,
0100
0001
1000
0100
,
1000
0010
0100
0001
,
1010
1000
0001
0010
,
1100
0100
0010
0001
,
1000
0100
1000
0000
0001
0010
0001
0000
,
0001
0100
0010
1000
0100
0010
0002
0000
,
1003
0000
0000
0000
;

//--------------- dance-single - Pandemonium X ----------------
#NOTES:
     dance-single:
     Pandemonium X:
     Hard:
     13:
     0,0,0,0,0:
0000
0000
0000
0000
,
0000
0000
0000
0000
,
0000
0000
0000
0000
,
0000
0000
0000
0000
,
0000
0000
0000
0000
,
0000
0000
0000
0000
,
0000
0000
0000
0000
,
0000
0000
0000
0000
,
1001
0110
1001
0000
,
0000
1000
0100
1000
0001
0100
0010
0010
,
0000
0100
0001
0010
0001
1000
0100
0100
,
0000
0010
0100
1000
0001
0100
0010
0010
,
0000
0100
0010
1000
0001
0010
0100
0100
,
0010
0000
0011
0000
0000
0000
1000
0010
0000
0000
0100
0010
0100
0000
0001
0000
,
1000
0000
0100
0000
0000
0000
0010
0001
0000
0000
0001
1000
0001
0000
0100
0000
,
0001
0000
0100
0000
0000
0000
0010
1000
0000
0000
0001
1000
0001
0000
1000
0000
,
0001
0000
0001
0000
0100
0000
0100
0000
0010
1000
0010
1000
0010
1000
0010
1000
,
0010
0000
1100
0000
1000
0100
0010
0100
,
1000
0000
0011
0000
0001
0010
0100
0010
,
0001
0000
1001
0000
0001
1000
0010
1000
,
0001
0000
1001
0000
1000
0100
1000
0001
,
1000
0000
0101
0000
0001
0100
1000
0100
,
0001
0000
0011
0000
0001
0010
1000
0010
,
0001
0000
1100
0000
1000
0010
0001
0010
,
1000
1010
0101
1001
,
0011
0000
0000
0000
0100
0100
1000
0010
,
0000
0000
0000
0000
0100
0100
0001
1000
,
0000
0000
0000
0000
0001
0001
0010
0100
,
0000
0000
0000
0000
0010
0010
0001
1000
,
0010
0000
0010
0000
0100
0000
0100
0001
,
0010
0000
0010
0000
0100
0000
0100
1000
,
0010
0100
0001
1000
0001
0010
0100
1000
,
0001
0000
0100
0000
0010
0000
0100
0000
0000
0000
0010
0000
1000
0001
1000
0001
,
0010
0000
0000
0200
,
0000
0000
0000
1300
,
0100
0001
0100
2000
,
0000
0000
0000
0000
,
3001
0000
0000
0020
,
0000
0000
0130
0010
,
0001
0100
0010
2000
,
0000
0000
0000
0000
,
3010
0000
1000
0000
0001
0000
0010
0000
0100
0000
0000
0000
0000
0000
0010
0001
,
0100
0001
1000
0100
0000
0000
0000
0000
,
1000
0001
0100
0001
0010
0000
0000
0000
,
0001
1000
0100
1000
0010
0000
0000
0000
,
1001
0101
1001
1100
,
1001
0000
0000
0000
0000
0000
0001
0100
,
1010
1001
0011
2100
,
0100
0000
3100
0000
1000
0000
0001
0100
,
0110
1010
1001
0011
,
1002
1003
1100
0011
,
1100
0101
1010
2002
,
0000
3003
2000
3002
,
0103
0000
0010
1010
0000
1001
0000
1100
,
0000
1001
0000
0101
0000
1000
0001
0010
,
0100
0000
0100
1100
0000
0011
0000
1010
,
0000
0011
0000
0101
0000
1000
0010
0100
,
0101
0000
0001
0011
0000
1001
0000
0101
,
0000
1010
0000
0011
0000
0001
0010
0100
,
0010
0000
0001
0100
0000
0101
0000
1010
,
0000
0000
1001
0000
0000
0000
1100
0000
0000
0000
0001
0100
0001
0000
0100
0000
,
0010
0000
1000
0010
0100
0001
0010
0100
,
1100
0000
0100
1000
0001
0010
0100
0010
,
0011
0000
0001
0100
0001
1000
0100
0010
,
0011
0000
0001
0010
0001
1000
0001
0100
,
0101
0000
1000
0100
0010
0001
0100
0010
,
1010
0000
1000
0010
1000
0100
0010
0001
,
0101
0000
0100
0001
1000
0100
0010
0001
,
0011
0101
1010
1001
,
1100
0000
0000
1000
0100
0000
0000
0100
0010
0000
0000
0010
0001
0000
0000
0001
,
0100
0000
0010
0100
0001
1000
0100
0010
,
0001
0000
0000
0001
0010
0000
0000
0010
0100
0000
0000
0100
1000
0000
0000
1000
,
0010
0000
0100
0010
1000
0100
0010
0001
,
1000
0000
0000
0001
0100
0000
0000
0010
1000
0000
0000
0100
0010
0000
0000
0100
,
1000
0000
0001
1000
0001
0010
0100
1000
,
0010
0101
0011
2100
,
0000
0000
0000
0000
0000
0000
3001
0000
0000
0000
1000
0000
0001
0100
0001
0100
,
0001
1000
0000
0001
0000
0010
0000
0001
,
0000
0101
0000
1010
0000
0101
0000
1010
,
0000
1000
0000
0100
0000
0010
0000
0001
,
0000
0011
0000
1100
0000
0011
0000
1100
,
1000
0100
1000
0010
,
0100
0001
0010
0100
,
1000
0100
0010
0001
0010
0100
1000
0001
,
0100
0010
0100
0000
0000
0000
0001
0000
0000
0000
1000
0000
0002
0000
0000
0000
,
0013
0000
0000
0000
;

//--------------- dance-single - Pandemonium X ----------------
#NOTES:
     dance-single:
     Pandemonium X:
     Challenge:
     15:
     0,0,0,0,0:
0000
0000
0000
0000
,
0000
0000
0000
0000
,
0000
0000
0000
0000
,
0000
0000
0000
0000
,
0000
0000
0000
0000
,
0000
0000
0000
0000
,
0000
0000
0000
0000
,
0000
0000
0000
0000
,
0101
1100
0101
1001
,
1000
0000
0001
0000
0010
0000
0100
0000
1000
0001
1000
0000
0001
0200
0000
0310
,
0000
0000
0100
0000
0001
0000
1000
0000
0100
0010
0100
0000
0100
0020
0000
0031
,
0000
0000
0001
0000
0100
0000
0001
0000
0010
0100
0010
0000
0100
2000
0000
3001
,
0000
0000
0100
0000
0010
0000
1000
0000
0010
0100
0010
0000
1000
0002
0000
0013
,
0100
0000
1000
0000
0001
0000
0000
1000
0001
0000
0100
0000
0001
0000
0000
0001
,
0010
0000
0001
0000
1000
0000
0000
1000
0010
0000
0100
0000
0001
1000
0000
1000
,
0100
0000
0010
0000
0001
0000
0100
0000
0010
1000
0001
0000
0010
0100
0000
0100
,
1000
0000
1000
0000
0001
0000
0001
0000
1000
0001
1000
0001
1000
0001
1000
0001
,
1000
0000
0000
0000
0100
0000
0000
0000
1000
0010
1000
0000
0010
0000
0100
0000
,
0001
0000
0000
0000
0010
0000
0000
0000
0100
1000
0100
0000
1000
0000
0010
0000
,
0100
0000
0000
0000
0001
0000
0000
0000
0010
0100
0010
0000
0001
0000
1000
0000
,
0010
0000
0000
0000
1000
0000
0000
0000
0001
0010
0001
0000
0010
0000
0100
0000
,
1000
0000
0000
0000
0001
0000
0000
0000
0100
0010
1000
0000
0001
0000
0010
0000
,
0100
0000
0000
0000
0010
0000
0000
0000
0001
1000
0100
0000
0010
0000
0100
0000
,
1000
0000
0000
0000
0100
0000
0000
0000
1000
0001
0010
0000
0100
0000
0010
0000
,
0001
0000
0000
0000
0100
0000
0000
0000
0010
0100
0001
0000
1000
0000
0001
0000
,
1001
0000
0000
0000
0011
0000
0000
0000
0001
0010
0100
0000
0010
0000
0001
0000
,
0101
0000
0000
0000
1100
0000
0000
0000
0100
1000
0010
0000
0100
0000
0010
0000
,
1010
0000
0000
0000
0011
0000
0000
0000
0010
0100
1000
0000
0100
0000
0010
0000
,
0011
0000
0000
0000
0101
0000
0000
0000
0001
0100
0010
0000
0100
0000
0010
0000
,
1010
0000
0000
0000
0101
0000
0000
0000
1100
0000
0000
0100
0010
0000
0001
0000
,
0100
0000
0000
0000
0010
0000
0000
0000
1010
0000
0000
1000
0010
0000
0100
0000
,
0001
0001
1000
1000
0010
0010
0100
0100
,
0001
0000
0100
0000
1000
0000
0100
0000
0000
0000
0010
0000
0100
0010
1000
0001
,
2000
0000
0000
3200
,
0000
0000
0000
0320
,
0032
0203
2300
3200
,
0000
0000
0000
0320
,
2030
0000
0000
3002
,
0000
0000
0023
0032
,
0203
2300
3200
0002
,
0000
0000
0000
0300
,
1003
0000
0000
0000
0000
0000
0011
0000
0000
0000
0000
0000
0001
0000
0100
0010
,
1000
0000
0100
0000
0010
0000
0110
0000
0000
0000
0000
0000
0000
0001
0010
0100
,
1000
0100
1000
0010
0110
0000
0000
0000
,
0010
0100
0001
0010
0110
0000
0000
0000
,
1001
0000
0000
0000
0001
0000
0000
0000
0100
0000
0000
0000
0010
0000
1000
0100
,
0010
0000
0000
0000
0010
0000
0000
0000
0001
0000
0000
0000
0010
0000
0001
0100
,
0010
0000
0000
0000
0100
0000
0000
0000
0010
0000
0000
0000
1000
0000
0001
0010
,
0100
0000
0000
0000
0010
0000
0000
0000
0001
0000
0000
0000
0010
0000
0100
1000
,
0001
0100
0001
1000
0100
1000
0001
0010
,
0100
1000
0100
0010
0100
1000
0001
0100
,
0010
1000
0010
1000
0001
0100
0001
0100
0001
0010
0001
0010
0100
1000
0100
1000
,
0002
0003
0002
0000
0000
0003
0002
0003
0002
0000
0000
0000
0013
0000
0000
0000
,
1100
0000
0000
1000
0010
0000
0100
0000
0000
0001
0100
0000
0000
0100
0010
0000
,
0000
1000
0001
0000
0000
0010
0100
0000
0000
0010
0001
0000
0010
0000
0100
0000
,
0010
0000
0000
0001
0010
0000
0100
0000
0000
1000
0100
0000
0000
0010
0001
0000
,
0000
1000
0010
0000
0000
0100
0001
0000
0000
1000
0001
0000
0010
0000
0100
0000
,
1000
0000
0000
0001
0100
0000
0010
0000
0000
1000
0100
0000
0000
0010
0100
0000
,
0000
1000
0010
0000
0000
0100
0001
0000
0000
0010
0100
0000
0010
0000
0001
0000
,
1000
0000
0000
0001
0100
0000
0010
0000
0000
1000
0100
0000
0000
0100
0010
0000
,
0001
0000
1000
0000
0001
0000
1000
0000
0000
0000
0010
0100
0010
0000
1000
0000
,
0001
0000
0000
0001
0010
0000
0000
0010
0100
0000
0000
0100
1000
0000
0000
1000
,
0010
0000
0100
1000
0100
0001
1000
0100
,
0010
0000
0000
0001
0010
0000
0000
0010
0100
0000
0000
0100
1000
0000
0001
0000
,
0100
0000
0100
1000
0100
0010
1000
0001
,
1000
0000
0000
1000
0100
0000
0000
0100
0010
0000
0000
0010
0001
0000
0000
0001
,
0100
0000
0010
1000
0001
0010
0100
0010
,
0001
0000
0000
0001
0010
0000
0000
0010
0100
0000
0000
0100
1000
0000
0000
1000
,
0001
0000
1000
0100
0001
0100
1000
0010
,
0100
0000
0000
0010
0100
0000
0000
0100
0001
0000
0000
0001
0010
0000
0000
0010
,
0100
0000
0100
0001
0100
1000
0001
0100
,
0010
0000
0000
1000
0010
0000
0000
0010
0100
0000
0000
0100
0001
0000
1000
0000
,
0001
0000
1000
0010
0001
0010
0100
0001
,
1000
0000
0000
0001
0010
0000
0000
0010
0001
0000
0000
0001
1000
0000
0000
1000
,
0010
0000
0100
0010
1000
0001
0010
0100
,
1000
0000
0000
1000
0100
0000
0000
0100
0010
0000
0000
0010
0001
0000
0000
0001
,
1000
0000
0001
0000
1000
0000
0010
0000
0000
0000
0100
0000
0010
1000
0010
1000
,
0001
1000
0010
0100
0001
1000
0100
0010
,
0001
1000
0100
1000
0001
0010
0100
1000
,
0001
1000
0010
1000
0001
0010
0100
1000
,
0001
1000
0100
1000
0001
1000
0010
0100
,
0101
1010
1100
0011
,
0110
1100
0110
0011
,
1001
0001
0001
1000
1000
0010
0010
0100
,
0100
0001
0010
0000
0000
0000
0100
0000
0000
0000
0100
0000
2100
0000
0000
0000
,
3010
0000
0000
0000
;
