#VERSION:0.83;
#TITLE:Honey Trap;
#SUBTITLE:;
#ARTIST:Expander;
#TITLETRANSLIT:;
#SUBTITLETRANSLIT:;
#ARTISTTRANSLIT:;
#GENRE:;
#CREDIT:;
#MUSIC:Honey Trap.ogg;
#BANNER:STPlatinum.png;
#BACKGROUND:STPlatinum-bg.png;
#CDTITLE:;
#SAMPLESTART:80.520;
#SAMPLELENGTH:12.000;
#SELECTABLE:YES;
#OFFSET:0.480;
#BPMS:0.000=160.000;
#STOPS:;
#BGCHANGES:;
#FGCHANGES:;

//--------------- dance-single - ----------------
#NOTEDATA:;
#STEPSTYPE:dance-single;
#DESCRIPTION:;
#DIFFICULTY:Hard;
#METER:13;
#RADARVALUES:0,0,0,0,0;
#CREDIT:Talkion;
#NOTES:
0000
0000
0000
0000
,
0000
0000
0000
0000
,
0000
0000
0000
0000
,
0000
0000
0000
0000
,
0000
0000
0000
0110
,
2001
0000
0000
3100
0010
0010
0020
0000
,
2030
0000
0000
0000
3010
0000
0100
0000
1000
0000
0010
0000
0200
0300
0000
0000
,
0020
0032
1003
1200
,
0301
0000
0010
0000
0001
0000
0100
0000
0001
0000
0001
0000
0000
0010
0000
0000
,
0200
1000
0310
0000
0101
0000
0200
0001
,
0310
0000
1000
0000
0001
0000
1000
0000
0100
0000
0100
0000
0020
0030
0000
0000
,
1010
0000
0000
0011
0000
0000
1001
0000
2000
0000
0000
3020
0000
0000
0031
0000
,
0020
0000
0000
2030
0000
0000
3001
0000
0200
0000
0010
0000
0301
0000
0000
0000
,
1002
0000
0000
0013
0100
0100
1000
0000
,
1001
0001
0100
0010
0100
0100
0001
0000
,
1002
0000
0000
0013
0000
0000
0010
0000
1000
0000
1000
0000
0010
0000
0000
0000
,
0001
1000
0100
1000
0001
0100
1000
0000
,
1200
0000
0000
0000
0310
0010
1000
0000
,
1001
0001
0010
0100
0010
0010
0001
0000
,
1002
0000
0000
0103
0000
0000
0100
0000
1000
0000
1000
0000
0100
0000
0000
0000
,
0001
1000
0010
1000
0100
0010
0100
1000
,
0020
0000
0000
0000
0100
0000
0000
0000
0130
0000
0002
1000
0000
0003
0020
0100
,
0000
0030
0002
1000
0000
0003
0200
0010
0000
0300
0002
1000
0000
0003
0010
0000
,
0100
0000
0100
0000
1000
0000
1000
0000
0001
0000
0100
0010
2000
0000
3001
0000
,
0010
0000
0000
0010
0000
0000
0010
0000
0100
0000
0000
0000
1002
0000
0000
0000
,
0103
0000
0000
00M0
0000
0000
0100
0000
0000
0000
0000
0000
1000
0000
0000
0000
0100
0000
0000
00M0
0000
0000
0100
0000
0000
0000
0000
0000
0001
0000
0000
0000
,
0100
0000
0000
M000
0000
0000
0100
0000
0000
0000
0000
0000
0010
0000
0000
0000
1000
0000
0000
0000
0010
0000
0000
0000
0100
0000
0000
0000
1000
0000
0000
0000
,
0100
0000
0000
00M0
0000
0000
0100
0000
0000
0000
0000
0000
0001
0000
0000
0000
0020
0000
0000
0000
0000
0000
0130
0000
0000
0000
0000
0000
1000
0000
0000
0000
,
0100
0000
0000
00M0
0000
0000
0100
0000
0000
0000
0000
0000
0001
0000
0000
0000
0100
0000
0000
0000
0010
0000
0000
0000
0001
0000
0000
0000
0000
0000
0000
0000
,
0010
0000
0100
000M
0100
0000
1000
0000
0200
0000
0000
0302
0000
0000
0103
0000
,
0010
0000
0000
000M
0000
0000
0010
0000
0000
0000
0000
0000
1000
0000
0000
0000
0001
0000
0000
0000
0010
0000
0000
0000
0001
0000
0000
0000
1000
0000
0000
0000
,
0010
0000
0000
0000
0100
0000
0000
0000
0010
0000
0000
0000
1000
0000
0000
0000
0100
0000
0000
00M0
0000
0000
0201
0000
0000
0000
0000
0000
0000
0000
0000
0000
,
0320
0000
0000
0031
0000
0000
0010
0000
0100
0000
0001
0000
2000
0000
0000
0000
,
3010
0000
0000
0M00
0000
0000
0010
0000
0000
0000
0000
0000
0001
0000
0000
0000
0010
0000
0000
M000
0000
0000
0010
0000
0000
0000
0000
0000
0100
0000
0000
0000
,
0002
0010
0000
0000
0103
0000
0002
0010
0000
0000
0103
0000
0001
0000
0000
0000
,
0010
0000
0000
0M00
0000
0000
0010
0000
0000
0000
0000
0000
1000
0000
0000
0000
0010
0000
0000
000M
0000
0000
0010
0000
0000
0000
0000
0000
0100
0000
0000
0000
,
1000
0000
0000
0000
1000
0000
0001
0000
0100
0000
0010
0000
1000
0000
0000
0001
0000
0000
0010
0000
0001
0000
1000
0000
,
0100
0000
0010
000M
0010
0000
1000
0000
0020
0000
0000
0032
0000
0000
0013
0000
,
1000
0100
0010
0100
0002
0203
0320
2030
,
3010
0000
0000
0000
0100
0000
0000
0000
0010
0000
0000
0000
0001
0000
0000
0000
0100
0000
0000
00M0
0000
0000
1200
0000
0000
0000
0000
0000
0000
0000
0000
0000
,
0320
0000
0000
1030
0000
0000
0010
0000
0100
0000
1000
0000
0002
0000
0000
0000
,
0103
0000
0000
0100
0010
0000
1000
0000
0001
0000
0010
0000
0001
0000
0100
0000
,
0010
0000
0000
0010
0001
0000
0010
0000
0100
0000
0001
0000
0010
0000
0001
0000
,
0100
0000
0000
0100
1000
0000
0100
0000
0010
0000
1000
0000
0100
0000
1000
0000
,
0020
0000
0000
0031
0000
0000
1000
0000
1200
0000
0000
0010
0000
0000
0301
0000
,
0010
0000
0000
0010
0100
0000
1000
0000
0001
0000
0100
0000
0001
0000
0010
0000
,
0100
0000
0000
0100
0001
0000
0100
0000
0010
0000
0001
0000
0100
0000
0001
0000
,
0010
0000
0000
0010
1000
0000
0010
0000
0100
0000
1000
0000
0010
0000
1000
0000
,
0200
0000
0000
0301
0000
0000
1000
0000
1020
0000
0000
0100
0000
0000
0031
0000
,
1000
0000
1000
0010
0100
0010
1000
0001
,
0010
0100
1000
0010
0100
0001
0010
0100
,
1000
0001
0010
0001
1000
0010
0100
0001
,
1000
0000
0000
1000
0000
0000
1000
0000
0200
0000
0000
0000
0310
0000
0000
0000
,
0000
0000
0000
1001
,
1020
0000
0000
1000
0000
0000
0230
0000
1300
0000
0100
0000
0010
0000
0000
0000
,
1000
0001
1000
0001
1000
0000
0100
0000
0010
0000
0100
0000
1000
0000
0001
0000
,
0201
0000
0000
0001
0000
0000
0320
0000
0031
0000
0010
0000
0100
0000
0001
0000
,
1000
0000
0100
0000
0010
0000
0001
0000
0101
0000
0000
1001
0000
0000
0000
0000
,
0021
0000
0000
0001
0000
0000
0230
0000
0301
0000
0100
0000
0010
0000
0000
0000
,
0001
1000
0001
1000
0010
0000
0100
0000
0010
0000
1000
0000
0001
0000
1000
0000
,
1200
0000
0000
1000
0000
0000
0320
0000
1030
0000
0010
0000
0100
0000
1000
0000
,
0001
1000
0001
0000
0100
0010
0100
0000
0001
0000
0000
1001
0000
0000
0000
0000
,
1200
0000
0000
1000
0000
0000
0320
0000
1030
0000
0010
0000
0100
0000
0000
0000
,
1000
0001
1000
0001
2000
0000
0010
0000
3002
0000
0010
0000
1003
0000
0001
0000
,
0021
0000
0000
0001
0000
0000
0230
0000
0301
0000
0100
0000
0010
0000
0001
0000
,
1000
0010
0100
0001
0010
0000
0010
0000
,
0201
0000
0000
0001
0000
0000
0320
0000
0031
0000
0010
0000
0100
0000
0000
0000
,
0001
1000
0001
1000
0200
0000
0010
0000
2300
0000
0001
0000
3010
0000
0000
0000
,
1200
0000
0000
1000
0000
0000
0320
0000
1030
0000
0010
0000
0100
0000
1000
0000
,
0001
1000
0001
0000
0100
0010
0100
0000
1000
0000
0000
0110
0000
0000
0000
0000
,
0000
0000
0000
0000
,
0000
0000
0000
0000
,
0000
0000
0000
0000
,
0000
0000
0000
0000
,
0000
0000
0000
0000
,
0000
2000
3002
0000
0013
0010
0100
0000
,
2001
0000
0000
0000
3010
0000
0100
0010
1000
0000
0001
2000
0000
0000
0100
0000
,
3001
0000
0100
0010
0100
0010
1000
0000
0200
0000
0000
0000
1300
0000
1000
0000
,
0002
0000
0000
0000
0013
0000
0100
0010
0001
0000
1000
0002
0000
0000
0100
0000
,
1003
0000
0100
0000
0010
0000
1000
0010
0001
0000
0000
0000
1001
0000
0000
0000
,
0200
0000
0000
0000
,
0300
0000
0000
0000
;

//--------------- dance-single - ----------------
#NOTEDATA:;
#STEPSTYPE:dance-single;
#DESCRIPTION:;
#DIFFICULTY:Challenge;
#METER:16;
#RADARVALUES:0,0,0,0,0;
#CREDIT:Talkion;
#NOTES:
0000
0000
0000
0000
,
0000
0000
0000
0000
,
0000
0000
0000
0000
,
0000
0000
0000
0000
,
0000
0000
0000
0110
,
2001
3100
0010
0100
1001
1000
0010
0100
,
2000
0000
0000
0000
3100
0000
0100
0010
1000
0000
0001
0000
0020
0030
0000
0000
,
0200
0302
1003
1020
,
0031
1000
0001
0000
0100
0000
0100
0010
1000
0000
1000
0000
0000
0001
0000
0000
,
0020
0001
0130
1000
0001
0100
0020
1000
,
0130
0000
0001
0000
1000
0000
0100
0000
0010
0000
0001
0000
0200
0300
0000
0000
,
1100
0000
0000
0101
0000
0000
1001
0000
1200
0000
0000
0001
0000
0000
1300
0000
,
0001
0000
0100
0010
1000
0010
0100
0000
0002
0000
0100
0000
0013
0000
0000
0000
,
2001
3100
0010
0100
1000
1000
0001
0000
,
0101
0000
0100
0000
0010
0000
0100
0000
0001
0000
0001
0000
2000
3000
0000
0000
,
0100
0000
0000
0100
0000
0000
0100
0000
0001
0000
0100
0000
0010
0000
0000
0000
,
0001
1000
0100
1000
0001
0100
1000
0000
,
1200
0000
0000
0000
0301
0001
1000
0000
,
1100
0000
0100
0000
0010
0000
0100
0000
1000
0000
1000
0000
0002
0003
0000
0000
,
0100
0000
0010
0100
0000
0010
0100
0000
1000
0000
0100
0000
0010
0000
0000
0000
,
1000
0000
0001
0000
0100
0000
0010
0100
0001
0000
0010
0000
0001
0010
0100
1000
,
0002
0000
0000
0000
0100
0000
0000
0000
0103
0000
0020
0100
0000
0030
2000
0100
,
0000
3000
0002
0100
0000
0003
0020
0100
0000
0030
0001
1000
0001
0000
0100
0010
,
1000
0000
1000
0000
0001
0000
0001
0000
0010
0000
0010
0100
1000
0100
0010
0000
,
0001
1000
0010
0100
0001
1000
0100
0010
0001
0000
0000
0000
1001
0000
0000
0000
,
1100
0000
0000
00M0
0000
0000
0100
0000
0000
0000
0000
0000
0001
0000
1000
0000
0100
0000
0000
00M0
0000
0000
0100
0000
0000
0000
0000
0000
0001
0000
0000
0000
,
0010
0000
0000
M000
0000
0000
0010
0000
0000
0000
0000
0000
0100
0000
0000
0000
1000
0000
0000
0000
0100
0000
0000
0000
0010
0000
0000
0000
1000
0000
0000
0000
,
0010
0000
0000
0M00
0000
0000
0010
0000
0000
0000
0000
0000
0001
0000
0100
0000
0020
0000
0000
0000
0000
0000
1030
0000
0000
0000
0000
0000
0001
0000
0000
0000
,
0100
0000
0000
00M0
0000
0000
0100
0000
0000
0000
0000
0000
1000
0000
0000
0000
1100
0000
0000
0000
0200
0000
0000
0000
0001
0000
0000
0000
0300
0000
0000
0000
,
0100
0000
0010
000M
0010
0000
1000
0001
0200
0000
0000
2300
0000
0000
3100
0000
,
0010
0000
0000
M000
0000
0000
0010
0000
0000
0000
0000
0000
0001
0000
0000
0000
0010
0000
0100
0000
0001
0000
0100
0000
0010
0000
0001
0000
1000
0000
0001
0000
,
0200
0000
0000
0000
0301
0000
0000
0000
010M
0000
0000
0000
1000
0000
0100
0000
0010
0000
0000
000M
0000
0000
1020
0000
0000
0000
0000
0000
0000
0000
0000
0000
,
0230
0000
0000
0000
0000
0000
0000
0000
0000
1300
0000
0000
0000
0000
0000
0000
0000
0000
0100
0000
0000
0000
0000
0000
0001
0000
0000
0000
0000
0000
1000
0000
0000
0000
0000
0000
0100
0000
0000
0000
0010
0000
0000
0000
0001
0000
0000
0000
,
0100
0000
0000
00M0
0000
0000
0100
0000
1000
0000
0000
0000
0100
0000
1000
0000
0010
0000
0000
0M00
0000
0000
0010
0000
0001
0000
0000
0000
0010
0000
0100
0000
,
2000
0010
0000
0000
3100
0010
0002
0100
0000
0000
0013
0100
1000
0000
0000
0000
,
0100
0000
0000
00M0
0000
0000
0100
0000
0001
0000
0000
0000
0100
0000
0001
0000
0010
0000
0000
0M00
0000
0000
0010
0000
1000
0000
0000
0000
0010
0000
0100
0000
,
0001
0000
0000
0000
0001
0000
1000
0000
1000
0000
0100
0000
0010
0000
0000
0100
0000
0000
1000
0000
1000
0000
0001
0000
,
0100
0000
0010
M000
0010
0000
0001
1000
0200
0000
0000
0302
0000
0000
0103
0000
,
0010
0100
1000
0100
0020
0000
0031
1000
0010
0100
1000
0100
0010
1000
0001
1000
,
0200
0000
0000
0000
1300
0000
0000
0000
M100
0000
0000
0000
0001
0000
0100
0000
0010
0000
0000
M000
0000
0000
0021
0000
0000
0000
0000
0000
0000
0000
0000
0000
,
0230
0000
0000
0000
0000
0000
0000
0000
0000
0301
0000
0000
0000
0000
0000
0000
0000
0000
0100
0000
0000
0000
0000
0000
1000
0000
0000
0000
0000
0000
0001
0000
0000
0000
0000
0000
0100
0000
0000
0000
0010
0000
0000
0000
0100
0000
0000
0000
,
0002
0000
0000
1003
0100
0000
1000
0000
0001
0000
0010
0000
0001
0000
1000
0000
,
0020
0000
0000
0130
1000
0000
0100
0010
1000
0000
0001
0000
1000
0100
0010
0000
,
0002
0000
0000
0013
1000
0000
0010
0100
1000
0000
0001
0000
1000
0010
0100
0000
,
2000
0000
0000
3001
0000
0000
0010
0000
2010
0000
0000
0100
0000
0000
3010
0000
,
2000
0000
0000
3001
0010
0000
0001
0000
1000
0000
0010
0000
1000
0000
0001
0000
,
0020
0000
0000
0130
0001
0000
0100
0010
0001
0000
1000
0000
0001
0100
0010
0000
,
2000
0000
0000
3010
0100
0000
0001
0100
1000
0000
0100
0000
0001
1000
0100
0000
,
0002
0000
0000
1003
0000
0000
0010
0000
0012
0000
0000
0100
0000
0000
0013
0000
,
0001
0000
0000
0000
0001
0000
1000
0100
1000
0000
0001
0000
1000
0000
0010
0000
,
0100
0001
0100
0000
0010
0000
1000
0001
1000
0000
0100
0000
1000
0001
0010
0001
,
1000
0010
0100
0001
1000
0000
0001
0010
0001
0000
1000
0100
1000
0001
0100
0010
,
1000
0000
0000
1000
0000
1000
0010
0100
0002
0000
0000
0000
0013
0000
0000
0000
,
0000
0000
0000
1001
,
1200
0000
0000
1000
0000
0000
0320
0000
1030
0000
0010
0000
0200
0001
0300
0000
,
0010
0001
0010
0001
1000
0000
0010
0000
0100
0000
0001
0000
0100
0000
0010
0000
,
1020
0000
0000
1000
0000
0000
0130
0000
1000
0100
0010
0100
0001
1000
0100
0020
,
0001
0000
0130
0000
1000
0000
0010
0000
0110
0000
0000
1001
0000
0000
0000
0000
,
0201
0000
0000
0001
0000
0000
0320
0000
0031
0000
0010
0000
0200
1000
0300
0000
,
0010
1000
0010
1000
0001
0000
0010
0000
0100
0000
0010
0000
0001
1000
0001
0000
,
0100
0000
0200
0010
0000
0000
0301
0000
1000
0100
0010
1000
0010
0100
1000
0001
,
1000
0010
0100
0000
0001
0010
0100
0000
0110
0000
0000
1001
0000
0000
0000
0000
,
1020
0000
0000
1000
0000
0000
0230
0000
1300
0000
0100
0000
0020
0001
0030
0000
,
0100
0010
1000
0001
1000
0100
0010
0100
1000
0000
0001
0000
0100
0010
1000
0000
,
1200
0000
0000
1000
0000
0000
0310
0000
1000
0010
0100
0010
0001
1000
0100
0020
,
0001
0130
1000
0010
0101
0000
0101
0000
,
0021
0000
0000
0001
0000
0000
0230
0000
0301
0000
0100
0000
0020
1000
0030
0000
,
0100
0010
0001
1000
0001
0100
0010
0100
0001
0000
0020
0000
1000
0000
0030
0000
,
0210
0000
0000
0010
0000
0000
1300
0000
0001
0100
0010
0001
0010
0100
0001
1000
,
0200
0000
0302
0000
1003
0010
0100
0000
1100
0000
0000
1001
0000
0000
0000
0000
,
0000
0001
0010
0002
0000
0000
0103
0010
1000
0001
0010
0100
0000
1000
0000
1000
,
0000
0010
0000
0100
0010
0000
0010
0000
1000
0000
1000
0000
0000
0001
0010
0000
,
0002
1000
0000
0103
0020
0100
0000
1030
0002
1000
0000
0013
0000
0100
0000
1000
,
0000
1000
0000
0100
0010
0002
0000
0000
0103
0000
0100
0010
1000
0100
0000
0000
,
0000
0000
0000
0000
,
0000
0000
2000
0000
3001
0010
0100
0010
0001
0000
0001
0000
1010
0000
0000
0000
,
1002
0000
0000
0000
0103
0010
1000
0100
0010
0000
0001
2000
0000
0000
0100
0000
,
3001
0000
0100
0010
0100
0010
0001
0000
0010
0000
0100
0010
1000
0000
1000
0000
,
0002
0000
0000
0000
0013
0100
1000
0010
0100
0000
0001
2000
0000
0000
0010
0000
,
3001
0000
0010
0000
1000
0010
0001
0100
1000
0000
0000
0000
0110
0000
0000
0000
,
2002
0000
0000
0000
,
3003
0000
0000
0000
;
