#TITLE:ヒカリアレ;
#SUBTITLE:;
#ARTIST:BURNOUT SYNDROMES;
#TITLETRANSLIT:Hikari Are;
#SUBTITLETRANSLIT:;
#ARTISTTRANSLIT:;
#GENRE:;
#CREDIT:;
#BANNER:Hikari are.png;
#BACKGROUND:Hikari are-bg.png;
#LYRICSPATH:;
#CDTITLE:;
#MUSIC:Hikari Are.ogg;
#OFFSET:-0.325000;
#SAMPLESTART:31.330000;
#SAMPLELENGTH:15.000000;
#SELECTABLE:YES;
#BPMS:0.000000=178.000000
;
#STOPS:
;
#BGCHANGES:0.000=Hikari Are.avi=1.000=0=0=1=====,
99999=-nosongbg-=1.000=0=0=0 // don't automatically add -songbackground-
;
#KEYSOUNDS:;
#ATTACKS:;

//---------------dance-single - ----------------
#NOTES:
     dance-single:
     :
     Hard:
     13:
     0.747619,0.808194,0.700000,0.500000,0.155556,471.000000,408.000000,63.000000,45.000000,0.000000,0.000000,0.747619,0.808194,0.700000,0.500000,0.155556,471.000000,408.000000,63.000000,45.000000,0.000000,0.000000:
// measure 0
0000
0000
0000
0000
,  // measure 1
0000
0000
0000
0000
,  // measure 2
0000
0000
0000
0000
,  // measure 3
0000
0000
0000
0000
,  // measure 4
0002
0000
0003
0100
0020
0000
0030
0010
,  // measure 5
2000
0000
3000
1000
0002
0000
0003
1000
,  // measure 6
0200
0000
0310
0001
2000
0000
3001
0100
,  // measure 7
0010
0000
1000
0000
0100
0000
0001
0000
0130
0000
1000
0000
0010
0000
1000
0001
,  // measure 8
2000
0000
3001
0100
0010
0100
0001
1000
,  // measure 9
0100
0010
0001
1000
0010
1000
1000
0001
,  // measure 10
0002
0000
1003
0010
0100
0010
1000
0001
,  // measure 11
0010
0010
0100
1000
1000
0001
0100
0010
,  // measure 12
2010
0000
3001
0100
0010
1000
0100
0010
,  // measure 13
0012
0000
1003
0100
0001
0100
1000
0010
,  // measure 14
0210
0000
0301
0010
0100
1000
0010
1000
,  // measure 15
0001
0000
0000
0000
0000
0100
0010
0000
,  // measure 16
1001
0000
1010
0001
0000
0101
1000
0000
,  // measure 17
1100
0001
0000
1001
1000
0100
0010
0001
,  // measure 18
1001
0000
0101
1000
0000
1010
0001
0000
,  // measure 19
0011
1000
0000
1001
0001
0100
0010
0000
,  // measure 20
1010
1000
0010
1000
0001
0000
0011
0001
,  // measure 21
0100
0001
1000
0000
0110
0000
1001
0000
,  // measure 22
1100
0000
0200
0000
0000
0000
0320
3000
0000
0000
0031
0000
0101
0000
0000
0000
,  // measure 23
0001
1000
0010
1000
0001
0000
0000
0000
1000
0000
0100
0000
0010
0000
0001
0000
,  // measure 24
0201
0000
0310
1000
1020
0000
1030
0100
,  // measure 25
1200
0000
0310
0001
0012
0000
1003
0010
,  // measure 26
0100
0001
0100
1000
0100
0010
0200
0000
,  // measure 27
0301
0010
0100
1000
0010
0100
0001
0000
,  // measure 28
0101
0000
0100
0000
0020
0000
1000
0000
1030
0000
0100
0000
0020
0003
0001
0000
,  // measure 29
0031
0003
1000
0000
0020
0000
0100
0000
0130
0000
0001
0000
1000
0000
0100
0000
,  // measure 30
1100
0000
0001
0101
0000
0100
0110
0000
,  // measure 31
1000
0001
0010
0001
1000
0000
0000
0000
1100
0000
0000
0000
0101
0000
0000
0000
,  // measure 32
1001
0000
1100
0100
0010
0000
0011
0001
,  // measure 33
1000
0000
1010
0010
0100
0000
0101
0100
,  // measure 34
0010
1000
0010
0100
0010
0001
0020
0000
,  // measure 35
1030
0001
0010
0100
1000
0001
1000
0000
,  // measure 36
1002
0000
0203
0000
0310
1000
0100
0000
,  // measure 37
2001
0000
3020
0000
0130
0001
0010
0000
,  // measure 38
0011
1000
0000
1010
0001
0000
0110
0000
,  // measure 39
1001
1100
0101
1001
,  // measure 40
0001
0000
0100
0000
0010
0000
1000
0100
1000
0000
0001
0000
0010
0000
0100
0010
,  // measure 41
0100
0000
1000
0000
0001
0000
1000
0010
1000
0000
0001
0000
0100
0000
0001
1000
,  // measure 42
0001
0100
0010
1000
0100
0010
0001
1000
,  // measure 43
0020
0000
0000
0000
0032
0030
0000
0000
2003
0000
0000
0000
3200
0000
0000
0000
,  // measure 44
0301
0000
1000
0000
0010
0000
0100
0001
0100
0000
0010
0000
1000
0000
0001
0010
,  // measure 45
0001
0000
1000
0000
0100
0000
0010
0001
0010
0000
0100
0000
1000
0000
0001
1000
,  // measure 46
0001
0000
1000
1010
0000
0001
0101
0000
,  // measure 47
2000
3200
0320
0031
,  // measure 48
1001
0000
1000
0000
0010
0000
0100
0001
0100
0000
0010
0000
1000
0000
0001
0010
,  // measure 49
0100
0000
1000
0000
0010
0000
1000
0001
1000
0000
0100
0000
0010
0000
0001
1000
,  // measure 50
0002
0000
0000
0000
0203
0003
0000
0000
2300
0000
0000
0000
3002
0000
0000
0000
,  // measure 51
0013
1000
0100
0010
0001
1000
0001
0000
,  // measure 52
2001
0000
3200
0000
0310
0001
0100
0000
,  // measure 53
1002
0000
0023
0000
0130
1000
0001
0000
,  // measure 54
1000
0000
0001
0100
0001
0000
1000
0000
0010
0000
0100
0010
0100
0000
0001
0000
,  // measure 55
2000
0000
0000
0010
0020
0000
3030
0000
,  // measure 56
1001
0001
0000
0101
1000
0000
1010
0001
,  // measure 57
0000
0110
0100
0000
0110
0000
1001
0000
,  // measure 58
1000
0000
3100
0010
0100
0000
0010
0000
0001
1000
0001
0000
1000
0000
0010
0100
,  // measure 59
0010
0000
0100
0000
0001
1000
0001
0000
1000
0000
0001
0000
0100
0000
0000
0000
,  // measure 60
0101
0100
0010
0100
0001
0100
0110
0010
,  // measure 61
1000
0001
0010
0100
0110
0000
1100
0000
,  // measure 62
1010
0010
0100
0010
1000
0010
0110
0100
,  // measure 63
0001
1000
0100
0010
0110
0000
0011
0000
,  // measure 64
2002
0000
0000
3003
,  // measure 65
0001
0100
1000
0001
0010
1000
0001
0010
,  // measure 66
1000
0001
0000
0000
0000
0000
0000
0000
;

//---------------dance-single - ----------------
#NOTES:
     dance-single:
     :
     Medium:
     9:
     0.468254,0.551042,0.444444,0.711111,0.000000,295.000000,255.000000,40.000000,64.000000,0.000000,0.000000,0.468254,0.551042,0.444444,0.711111,0.000000,295.000000,255.000000,40.000000,64.000000,0.000000,0.000000:
0000
0000
0000
0000
,
0000
0000
0000
0000
,
0000
0000
0000
0000
,
0000
0000
0000
0000
,
2000
3000
0200
0300
,
0020
0030
0002
0003
,
2000
3000
0002
0003
,
0100
0000
0010
0000
1000
0001
1000
0000
,
2002
3003
1000
0100
,
0010
0000
0001
0000
1000
0010
1000
0000
,
2020
3030
0010
1000
,
0001
0100
0001
0000
1000
0000
0001
0000
,
0022
0033
0010
0100
,
2200
3300
1000
0010
,
0100
0100
0010
0010
,
2000
3200
0320
0031
,
1001
0000
0000
1100
0000
0000
1001
0000
,
0000
0101
0000
0000
1000
0001
0100
0000
,
0101
0000
0000
1001
0000
0000
1100
0000
,
0000
1001
0000
0000
1000
0100
0010
0000
,
0001
0010
0000
0010
0100
0000
1000
0010
,
0000
0010
0100
0000
0002
0000
2003
0000
,
3010
0010
0000
0100
0000
0001
1000
0000
,
0002
0023
0230
1300
,
1002
0000
0003
1000
0020
0000
0030
0100
,
0002
0000
0003
1000
0200
0000
0300
0010
,
0002
2003
3020
0230
,
0301
0000
1000
0001
1000
0000
0010
0000
,
2010
0000
3000
0001
0200
0000
0300
0010
,
2000
0000
3000
0001
0020
0000
0130
0000
,
1100
0000
0000
1100
0000
0000
0101
0000
,
2000
3020
0230
0301
,
1000
0000
0001
0010
0001
0000
1000
0100
,
1000
0000
0001
0100
0001
0000
1000
0010
,
0200
0302
2003
3200
,
0310
0001
1000
0010
,
2010
3001
0000
0001
,
0102
1003
0100
0010
,
0001
0010
0000
0010
0100
0000
1000
0000
,
1100
0110
0011
1001
,
0002
0000
0103
0010
2000
0000
3100
0010
,
0002
0000
0103
0010
2000
0000
3001
1000
,
0001
0100
0010
1000
,
0100
0100
0100
0010
,
2001
0000
3010
0100
0002
0000
0013
0100
,
2000
0000
3010
0100
0002
0000
1003
0001
,
1000
0010
0100
0001
,
0010
0010
0010
0100
,
2002
0000
3003
1000
0200
0000
0300
0010
,
0002
0000
0003
1000
0020
0000
0030
0100
,
0002
2003
3200
0320
,
0031
0011
0110
1100
,
0001
1000
0001
0000
0100
0000
0010
0000
,
1000
0010
1000
0000
0001
0000
0010
0000
,
0011
0000
0000
0011
0000
0000
1001
0000
,
2000
0000
0200
3300
,
1000
0000
0000
0001
0000
0000
0100
0000
,
0000
0010
0000
0000
0110
0000
0110
0000
,
1001
0000
0000
0001
0000
0000
0010
0000
,
0000
0100
0000
0000
0110
0000
0110
0000
,
1000
0100
0000
0100
0010
0000
0001
0100
,
0000
0100
0010
0000
0110
0000
1001
0000
,
0001
0010
0000
0010
0100
0000
1000
0010
,
0000
0010
0100
0000
0110
0000
2002
0000
,
0000
0000
0000
3003
,
1000
0100
1000
0100
1000
0100
0010
0001
,
0010
0001
0000
0000
0000
0000
0000
0000
;

//---------------dance-single - ----------------
#NOTES:
     dance-single:
     :
     Easy:
     5:
     0.276190,0.330625,0.033333,0.322222,0.000000,174.000000,171.000000,3.000000,29.000000,0.000000,0.000000,0.276190,0.330625,0.033333,0.322222,0.000000,174.000000,171.000000,3.000000,29.000000,0.000000,0.000000:
0000
0000
0000
0000
,
0000
0000
0000
0000
,
0000
0000
0000
0000
,
0000
0000
0000
0000
,
0001
0000
0000
0000
,
1000
0000
0000
0000
,
0010
0000
0010
0000
,
0100
0000
0000
0000
,
0001
0000
0100
0000
,
0010
0010
0010
0000
,
1000
0000
0100
0000
,
0010
0010
0010
0000
,
0001
0000
1000
0000
,
0010
0000
0100
0000
,
0001
0100
0010
1000
,
0001
0000
0000
0000
,
1000
0000
0000
1000
0000
0000
0100
0000
,
0000
0100
0000
0000
0010
0000
0010
0000
,
0001
0000
0000
0001
0000
0000
0100
0000
,
0000
0100
0000
0000
0010
0000
0010
0000
,
1000
0000
1000
0000
,
1000
0010
0100
0100
,
0001
0000
0000
1000
0000
0000
0001
0000
,
0010
0010
0100
0010
,
2002
3003
2000
3000
,
0020
0030
0200
0300
,
0001
0010
0100
1000
,
0000
0001
1000
0001
,
0200
0300
0020
0030
,
2000
3000
0002
0003
,
0100
0000
0000
0100
0000
0000
0010
0000
,
0010
1000
0100
0010
,
2002
3003
1000
0001
,
0200
0300
0001
0100
,
0020
0030
1000
0001
,
1000
0100
0010
0001
,
2000
3000
0100
0010
,
0002
0003
0100
0010
,
1000
0000
0000
1000
0000
0000
0001
0000
,
0100
0100
0100
0000
,
2002
3003
0001
1000
,
0200
0300
0010
0001
,
2000
3000
0001
0000
,
0100
0100
0100
0100
,
0002
0003
0010
0001
,
2000
3000
0100
1000
,
0020
0030
1000
0000
,
0010
0010
0010
0010
,
2000
3000
0100
0010
,
0002
0003
0100
0010
,
2000
3000
0002
0003
,
0100
0100
0100
0000
,
0001
0001
0010
0100
,
0100
0000
1000
0000
,
0001
0000
0000
0001
0000
0000
0100
0000
,
0020
0030
0200
0300
,
0001
0000
0000
0001
0000
0000
1000
0000
,
0000
1000
0000
0000
0100
0000
0100
0000
,
0100
0000
0000
0100
0000
0000
1000
0000
,
0000
1000
0000
0000
0010
0000
0010
0000
,
1000
0000
1000
0000
,
0001
1000
0010
0010
,
0100
0000
0100
0000
,
0001
1000
0100
0100
,
0020
0000
0000
0030
,
0001
0000
0000
0001
0000
0000
1000
0000
,
0000
1000
0000
0000
0000
0000
0000
0000
;

//---------------dance-single - ----------------
#NOTES:
     dance-single:
     :
     Beginner:
     2:
     0.131746,0.180556,0.011111,0.000000,0.000000,83.000000,82.000000,1.000000,0.000000,0.000000,0.000000,0.131746,0.180556,0.011111,0.000000,0.000000,83.000000,82.000000,1.000000,0.000000,0.000000,0.000000:
0000
0000
0000
0000
,
0000
0000
0000
0000
,
0000
0000
0000
0000
,
0000
0000
0000
0000
,
1000
0000
0000
0000
,
0001
0000
0000
0000
,
0100
0000
0000
0000
,
0100
0000
0000
0000
,
0010
0000
0010
0000
,
0010
0000
0000
0000
,
1000
0000
0000
0000
,
1000
0000
0000
0000
,
0001
0000
0001
0000
,
0001
0000
0000
0000
,
0100
0000
0000
0000
,
0100
0000
0000
0000
,
0010
0000
0010
0000
,
0010
0000
0000
0000
,
0010
0000
0010
0000
,
0010
0000
0000
0000
,
1000
0000
1000
0000
,
1000
0000
0000
0000
,
0001
0000
0001
0000
,
0001
0000
0000
0000
,
1001
0000
0000
0000
,
1000
0000
0000
0000
,
0010
0000
0010
0000
,
0010
0000
0000
0000
,
0100
0000
0000
0000
,
0001
0000
0000
0000
,
1000
0000
1000
0000
,
1000
0000
0000
0000
,
0010
0000
0010
0000
,
0010
0000
0000
0000
,
0100
0000
0100
0000
,
0100
0000
0000
0000
,
0001
0000
0000
0000
,
1000
0000
0000
0000
,
0010
0000
0010
0000
,
0010
0000
0000
0000
,
1000
0000
1000
0000
,
1000
0000
1000
0000
,
1000
0000
0000
0000
,
1000
0000
0000
0000
,
0001
0000
0001
0000
,
0001
0000
0001
0000
,
0001
0000
0000
0000
,
0001
0000
0000
0000
,
0100
0000
0100
0000
,
0100
0000
0000
0000
,
0010
0000
0010
0000
,
0010
0000
0000
0000
,
1000
0000
0000
0000
,
0001
0000
0000
0000
,
0100
0000
0100
0000
,
0100
0000
0000
0000
,
0010
0000
0000
0010
,
0000
0000
0000
0000
,
0010
0000
0000
0010
,
0000
0000
0000
0000
,
1000
0000
1000
0000
,
1000
0000
0000
0000
,
0001
0000
0001
0000
,
0001
0000
0000
0000
,
0100
0000
0000
0000
,
0010
0000
0000
0000
;

//---------------dance-double - ----------------
#NOTES:
     dance-double:
     :
     Hard:
     13:
     0.709524,0.771458,0.733333,0.677778,0.088889,447.000000,381.000000,66.000000,61.000000,0.000000,0.000000,0.709524,0.771458,0.733333,0.677778,0.088889,447.000000,381.000000,66.000000,61.000000,0.000000,0.000000:
00000000
00000000
00000000
00000000
,
00000000
00000000
00000000
00000000
,
00000000
00000000
00000000
00000000
,
00000000
00000000
00000000
00000000
,
00200000
00000000
00300000
00001000
00020000
00000000
00030000
00010000
,
00000200
00000000
00000300
00000100
00000020
00000000
00000030
00000001
,
00002000
00000000
00003001
00000100
00000010
00000000
00001000
00000100
,
00010000
00001000
00010000
00001000
00100000
00010000
01000000
00100000
,
20100000
00000000
30010000
01000000
00200000
00000000
10300000
01000000
,
00100000
00001000
00010000
00000100
00001000
00000010
00000010
00000100
,
00000102
00000000
00001003
00000010
00000200
00000000
00000301
00000010
,
00000100
00010000
00010000
00001000
00001000
00100000
00010000
01000000
,
02010000
00000000
13000000
01000000
00010000
00100000
00001000
00010000
,
00010200
00000000
00000301
00000100
00001000
00000010
00010000
00001000
,
00021000
00000000
00230000
00000000
10300000
01000000
30100000
00010000
,
10000000
00000000
00000000
00000000
00000000
00100000
01000000
00000000
,
10010000
00000000
10100000
00010000
00000000
00110000
00001000
00000000
,
00011000
00010000
00000000
00000100
00000110
00000000
00001001
00000000
,
00000101
00000100
00000010
00001000
00001000
00000000
00001100
00001000
,
00000100
00010000
00010000
00000000
00010100
00000000
00101000
00000000
,
00011000
00010000
00001000
00000100
00001000
00010000
00001000
00100000
,
00001000
00010000
01000000
00010000
00011000
00000000
10010000
00000000
,
10000000
10100000
00000000
01100000
00000000
00010000
01010000
00000000
,
10000000
00010000
10000000
00010000
10000000
00000000
00000000
00000000
00010000
00000000
00100000
00000000
01000000
00000000
10000000
00000000
,
10200000
00000000
01300000
00010000
01020000
00000000
10030000
01000000
,
12000000
00000000
33100000
00010000
00120000
00000000
10030000
00100000
,
00020000
00000000
00032000
00000000
00003010
00000001
00001000
00000000
,
00000001
00001000
00000010
00000100
00000001
00001000
00000001
00000000
,
00000201
00000000
00000310
00001000
00002010
00000000
00003001
00000010
,
00000021
00000000
00000130
00001000
00002100
00000000
00003001
00000100
,
00002000
00000000
00013000
00020000
00000000
00130000
00200000
00000000
,
10300000
01000000
00100000
01000000
00010000
01000000
10000000
00000000
,
00010000
10000000
00200000
01000000
01300000
00010000
00200000
00001000
,
00301000
00010000
00000200
00000010
00000310
00000001
00001000
00000010
,
00001010
00000000
00000101
00000000
00001000
00000100
00000010
00000000
,
00000001
00001000
00000010
00000100
00000001
00000010
00000100
00000000
,
00001200
00000000
00020300
00000000
00031000
00100000
00010000
00000000
,
00120000
00000000
20030000
00000000
30100000
00010000
00001000
00000000
,
00011000
00001000
00000000
00110000
00100000
00000000
01100000
00000000
,
10010000
00011000
00001001
00000110
,
00001002
00000000
00000000
00000000
00000133
00000000
00000010
00001000
00000020
00000000
00000000
00000000
00001030
00000000
00000100
00010000
,
00000200
00000000
00000000
00000000
00010300
00000000
00001000
00100000
00002000
00000000
00000000
00000000
00103000
00000000
00010000
10000000
,
00020000
00000000
02030000
00000000
03100000
10000000
00010000
00000000
,
10010000
01001000
00011000
01010000
,
20010000
00000000
00000000
00000000
33100000
00000000
01000000
00010000
02000000
00000000
00000000
00000000
03010000
00000000
00100000
00001000
,
00200000
00000000
00000000
00000000
00301000
00000000
00010000
00000100
00020000
00000000
00000000
00000000
00030100
00000000
00001000
00000001
,
00001000
00000000
00001010
00000001
00000000
00000011
00001000
00000000
,
00001001
00000110
00001001
00010100
,
00012000
00000000
00000000
00000000
00103000
00000000
00010000
00100000
00010000
00000000
10000000
00000000
00010000
00000000
10000000
01000000
,
10000000
00000000
00100000
00000000
01000000
00000000
00010000
01000000
00010000
00000000
10000000
00000000
00100000
00000000
01000000
00100000
,
02000000
00000000
03002000
00000000
00013000
00000100
00000010
00000000
,
00000001
00001000
00000010
00000100
00000001
00001000
00000001
00000000
,
00000201
00000000
00000320
00000000
00001030
00000100
00010000
00000000
,
00012000
00000000
00000000
00000000
00203000
00003000
00000000
00000000
00310000
00000000
10000000
00000000
00100000
00000000
00000000
00000000
,
10100000
00100000
00000000
01010000
01000000
00000000
01100000
00000000
,
20000000
00000000
00000000
00000000
00000000
00000000
00010000
00000000
00020000
00000000
00000000
00000000
30030000
30030000
00000000
00000000
,
10000000
01000000
00010000
01000000
20000000
00000000
31000000
00010000
,
00001000
00010000
00002000
00000000
00013000
00001000
00000200
00000000
,
00000301
00000100
00001000
00000100
00000002
00000000
00000103
00001000
,
00010000
00001000
00020000
00000000
00031000
00010000
01000000
00000000
,
11000000
01000000
00100000
00010000
01000000
00000000
01010000
01000000
,
00100000
00010000
00001000
00000000
00011000
00000000
00001001
00000000
,
00000011
00000010
00000100
00001000
00000010
00000000
00001010
00000010
,
00000100
00001000
00010000
00000000
00011000
00000000
10010000
00000000
,
20000000
30020000
00032000
00003002
,
00001003
00000100
00000001
00001000
00000010
00000001
00000100
00001000
,
00010000
00100000
00000000
00000000
00000000
00000000
00000000
00000000
;

//---------------dance-double - ----------------
#NOTES:
     dance-double:
     :
     Medium:
     10:
     0.512698,0.587778,0.666667,0.788889,0.000000,323.000000,263.000000,60.000000,71.000000,0.000000,0.000000,0.512698,0.587778,0.666667,0.788889,0.000000,323.000000,263.000000,60.000000,71.000000,0.000000,0.000000:
00000000
00000000
00000000
00000000
,
00000000
00000000
00000000
00000000
,
00000000
00000000
00000000
00000000
,
00000000
00000000
00000000
00000000
,
00000200
00000300
00020000
00030000
,
00002000
00003000
00200000
00300000
,
00020000
00030000
20000000
30000000
,
00010000
01000000
00010000
00000000
10000000
01000000
10000000
00000000
,
22000000
33000000
01000000
00100000
,
00010000
01000000
00010000
00000000
01000000
00000000
00001000
00000000
,
00022000
00033000
00010000
00000100
,
00001000
00000100
00001000
00000000
00000001
00000000
00000100
00000000
,
00000202
00000303
00000100
00000010
,
00002020
00003030
00001000
00000100
,
00010000
00000000
00010000
00000000
00001000
00010000
00001000
00000000
,
00011000
00000000
00000000
00000000
00000000
00001000
00010000
00000000
,
00011000
00000000
00000000
00101000
00000000
00000000
00011000
00000000
,
00000000
00010010
00000000
00000000
00011000
00000000
00011000
00000000
,
00011000
00000000
00000000
01001000
00000000
00000000
00011000
00000000
,
00000000
00010100
00000000
00000000
00011000
00000000
00011000
00000000
,
00100000
00010000
00000000
00010000
00100000
00000000
00010000
01000000
,
00000000
01000000
00001000
00000000
00011000
00000000
00011000
00000000
,
00010000
00000100
00000000
00000100
00000000
00000010
00000001
00000000
,
00002000
00003002
00000203
00000310
,
00001002
00000000
00000103
00000010
00000200
00000000
00000310
00001000
,
00000020
00000000
00001030
00000100
00002000
00000000
00003100
00010000
,
00000200
00020300
00032000
00203000
,
00310000
10000000
00010000
01000000
,
20010000
00000000
30100000
01000000
00200000
00000000
01300000
00010000
,
02000000
00000000
03010000
00100000
00020000
00000000
00130000
00001000
,
00100000
00000000
00000000
00101000
00000000
00000000
00001000
00000000
,
00020000
00030200
00000320
00000032
,
00001003
00000000
00000001
00000100
00000002
00000000
00001003
00000100
,
00002000
00000000
00003001
00000010
00000001
00000000
00001000
00000010
,
00002000
00003200
00020300
00032000
,
00103000
00010000
10000000
00100000
,
20100000
30020000
01030000
00100000
,
20000000
00000000
31000000
00000000
00100000
00000000
00010000
01000000
,
00002000
00000000
00000000
00023000
00000000
00000000
00030100
00000000
,
00001100
00001100
00000101
00000110
,
00001002
00000000
00000103
00000010
00002000
00000000
00003100
00010000
,
00002000
00000000
00103000
00010000
02000000
00000000
03010000
10000000
,
00200000
02300000
03020000
10030000
,
10010000
01100000
10010000
01100000
,
20010000
00000000
30100000
01000000
00020000
00000000
00130000
00001000
,
00020000
00000000
00030100
00001000
00000020
00000000
00001030
00000001
,
00000100
00000000
00000000
00000010
00000000
00000000
00001000
00000000
,
00001001
00000110
00001001
00000110
,
00001002
00000000
00000103
00000010
00002000
00000000
00003100
00000000
,
00010200
00000000
00010300
00001000
00200000
00000000
00310000
00000000
,
00120000
00000000
20030000
00000000
30100000
01000000
00010000
00000000
,
10000000
02000000
03020000
00032000
,
00013000
00000000
00010000
00000000
00000100
00000010
00000002
00000000
,
00002003
00003020
00000130
00000001
,
00000101
00000000
00000000
00001010
00000000
00000000
00010100
00000000
,
00020000
00000000
00002000
00033000
,
00011000
00000000
00000000
00101000
00000000
00000000
00011000
00000000
,
00000000
00010010
00000000
00000000
00011000
00000000
00011000
00000000
,
00011000
00000000
00000000
01001000
00000000
00000000
00011000
00000000
,
00000000
00010100
00000000
00000000
00011000
00000000
00011000
00000000
,
00100000
00001000
00000000
00001000
00100000
00000000
00001000
00010000
,
00000000
00010000
00000100
00000000
00010100
00000000
00010100
00000000
,
00000010
00010000
00000000
00010000
00000010
00000000
00010000
00001000
,
00000000
00001000
00100000
00000000
00101000
00000000
00101000
00000000
,
00022000
00000000
00000000
00033000
,
00001000
00100000
00001000
00100000
00001000
00100000
00000100
00010000
,
00000100
00010000
00000000
00000000
00000000
00000000
00000000
00000000
;

//---------------dance-double - ----------------
#NOTES:
     dance-double:
     :
     Easy:
     7:
     0.273016,0.330625,0.022222,0.311111,0.000000,172.000000,170.000000,2.000000,28.000000,0.000000,0.000000,0.273016,0.330625,0.022222,0.311111,0.000000,172.000000,170.000000,2.000000,28.000000,0.000000,0.000000:
00000000
00000000
00000000
00000000
,
00000000
00000000
00000000
00000000
,
00000000
00000000
00000000
00000000
,
00000000
00000000
00000000
00000000
,
00010000
00000000
00000000
00000000
,
00001000
00000000
00000000
00000000
,
00100000
00000000
00100000
00000000
,
01000000
00000000
00000000
00000000
,
10000000
00000000
01000000
00000000
,
00100000
00000000
00001000
00000000
,
00010000
00000000
00000100
00000000
,
00000010
00000000
00000001
00000000
,
00001000
00000000
00000010
00000000
,
00000100
00000000
00000100
00000000
,
00000001
00000010
00000100
00001000
,
00000000
00000000
00000000
00000000
,
00000001
00000000
00000000
00000100
00000000
00000000
00001000
00000000
,
00000000
00010000
00000000
00000000
00100000
00000000
00100000
00000000
,
10000000
00000000
00000000
01000000
00000000
00000000
00010000
00000000
,
00000000
00001000
00000000
00000000
00000010
00000000
00000010
00000000
,
00000001
00001000
00000001
00000100
,
00000001
00001000
00000100
00000000
,
00010000
00000000
00000000
00010000
00000000
00000000
00001000
00000000
,
00100000
00100000
01000000
10000000
,
00200000
00300000
02000000
03000000
,
00002000
00003000
00020000
00030000
,
00000100
00000100
00000010
00000001
,
00000000
00001000
00000001
00001000
,
00000020
00000030
00000200
00000300
,
00000002
00000003
00002000
00003000
,
00000100
00000000
00000000
00010000
00000000
00000000
00001000
00000000
,
00100000
00100000
00100000
01000000
,
20000000
30000000
00020000
00030000
,
02000000
03000000
00002000
00003000
,
00010000
00010000
00000100
00000100
,
00000000
00010000
00000100
00000010
,
00000001
00000001
00000000
00001000
,
00000010
00000100
00000001
00000000
,
00000100
00000000
00000000
00000100
00000000
00000000
00000010
00000000
,
00010000
00010000
00001000
00001000
,
00200000
00300000
00020000
00030000
,
20000000
30000000
00200000
00300000
,
10000000
01000000
00100000
00001000
,
00010000
00010000
00000100
00000010
,
00000002
00000003
00000200
00000300
,
00000020
00000030
00002000
00003000
,
00000001
00000000
00000000
00000001
00000000
00000000
00000010
00000000
,
00000100
00000100
00010000
00001000
,
00200000
00300000
00020000
00030000
,
20000000
30000000
00200000
00300000
,
10000000
00010000
01000000
00001000
,
00000000
00010000
00010000
00000100
,
00000010
00000010
00000000
00000001
,
00001000
00000001
00000100
00000000
,
00000001
00000000
00000000
00000100
00000000
00000000
00001000
00000000
,
00020000
00000000
00002000
00033000
,
00010000
00000000
00000000
00010000
00000000
00000000
00001000
00000000
,
00000000
00001000
00000000
00000000
00100000
00000000
00001000
00000000
,
00010000
00000000
00000000
00010000
00000000
00000000
00000010
00000000
,
00000000
00000010
00000000
00000000
00010000
00000000
00001000
00000000
,
00100000
00100000
00010000
00100000
,
00100000
00010000
10000000
00100000
,
01000000
01000000
00010000
01000000
,
01000000
00001000
00010000
00000000
,
00022000
00000000
00000000
00033000
,
00010000
00000000
00000000
00000100
00000000
00000000
00000010
00000000
,
00000000
00001001
00000000
00000000
00000000
00000000
00000000
00000000
;
