#TITLE:Grid Knight;
#SUBTITLE:;
#ARTIST:Saw Wave Squad;
#TITLETRANSLIT:;
#SUBTITLETRANSLIT:;
#ARTISTTRANSLIT:;
#GENRE:;
#CREDIT:;
#MUSIC:Grid Knight.ogg;
#BANNER:STPlatinum.png;
#BACKGROUND:STPlatinum-bg.png;
#CDTITLE:;
#SAMPLESTART:73.851;
#SAMPLELENGTH:12.000;
#SELECTABLE:YES;
#OFFSET:-0.385;
#BPMS:0.000=160.000;
#STOPS:;
#BGCHANGES:;
#FGCHANGES:;

//--------------- dance-single - D0omsday ----------------
#NOTES:
     dance-single:
     D0omsday:
     Medium:
     12:
     0,0,0,0,0:
0000
0000
0000
0000
,
0000
0000
0000
0000
,
0000
0000
0000
0000
,
0000
0000
0000
0000
,
0000
0000
0000
0000
,
1001
0000
0000
0001
0000
0000
0100
0000
0000
0010
1000
0100
,
0010
0000
0000
0100
0000
0000
1000
0010
1000
0100
0010
0001
,
0100
0010
0100
0001
,
0010
0001
0010
0001
0010
0001
1000
0010
1000
0010
1000
0010
,
0200
0000
0000
0000
,
0302
0000
0023
0030
,
0210
0000
2300
0000
,
3002
0000
0000
0000
0203
0000
0320
0030
,
1010
0000
0000
1000
0010
1000
0001
0000
0000
0010
0000
0000
,
0011
0000
0000
0001
0010
0001
0100
0000
0000
0010
0000
0000
,
1010
1000
1100
0100
,
0110
0110
0011
1001
,
1010
0000
0010
0100
0000
0100
0001
0000
0001
1000
0000
1000
,
0200
0000
0000
0010
0000
0000
1300
0000
0010
0000
0100
0000
,
0001
0000
0001
0010
0000
0010
0100
0000
0100
1000
0000
1000
,
0010
0100
0010
0100
0000
0000
0001
1000
0001
1000
0000
1000
,
0001
0000
0001
0010
0000
0010
0001
0000
0001
1000
0000
1000
,
0010
0000
0100
0000
1000
0000
0100
0000
0010
0000
1000
0000
,
0001
0000
0001
1000
0000
1000
0010
0000
0010
0100
0000
0100
,
0001
0010
0001
0010
0000
0000
0100
1000
0100
1000
0000
1000
,
0010
0000
0000
0100
0000
0000
0001
0000
0001
0010
0000
0000
,
0100
0000
0100
1000
0000
0010
0000
0000
0100
0001
0000
0000
,
0010
0000
0010
0100
0000
1000
0000
0000
0000
0001
0000
0000
,
0100
0010
0100
0001
0000
0000
1000
0000
0100
0000
0010
0000
,
0001
0000
0001
1000
0000
0010
0000
0000
0000
0100
0000
0100
,
0010
0000
0010
1000
0000
0000
0001
0000
1000
0100
0000
0000
,
0010
0000
0010
0001
0000
0001
1000
0000
1000
0010
0000
0010
,
0100
0001
0100
0001
0000
0000
1000
0100
1000
0100
0000
0000
,
0010
0000
0010
0001
0000
0100
0000
0000
0100
0010
0000
0010
,
1000
0000
1000
0001
0000
0010
0000
0000
0010
0100
0000
0000
,
1000
0000
1000
0001
0000
0100
0000
0000
0100
0010
0000
0010
,
1000
0001
1000
0001
0000
0010
0100
0010
0100
0010
0000
0010
,
0001
0000
0001
0100
0000
0100
0001
0000
0001
0010
0000
0000
,
0100
0000
0100
1000
0000
0010
0000
0000
0010
0100
0000
0000
,
0001
0100
0001
0100
0000
0000
0010
1000
0010
1000
0000
0000
,
0001
1000
0001
1000
0001
1000
0100
0010
0100
0010
0100
0010
,
0001
0000
0000
0000
,
0000
0000
0000
0000
,
1010
0000
0000
0000
,
0000
0000
0000
0000
,
0110
0000
0000
0000
0000
0000
0001
0100
0001
0100
0001
0100
,
0001
0000
0000
0000
0000
0000
1000
0100
1000
0100
1000
0100
,
1000
0000
0000
0000
0000
0000
0010
1000
0001
0010
0001
1000
,
0010
0100
0010
0100
0010
0100
0002
0000
0000
0000
0000
0000
,
1003
0000
0000
1010
0000
0000
0010
0000
0010
1000
0000
1000
,
0001
0000
0000
0010
0000
0010
0100
0000
0100
1000
0000
1000
,
0001
0100
0001
0100
0000
0000
0001
1000
0001
1000
0000
1000
,
0010
0000
0000
1000
0100
1000
0100
0000
0100
0010
0000
0010
,
0001
0000
0000
1001
0000
1000
0010
0000
0010
0100
0000
0100
,
0001
0010
0001
0010
0000
0100
0000
1000
0001
1000
0001
1000
,
0001
0000
0000
0011
0000
0010
0100
0000
1000
0100
0000
0010
,
0100
1000
0100
1000
0000
0000
0020
0000
0000
0000
0000
0000
,
0130
0000
0000
0101
0000
0000
0001
0000
0001
0010
0000
0010
,
0100
0000
0000
1000
0000
1000
0001
0000
0001
0100
0000
0100
,
0010
1000
0010
1000
0000
0000
0001
0000
0001
0010
0000
0010
,
0100
0000
0000
1000
0001
1000
0001
0000
0001
0100
0000
0100
,
0010
0000
0000
0000
0000
0000
1000
0010
1000
0010
1000
0010
,
1000
0000
0000
0000
0000
0000
0001
0100
0001
0100
0001
0100
,
0001
0000
0000
0000
0000
0000
0010
0001
0100
0010
1000
0100
,
0010
0100
0010
0100
0010
0100
2000
0000
0000
0000
0000
0000
,
3020
0000
0000
0230
,
0302
0000
0000
0000
0000
0023
0000
0000
0000
0130
0000
0000
,
2100
0000
0000
0000
0000
3002
0000
0000
0000
0203
0000
0000
,
0000
0000
0000
0310
,
1010
0000
0000
1000
0001
1000
0001
0000
0000
0010
0000
0000
,
0011
0000
0000
0010
0100
0010
0100
0000
0000
1000
0000
0000
,
1001
0001
0101
0100
,
0000
0010
0000
0010
0000
0010
0000
1000
0000
1000
0000
1000
,
0001
0000
0001
0010
0000
0010
0100
0000
0100
1000
0000
1000
,
0010
0000
0010
1000
0000
1000
0001
0000
0000
0010
0000
0100
,
0010
0000
0010
0001
0000
1000
0000
0000
1000
0010
0000
0000
,
0100
0001
0100
0001
0000
0000
1000
0100
1000
0100
0000
0000
,
0110
0000
0000
0010
0001
1000
0010
0000
0000
0100
0000
0000
,
0101
0000
0000
0001
0100
0010
1000
0010
0100
0001
0010
0100
,
0000
1000
0000
1000
0000
1000
0000
1000
0000
1000
0000
1000
,
0000
0001
0000
0001
0000
0001
0000
0001
0000
0001
0000
0001
,
0200
0000
0000
0000
,
0000
0000
0000
0000
,
0300
0000
0000
0000
;

//--------------- dance-single - D0omsday ----------------
#NOTES:
     dance-single:
     D0omsday:
     Hard:
     15:
     0,0,0,0,0:
0000
0000
0000
0000
,
0000
0000
0000
0000
,
0000
0000
0000
0000
,
0000
0000
0000
0000
,
0000
0000
0000
0000
,
1001
0000
1000
0001
0000
0001
0100
0000
0100
0010
1000
0001
,
0010
0000
0010
0100
0000
0100
1000
0001
0100
0010
1000
0100
,
0010
0000
0010
0001
0000
0001
0100
0000
0100
0010
0000
0010
,
1000
0100
0010
0100
1000
0001
0100
0010
1000
0001
0010
0001
,
0200
0010
0001
0010
,
0302
0000
0000
0010
0000
0000
2003
0000
0010
0000
3001
1000
,
1001
0000
0001
0010
0100
0000
0010
0000
0001
0100
0010
1000
,
0100
0010
0000
0010
0100
0000
1000
0010
0100
0010
1000
0001
,
0011
0000
0000
0010
0001
0100
0010
1000
0100
0010
0000
0000
,
0110
0000
0000
0100
1000
0010
0100
0010
1000
0100
0000
0000
,
1100
0000
1000
0010
0100
0000
0110
0000
0010
0100
0001
0000
,
0010
0100
0010
0001
0100
0010
1000
0001
0010
0001
0100
0010
,
1000
0000
1000
0100
0000
0100
0010
0000
0010
0001
0000
0001
,
0100
0000
0100
1000
0000
1000
0100
0000
0010
1000
0000
1000
,
0100
0000
0100
0010
0000
0010
0100
0000
0100
1000
0000
1000
,
0001
0100
0001
1000
0100
1000
0001
0010
0001
1000
0010
1000
,
0001
0000
0001
0010
0000
0010
0001
0000
0001
0100
0000
0100
,
0010
0000
0010
0001
0000
0001
0010
0000
1000
0001
0000
0001
,
0010
0000
0010
0100
0000
0100
1000
0000
1000
0001
0000
0001
,
0100
0010
0100
0001
0010
0001
1000
0010
1000
0100
0010
0100
,
1000
0000
0001
0100
0000
0001
1000
0000
0001
0010
0000
0001
,
0100
0000
0001
0010
0000
0001
1000
0000
1000
0100
0000
1000
,
0010
0000
1000
0001
0000
1000
0100
0000
1000
0001
0000
1000
,
0010
0100
0001
0010
0100
0010
0001
0100
0010
1000
0100
0010
,
0100
0000
0010
1000
0000
0010
0100
0000
0010
0001
0000
0010
,
0100
0000
0010
1000
0000
0010
0100
0000
0100
1000
0000
0100
,
0010
0000
0100
0001
0000
0100
0010
0000
0100
1000
0000
0100
,
0010
0001
1000
0010
0100
0010
1000
0001
0010
0100
0010
0001
,
1000
0000
0010
1000
0000
0001
1000
0000
0100
1000
0000
0001
,
1000
0000
0010
1000
0000
0100
1000
0000
1000
0001
0000
0010
,
0001
0000
0100
0001
0000
0010
0001
0000
1000
0001
0000
0100
,
0010
1000
0001
0010
0001
0100
0010
1000
0001
0010
0100
1000
,
0010
0100
0010
0100
0010
0100
0010
0100
0010
1000
0010
1000
,
0001
1000
0001
1000
0001
0100
0001
0100
0001
0010
0001
0010
,
0100
0010
0100
0010
0100
0010
0100
0010
0100
0010
0100
0010
,
0100
1000
0001
0100
0010
1000
0100
0010
0100
1000
0001
0100
,
0010
0000
0000
1000
0001
0010
0100
0000
0000
0010
0001
1000
,
0010
0000
0000
1000
0001
0100
0010
0000
0000
1000
0100
0010
,
0110
0000
0000
0100
1000
0001
0100
0000
0000
0010
1000
0010
,
0100
0000
0000
0001
0010
0100
1000
0000
0000
0100
1000
0001
,
0101
0000
0000
0100
0001
0100
0010
1000
0100
0010
0001
0100
,
0110
0000
0000
0010
1000
0010
0100
0001
0010
0100
1000
0010
,
0110
0000
0000
0100
0010
0100
0001
0100
1000
0001
0010
1000
,
0001
0100
0001
0010
0100
1000
0020
0000
0000
0000
0000
0000
,
0130
0010
1000
0001
0000
0000
0100
0001
0010
0100
1000
0001
,
0100
0000
0000
0010
1000
0001
0010
0100
1000
0010
0100
0010
,
1000
0001
0100
0010
0000
0000
1000
0001
0010
0001
0100
0010
,
1000
0000
0000
0001
0010
0001
0100
0010
0100
0001
0010
0100
,
1000
0010
1000
0001
0000
0001
0010
0100
1000
0100
0010
0001
,
0100
0010
1000
0100
0000
0010
0000
0001
1000
0010
0100
0001
,
0010
0001
0100
0010
0000
0010
1000
0100
0010
0001
0100
0010
,
1000
0100
1000
0001
0100
0001
0020
0000
0000
0000
0000
0000
,
0130
1000
0010
0100
0000
0000
0001
0010
0001
1000
0010
0100
,
0001
0000
0000
0010
0100
0010
0001
1000
0010
0100
0010
1000
,
0100
0010
0001
1000
0000
0000
0010
0100
0001
0010
0100
1000
,
0010
0000
0000
0100
0010
1000
0001
0010
0100
1000
0001
0100
,
0010
1000
0010
1000
0010
1000
0001
0010
0100
1000
0010
0100
,
0001
0010
0001
0010
0001
0010
0001
0100
0010
1000
0100
0010
,
0001
1000
0001
1000
0001
1000
0001
0010
1000
0001
0100
1000
,
0001
1000
0001
1000
0010
0100
0002
0000
0000
0000
0000
0000
,
0203
0010
0001
0320
,
2030
0000
0000
0100
0000
3002
0010
0000
1003
0000
0010
0100
,
0110
0000
0010
1000
0001
0010
0100
0000
0010
0001
1000
0001
,
0100
0010
1000
0010
0100
0001
1000
0000
1000
0100
0000
0100
,
1100
0000
1000
0010
0000
0010
0100
0000
0100
0001
0000
0001
,
0011
0000
0010
0001
0000
0001
1000
0000
0010
0100
0000
0100
,
0101
0000
0001
1000
0000
1000
1001
0000
0001
0100
0010
1000
,
0000
1010
0000
1010
0000
1010
0000
1001
0000
1001
0000
1001
,
0011
0000
0010
0100
0000
0100
1000
0000
1000
0010
0000
0010
,
0001
0000
0001
0010
0000
0010
0100
0000
0001
0010
0000
0010
,
0100
0000
0100
0010
0000
0010
1000
0000
1000
0010
0000
0010
,
0001
1000
0001
0010
0100
0010
0001
0100
0001
1000
0010
1000
,
1100
0000
1000
0010
0100
0010
0001
0010
0100
0010
1000
0100
,
0110
0000
0010
0001
0010
0100
0010
1000
0010
0100
0010
0001
,
0000
0011
0000
1001
0000
0101
0000
0110
0000
1010
0000
1100
,
0000
0110
0000
1001
0000
0101
0000
1010
0000
1100
0000
0110
,
2002
0000
0000
0000
,
0000
0000
0000
0000
,
3003
0000
0000
0000
;
