#VERSION:0.83;
#TITLE:グラナダの風;
#SUBTITLE:;
#ARTIST:BEMANI Sound Team "劇団レコード;
#TITLETRANSLIT:Granada no kaze;
#SUBTITLETRANSLIT:;
#ARTISTTRANSLIT:BEMANI Sound Team "Gekidan Record";
#GENRE:SPANISH GUITAR;
#ORIGIN:;
#CREDIT:;
#BANNER:Granada no kaze.png;
#BACKGROUND:Granada no kaze-bg.png;
#PREVIEWVID:;
#JACKET:Granada no kaze-jacket.png;
#CDIMAGE:;
#DISCIMAGE:;
#LYRICSPATH:;
#CDTITLE:;
#MUSIC:Granada no kaze.ogg;
#OFFSET:2.354938;
#SAMPLESTART:60.372009;
#SAMPLELENGTH:14.073000;
#SELECTABLE:YES;
#BPMS:0.000=130.000,
4.000=130.033;
#STOPS:;
#DELAYS:;
#WARPS:;
#TIMESIGNATURES:0.000=4=4;
#TICKCOUNTS:0.000=4;
#COMBOS:0.000=1;
#SPEEDS:0.000=1.000=0.000=0;
#SCROLLS:0.000=1.000;
#FAKES:;
#LABELS:0.000=Song Start;
#BGCHANGES:3.250=Granada no kaze.mp4=1.000=1=0=1===CrossFade==,
99999=-nosongbg-=1.000=0=0=0 // don't automatically add -songbackground-
;
#KEYSOUNDS:;
#ATTACKS:
;

//---------------dance-single - ----------------
#NOTEDATA:;
#CHARTNAME:;
#STEPSTYPE:dance-single;
#DESCRIPTION:;
#CHARTSTYLE:;
#DIFFICULTY:Hard;
#METER:15;
#RADARVALUES:0.708841,0.827905,0.526681,0.304920,1.071841,537.000000,480.000000,57.000000,33.000000,13.000000,0.000000,0.000000,0.000000,0.000000,0.708841,0.827905,0.526681,0.304920,1.071841,537.000000,480.000000,57.000000,33.000000,13.000000,0.000000,0.000000,0.000000,0.000000;
#CREDIT:BlindedVanguard573;
#NOTES:
// measure 0
0000
0000
0000
0000
,  // measure 1
0000
0000
0000
0000
,  // measure 2
0000
0000
0000
0000
,  // measure 3
0000
0000
0000
0000
,  // measure 4
0000
0000
0000
0000
,  // measure 5
0000
0000
0000
0000
,  // measure 6
1100
0000
1000
0001
0000
0000
0101
0000
0001
1000
0000
0010
1000
0000
0001
0000
,  // measure 7
0011
0000
0001
1000
0000
0000
1010
0000
1000
0001
0000
0010
0001
0010
0100
1000
,  // measure 8
0001
0000
0100
0001
0000
0000
1001
0000
0001
0010
0000
0100
1000
0001
1000
0010
,  // measure 9
1000
0000
0001
0010
0000
0001
1000
0000
0001
0100
0000
0010
1000
0010
0100
0001
,  // measure 10
1000
0000
0000
0100
0000
M000
0100
0001
1000
0001
0000
1000
0001
0000
1001
0000
,  // measure 11
0001
0000
0000
0000
0000
0000
0000
0000
0000
0010
0000
0000
0000
0000
0000
000M
0000
0000
0010
0000
0000
1000
0000
0000
0001
0000
0000
0000
0000
0000
1000
0000
0000
0100
0000
0000
0010
0000
0000
0000
0001
0000
0000
0000
1000
0000
0000
0000
,  // measure 12
0001
0000
0100
0010
0000
0100
1000
0000
0100
0001
0100
0010
1000
0010
0100
0001
,  // measure 13
2000
3000
0022
0033
2020
3030
0202
0303
,  // measure 14
1001
0000
0010
0000
0100
0000
1001
0000
0001
0010
0100
1000
0100
0010
0001
1000
,  // measure 15
0001
0000
0000
0100
0000
0000
1000
0000
0000
0100
0000
0000
0001
1000
0001
2000
0000
0000
0000
0000
0000
3001
1000
0001
,  // measure 16
1000
0000
0100
0000
0010
0000
1001
0000
0001
0100
0010
1000
0100
0010
0001
1000
,  // measure 17
0001
0000
0000
1000
0000
0000
1001
0000
0000
0000
0000
0000
0000
0000
0000
0000
,  // measure 18
1001
0000
0001
0100
0000
0001
1000
0000
0100
1000
0000
0001
1000
0000
0001
0000
,  // measure 19
1001
0000
1000
0010
0000
1000
0001
0000
0010
0001
0000
1000
0001
0100
0010
1000
,  // measure 20
0001
0000
1000
0100
0000
0010
0100
0000
1000
0010
0000
0100
0010
0000
1000
0000
,  // measure 21
1001
0000
0001
0010
0000
0100
0010
0000
0001
0100
0010
1000
0001
1000
0100
0010
,  // measure 22
0001
0000
0100
0010
0000
0100
1000
0000
0100
0010
0000
0100
0001
0000
1000
0001
,  // measure 23
1000
0000
0000
0000
0000
0000
0001
0000
0000
0010
0000
0000
0000
0000
0000
0100
0000
0000
0010
0000
0000
0000
0000
0000
1000
0000
0000
0010
0000
0000
0000
0000
0000
0001
0000
0000
1000
0000
0000
0000
0010
0000
0000
0000
0100
0000
0000
0000
,  // measure 24
0001
0000
0010
1000
0000
0001
0100
0000
1000
0010
0100
0001
1000
0100
0010
0001
,  // measure 25
1000
0000
0000
1010
0000
0000
0101
0000
0000
1000
0000
0001
0010
0100
1000
0100
,  // measure 26
0010
0001
0020
0000
1000
0000
0000
0000
0001
0000
0000
0000
0130
0000
0010
0001
,  // measure 27
1000
0000
0000
1010
0000
0000
0101
0000
0001
0000
0000
0011
0000
0000
1100
0000
,  // measure 28
1000
0000
0010
0000
1000
0000
0010
0000
0000
0200
0000
0000
0001
0000
0000
0000
0000
0000
0000
0000
0000
0000
0000
0000
1000
0000
0000
0000
0000
0000
0000
0000
0000
0000
0000
0000
0301
0000
0000
0100
0000
0000
0010
0000
0000
1000
0000
0000
,  // measure 29
0001
0000
0000
0011
0000
0000
1100
0000
2000
0000
3002
0000
0203
0000
0310
1000
,  // measure 30
0001
0010
0000
1000
0000
0001
0000
0100
0000
1000
0000
0010
0000
0100
0000
0001
,  // measure 31
2000
0000
0000
0000
3001
0010
0001
1000
0002
0000
0000
0000
0103
0000
0010
1000
,  // measure 32
0001
0000
0000
1001
0000
0010
0100
0010
0100
0000
0000
1001
0000
0100
0010
0100
,  // measure 33
0010
0000
0000
0011
0000
0000
1100
0000
0220
0000
0330
0000
2002
0000
3003
0000
,  // measure 34
2010
0000
0000
3100
0000
M000
0100
0001
2000
0000
0000
3100
0000
M000
0100
0010
,  // measure 35
1000
0000
0000
1010
0000
0000
0101
0000
0001
0010
0100
1000
0000
1000
0100
0010
,  // measure 36
0001
0000
0000
0201
0000
0000
0310
0000
0M11
0000
0000
2100
0000
0000
3001
0000
,  // measure 37
1010
0000
1000
0010
0000
M010
0001
0000
1000
0010
0100
0001
1000
0001
0010
0100
,  // measure 38
2000
0000
0000
3010
0000
M000
0010
0001
2000
0000
0000
3010
0000
M000
0010
0100
,  // measure 39
1000
0000
0000
1100
0000
0000
0011
0000
0001
0100
0010
1000
0000
1000
0010
0100
,  // measure 40
0001
0000
0000
0021
0000
0000
0130
0000
01M1
0000
0000
2010
0000
0000
3001
0000
,  // measure 41
2002
0000
0000
0000
0000
0000
0000
0000
0000
0000
0000
0000
3003
0000
0000
0000
0000
0000
1000
0000
0000
0001
0000
0000
1000
0000
0000
0000
0001
0000
0000
0000
0100
0000
0000
0000
1000
0000
0000
0000
0001
0000
0000
0000
0010
0000
0000
0000
,  // measure 42
1000
0000
0000
0000
0000
0000
0000
0000
0000
0011
0000
0001
1000
0000
0010
0000
,  // measure 43
1010
0000
0000
0000
0000
0000
0000
0000
0000
1100
0000
1000
0001
0000
0100
0000
,  // measure 44
0101
0000
0000
0000
0000
0000
0000
0000
0000
1001
0000
0001
0010
0000
0100
0000
,  // measure 45
1001
0000
0000
0000
0000
0000
0000
0000
0000
0000
0000
0000
0000
0000
0000
1000
0010
0100
0001
0000
0000
0000
0000
0000
,  // measure 46
1001
0000
0000
1000
0100
M100
0000
0001
0000
1000
0000
0001
0000
0010
0100
1000
,  // measure 47
0001
0000
0000
0100
0100
100M
0000
0001
0000
0100
0000
0020
0000
0000
1030
0000
,  // measure 48
0001
0000
0000
1000
0001
0100
0010
1000
0001
1000
0010
0100
0001
0010
0100
1000
,  // measure 49
0001
0000
0100
0000
0000
0000
1000
0000
0000
0000
0100
0000
0020
0000
0000
0000
0030
0000
1000
0001
1000
0000
0001
0000
0010
0000
0100
0000
1000
0000
0001
0000
,  // measure 50
1000
0010
M010
0001
1000
0001
0000
1000
0001
0100
0010
1000
0100
0010
0001
1000
,  // measure 51
0001
0100
010M
1000
0001
1000
0000
0001
1000
0010
0100
0001
0010
0100
1000
0001
,  // measure 52
1000
0000
0000
0000
0010
0000
0000
0000
0001
0000
0000
0000
1000
0000
0000
0000
0100
0000
0000
0000
0001
0000
0000
0000
1000
0000
0000
0100
0000
0000
0001
0000
0000
1000
0000
0000
0010
0000
0000
0001
0000
0000
1000
0000
0000
0001
0000
0000
,  // measure 53
1000
0000
0000
0000
0010
0000
0000
0000
0001
0000
0000
0000
1000
0000
0000
0000
0100
0000
0000
0000
0001
0000
0000
0000
1000
0000
0000
0100
0000
0000
0001
0000
0000
1000
0000
0000
0010
0000
0000
0001
0000
0000
1000
0000
0000
0001
0000
0000
,  // measure 54
0100
0010
0000
1010
0000
0101
0000
0011
0000
1100
0000
1000
0001
0000
0101
0000
,  // measure 55
1010
0000
0000
1000
0100
0010
0001
0000
0000
0000
0000
0000
2002
0000
0000
0000
0000
0000
0000
0000
0000
0000
0000
0000
,  // measure 56
3003
0000
0000
0000
;

//---------------dance-single - ----------------
#NOTEDATA:;
#CHARTNAME:;
#STEPSTYPE:dance-single;
#DESCRIPTION:;
#CHARTSTYLE:;
#DIFFICULTY:Beginner;
#METER:3;
#RADARVALUES:0.170280,0.205128,0.009240,0.000000,0.000000,129.000000,128.000000,1.000000,0.000000,0.000000,0.000000,0.000000,0.000000,0.000000,0.170280,0.205128,0.009240,0.000000,0.000000,129.000000,128.000000,1.000000,0.000000,0.000000,0.000000,0.000000,0.000000,0.000000;
#CREDIT:BlindedVanguard573;
#NOTES:
// measure 0
0000
0000
0000
0000
,  // measure 1
0000
0000
0000
0000
,  // measure 2
0000
0000
0000
0000
,  // measure 3
0000
0000
0000
0000
,  // measure 4
0000
0000
0000
0000
,  // measure 5
0000
0000
0000
0000
,  // measure 6
1000
1000
1000
0000
,  // measure 7
0010
0010
0010
0000
,  // measure 8
0100
0100
0100
0000
,  // measure 9
0001
0001
0001
0000
,  // measure 10
0010
0010
0010
0000
,  // measure 11
0100
0100
0100
0000
,  // measure 12
1000
1000
1000
0000
,  // measure 13
0001
0001
0001
0001
,  // measure 14
0001
0000
0000
0000
,  // measure 15
0000
0000
1000
0000
,  // measure 16
0001
0000
0000
0000
,  // measure 17
0100
0100
0100
0000
,  // measure 18
0010
0000
1000
0000
,  // measure 19
0001
0001
0001
0000
,  // measure 20
0010
0000
0100
0000
,  // measure 21
1000
1000
1000
0000
,  // measure 22
0001
0000
0100
0000
,  // measure 23
0010
0010
0010
0000
,  // measure 24
1000
0000
0001
0000
,  // measure 25
0010
0010
0010
0000
,  // measure 26
0100
0100
0000
0000
,  // measure 27
1000
0000
0001
0000
,  // measure 28
0010
0010
0000
0000
,  // measure 29
0001
0000
0100
0000
,  // measure 30
0010
0010
0010
0000
,  // measure 31
1000
1000
1000
0000
,  // measure 32
0001
0000
1000
0000
,  // measure 33
0010
0010
0010
0010
,  // measure 34
0010
0000
0100
0000
,  // measure 35
0001
0001
0001
0001
,  // measure 36
0001
0000
0010
0000
,  // measure 37
0100
0100
0100
0100
,  // measure 38
0100
0000
1000
0000
,  // measure 39
0001
0001
0001
0001
,  // measure 40
0001
0000
0100
0000
,  // measure 41
0010
0000
1000
1000
,  // measure 42
1000
0000
0000
0000
,  // measure 43
0001
0000
0000
0000
,  // measure 44
0010
0000
0000
0000
,  // measure 45
0100
0000
0000
0000
,  // measure 46
1000
1000
1000
0000
,  // measure 47
0001
0001
0001
0000
,  // measure 48
0100
0100
0100
0000
,  // measure 49
0010
0010
0010
0000
,  // measure 50
1000
1000
1000
0000
,  // measure 51
0001
0001
0001
0000
,  // measure 52
0010
0010
0010
0000
,  // measure 53
0100
0100
0100
0000
,  // measure 54
1000
1000
1000
1000
,  // measure 55
1000
0000
1001
0000
;

//---------------dance-single - ----------------
#NOTEDATA:;
#CHARTNAME:;
#STEPSTYPE:dance-single;
#DESCRIPTION:;
#CHARTSTYLE:;
#DIFFICULTY:Easy;
#METER:7;
#RADARVALUES:0.273240,0.388080,0.120120,0.203280,0.023100,207.000000,194.000000,13.000000,22.000000,0.000000,0.000000,0.000000,0.000000,0.000000,0.273240,0.388080,0.120120,0.203280,0.023100,207.000000,194.000000,13.000000,22.000000,0.000000,0.000000,0.000000,0.000000,0.000000;
#CREDIT:BlindedVanguard573;
#NOTES:
// measure 0
0000
0000
0000
0000
,  // measure 1
0000
0000
0000
0000
,  // measure 2
0000
0000
0000
0000
,  // measure 3
0000
0000
0000
0000
,  // measure 4
0000
0000
0000
0000
,  // measure 5
0000
0000
0000
0000
,  // measure 6
1000
0010
0100
0001
,  // measure 7
1000
0100
0010
0001
,  // measure 8
1000
0010
0100
1000
,  // measure 9
0100
0001
1000
0001
,  // measure 10
1000
0010
0200
0310
,  // measure 11
1000
0100
0020
0130
,  // measure 12
1000
0010
0001
0010
,  // measure 13
0100
0001
1000
0100
,  // measure 14
0010
0000
0000
0100
0000
0000
0000
0000
,  // measure 15
0000
0000
2002
3003
,  // measure 16
1000
0000
0000
0010
0000
0000
0000
0000
,  // measure 17
1001
0000
0000
1001
0000
0000
0000
0000
,  // measure 18
0001
0010
0100
1000
,  // measure 19
0100
0010
0001
1000
,  // measure 20
0001
0100
0010
1000
,  // measure 21
0010
0100
0001
1000
,  // measure 22
0001
0010
2000
3010
,  // measure 23
0001
0100
2000
3100
,  // measure 24
0001
0010
0100
1000
,  // measure 25
0001
0100
0010
1000
,  // measure 26
0001
0002
0000
0000
0010
0000
1003
0000
,  // measure 27
0001
0100
0010
1000
,  // measure 28
0001
1000
0002
0000
0010
0000
0100
0000
,  // measure 29
2003
0010
0100
3001
,  // measure 30
1000
0010
0100
0001
,  // measure 31
1000
0100
0010
0001
,  // measure 32
1000
0000
0000
1000
0000
0000
0000
0000
0001
0000
0000
0001
0000
0000
0000
0000
,  // measure 33
0100
0000
0000
0100
0000
0000
0100
0000
0010
0000
0000
0000
1001
0000
0000
0000
,  // measure 34
2000
3100
0002
0103
,  // measure 35
2000
0000
3001
0000
0100
0010
0100
0000
,  // measure 36
0002
0013
2000
3010
,  // measure 37
0001
0000
0000
0100
0000
0000
0010
0000
0000
1000
0000
0000
0001
0000
1000
0000
,  // measure 38
0002
0013
2000
3001
,  // measure 39
0200
0000
1300
0000
0001
0100
0010
0000
,  // measure 40
2000
3010
0002
0013
,  // measure 41
0200
0300
1001
0110
,  // measure 42
1001
0000
0000
0000
0000
0000
1000
0010
,  // measure 43
0100
0000
0000
0000
0000
0000
0001
0010
,  // measure 44
0100
0000
0000
0000
0000
0000
1000
0001
,  // measure 45
1000
0000
0000
0000
,  // measure 46
0001
0000
0100
0000
0010
0100
0001
0000
,  // measure 47
1000
0000
0100
0000
0010
0100
1000
0000
,  // measure 48
0001
0000
0100
0000
0010
1000
0001
0000
,  // measure 49
0010
0000
0100
0000
1000
0001
0100
0000
,  // measure 50
0010
0010
0010
0000
1000
0000
0001
0000
,  // measure 51
0100
0100
0100
0000
0010
0000
1000
0000
,  // measure 52
0011
1100
0101
1010
,  // measure 53
1001
0000
0000
0000
,  // measure 54
0001
0000
0010
0000
1000
0010
0001
1000
,  // measure 55
0001
0100
2002
0000
,  // measure 56
3003
0000
0000
0000
;

//---------------dance-single - ----------------
#NOTEDATA:;
#CHARTNAME:;
#STEPSTYPE:dance-single;
#DESCRIPTION:;
#CHARTSTYLE:;
#DIFFICULTY:Medium;
#METER:11;
#RADARVALUES:0.435600,0.543312,0.110880,0.203280,0.438900,330.000000,318.000000,12.000000,22.000000,0.000000,0.000000,0.000000,0.000000,0.000000,0.435600,0.543312,0.110880,0.203280,0.438900,330.000000,318.000000,12.000000,22.000000,0.000000,0.000000,0.000000,0.000000,0.000000;
#CREDIT:BlindedVanguard573;
#NOTES:
// measure 0
0000
0000
0000
0000
,  // measure 1
0000
0000
0000
0000
,  // measure 2
0000
0000
0000
0000
,  // measure 3
0000
0000
0000
0000
,  // measure 4
0000
0000
0000
0000
,  // measure 5
0000
0000
0000
0000
,  // measure 6
1000
0000
0000
0010
0000
0000
0100
0000
0000
0001
0000
0000
1000
0000
0001
0000
,  // measure 7
1000
0000
0000
0100
0000
0000
0010
0000
0000
0001
0000
0000
1000
0000
0001
0000
,  // measure 8
1000
0000
0000
0010
0000
0000
0001
0000
0000
0010
0000
0010
0100
0000
0001
0000
,  // measure 9
1000
0000
0000
0100
0000
0010
0001
0000
0000
1000
0000
1000
0001
0000
0100
0000
,  // measure 10
0010
0000
0000
0010
0000
0000
0100
0000
0002
0000
0000
0000
1003
0000
0001
0000
,  // measure 11
1000
0000
0000
1000
0000
0000
0100
0000
0020
0000
0000
0000
0130
0000
1000
0000
,  // measure 12
0001
0000
0000
0100
0000
0000
1000
0000
0000
0100
0000
0000
0001
0000
1000
0000
,  // measure 13
0001
0011
1000
1010
,  // measure 14
0001
0100
0001
1000
0100
1000
0001
0100
,  // measure 15
1000
0100
0010
0100
0001
2000
0000
3001
,  // measure 16
1000
0100
0010
0100
0001
0100
1000
0001
,  // measure 17
0100
0000
0000
0010
0000
0000
1001
0000
0000
0000
0000
0000
0000
0000
0000
0000
,  // measure 18
1000
0000
0000
0010
0000
0000
0100
0000
0000
0001
0000
0000
0100
0000
0010
0000
,  // measure 19
1000
0000
0000
0100
0000
0000
0010
0000
0000
0001
0000
0000
0010
0000
0100
0000
,  // measure 20
1000
0000
0000
0010
0000
0000
0100
0000
0000
0001
0000
0000
1000
0000
0100
0000
,  // measure 21
0010
0000
0000
0001
0000
0000
0100
0000
0000
0010
0000
0000
1000
0000
0001
0000
,  // measure 22
1000
0000
0000
0100
0000
0000
0001
0000
1000
0000
0000
0010
0000
0000
0001
0000
,  // measure 23
1000
0000
0000
0000
0000
0000
0000
0000
0000
0010
0000
0000
0000
0000
0000
0000
0000
0000
0100
0000
0000
0000
0000
0000
0000
0000
0000
1000
0000
0000
0000
0000
0000
0000
0000
0000
0100
0000
0000
0000
0001
0000
0000
0000
0100
0000
0000
0000
,  // measure 24
0001
0000
0000
0010
0000
0100
0000
1000
0000
0000
0001
0000
0100
0000
0010
0000
,  // measure 25
1000
0000
0000
0001
0000
0000
1001
0000
0000
0000
1000
0000
0100
0000
0010
0000
,  // measure 26
0001
0002
0100
0000
1000
0000
0013
0001
,  // measure 27
1000
0000
0000
0010
0000
0000
0100
0000
0001
0000
0000
1000
0000
0000
0100
0000
,  // measure 28
0010
0200
1000
0000
0001
0000
1300
0100
,  // measure 29
0010
0000
0000
0001
0000
0000
1000
0000
0010
0000
0010
0000
0100
0000
0100
0000
,  // measure 30
0001
0000
0000
1000
0000
0100
0000
1000
0000
0010
0000
1000
0000
0001
0000
0000
,  // measure 31
0020
0000
0130
1000
0002
0000
0103
0010
,  // measure 32
1000
0000
0000
1100
0000
0000
0000
0000
0001
0000
0000
0101
0000
0000
0000
0000
,  // measure 33
1010
0000
0000
1000
0000
0000
0001
0000
0011
0000
0000
0000
1100
0000
0000
0000
,  // measure 34
2000
0000
0000
0010
0000
0000
3001
0000
2000
0000
0000
0100
0000
0000
3001
0000
,  // measure 35
1000
0000
0000
0010
0000
0000
0001
0000
0010
0000
0100
0001
0000
0000
1000
0000
,  // measure 36
0002
0000
0000
0010
0000
0000
1003
0000
0002
0000
0000
0100
0000
0000
1003
0000
,  // measure 37
0001
0000
0000
1000
0000
0000
0110
0000
0000
0010
0000
0010
0100
0000
0001
0000
,  // measure 38
2000
0000
0000
0100
0000
0000
3010
0000
2000
0000
0000
0100
0000
0000
3001
0000
,  // measure 39
1000
0000
0000
0010
0000
0000
0001
0000
0010
0000
0100
0001
0000
0000
0100
0000
,  // measure 40
0002
0000
0000
0010
0000
0000
0103
0000
0002
0000
0000
0010
0000
0000
1003
0000
,  // measure 41
2002
0000
0000
3003
0000
0000
1000
0100
0010
0001
0010
0100
,  // measure 42
1000
0000
0000
0000
0000
0000
0000
0000
0000
0001
0000
0100
0001
0000
0100
0000
,  // measure 43
0010
0000
0000
0000
0000
0000
0000
0000
0000
1000
0000
0100
1000
0000
0100
0000
,  // measure 44
0010
0000
0000
0000
0000
0000
0000
0000
0000
0001
0000
1000
0001
0000
1000
0000
,  // measure 45
0100
0000
0000
0000
0000
1000
0001
0000
,  // measure 46
1000
0000
0000
0000
0010
0100
0000
0001
0000
0100
0000
0010
0000
1000
0001
0000
,  // measure 47
1000
0000
0000
0000
0100
0010
0000
0001
0000
0010
0000
0200
0000
0000
1300
0000
,  // measure 48
0001
0000
0000
0001
1000
0000
0010
0000
0100
0000
0001
0000
1000
0000
0001
0000
,  // measure 49
0010
0000
0000
0100
0000
0000
2000
0000
0000
0000
3001
0000
1000
0000
0001
0000
,  // measure 50
1000
0010
0100
1000
1000
0100
0001
1000
,  // measure 51
0001
0010
0100
0001
0001
0100
1000
0001
,  // measure 52
1000
0000
0100
0000
1000
0000
0001
0000
0100
0000
0001
0000
1000
0000
0000
0100
0000
0000
0001
0000
0000
0100
0000
0000
,  // measure 53
1000
0000
0010
0000
1000
0000
0001
0000
0010
0000
0001
0000
1000
0000
0000
0010
0000
0000
0001
0000
0000
0010
0000
0000
,  // measure 54
1000
0010
0000
0100
0000
0010
0000
1000
0000
0001
0000
0000
0010
0000
0100
0000
,  // measure 55
0020
0130
2002
0000
,  // measure 56
3003
0000
0000
0000
;
