#VERSION:0.83;
#TITLE:Flying Castle;
#SUBTITLE:;
#ARTIST:lapix;
#TITLETRANSLIT:;
#SUBTITLETRANSLIT:;
#ARTISTTRANSLIT:;
#GENRE:;
#ORIGIN:;
#CREDIT:;
#BANNER:Flying Castle.png;
#BACKGROUND:Flying Castle-bg.png;
#PREVIEWVID:;
#JACKET:Flying Castle-jacket.png;
#CDIMAGE:;
#DISCIMAGE:;
#LYRICSPATH:;
#CDTITLE:;
#MUSIC:Flying Castle.ogg;
#OFFSET:0.000000;
#SAMPLESTART:99.309998;
#SAMPLELENGTH:15.000000;
#SELECTABLE:YES;
#BPMS:0.000=174.000;
#STOPS:;
#DELAYS:;
#WARPS:;
#TIMESIGNATURES:0.000=4=4;
#TICKCOUNTS:0.000=4;
#COMBOS:0.000=1;
#SPEEDS:0.000=1.000=0.000=0;
#SCROLLS:0.000=1.000,
52.000=0.000,
52.500=2.000,
53.000=0.000,
53.500=2.000,
54.000=0.000,
54.500=2.000,
55.000=0.000,
55.500=2.000,
56.000=0.000,
56.250=2.000,
56.500=0.000,
56.750=2.000,
57.000=0.000,
57.500=2.000,
58.000=0.000,
58.500=2.000,
59.000=0.000,
59.250=2.000,
59.500=0.000,
59.750=2.000,
60.000=1.000,
164.000=0.000,
164.500=2.000,
165.000=0.000,
165.500=2.000,
166.000=0.000,
166.500=2.000,
167.000=0.000,
167.500=2.000,
168.000=0.000,
168.250=2.000,
168.500=0.000,
168.750=2.000,
169.000=0.000,
169.500=2.000,
170.000=0.000,
170.500=2.000,
171.000=0.000,
171.250=2.000,
171.500=0.000,
171.750=2.000,
172.000=1.000,
276.000=0.000,
276.500=2.000,
277.000=0.000,
277.500=2.000,
278.000=0.000,
278.500=2.000,
279.000=0.000,
279.500=2.000,
280.000=0.000,
280.250=2.000,
280.500=0.000,
280.750=2.000,
281.000=0.000,
281.500=2.000,
282.000=0.000,
282.500=2.000,
283.000=0.000,
283.250=2.000,
283.500=0.000,
283.750=2.000,
284.000=1.000;
#FAKES:;
#LABELS:0.000=Song Start;
#BGCHANGES:0.000=Flying Castle.mp4=1.000=0=0=0=StretchNoLoop====,
99999=-nosongbg-=1.000=0=0=0 // don't automatically add -songbackground-
;
#KEYSOUNDS:;
#ATTACKS:
;

//---------------dance-single - XO+ DS JA XMOD JU+ HS-----------------
#NOTEDATA:;
#CHARTNAME:;
#STEPSTYPE:dance-single;
#DESCRIPTION:XO+ DS JA XMOD JU+ HS-;
#CHARTSTYLE:;
#DIFFICULTY:Challenge;
#METER:18;
#RADARVALUES:0.981824,1.154649,0.422218,0.664602,1.082911,879.000000,825.000000,54.000000,85.000000,0.000000,0.000000,0.000000,0.000000,0.000000,0.981824,1.154649,0.422218,0.664602,1.082911,879.000000,825.000000,54.000000,85.000000,0.000000,0.000000,0.000000,0.000000,0.000000;
#CREDIT:Karlapix with a lapix;
#NOTES:
0000
0000
0000
0000
,
0000
0000
0000
0000
,
0000
0000
0000
0000
,
0000
0000
0000
0000
,
0000
0000
0000
0000
,
0000
0000
0000
0000
,
0000
0000
0000
0000
,
1000
0000
0000
0010
0000
0000
1000
0000
0000
0001
0010
0000
0011
0000
0001
0010
,
0001
0000
0000
0010
0000
0000
0001
0000
0000
1000
0010
0000
1010
0000
1000
0010
,
1000
0000
0000
0100
0000
0000
1000
0000
0000
0001
0100
0000
0120
0000
1030
0000
,
0001
0000
0000
0100
0000
0000
0001
0000
0000
1000
0100
0000
1000
0001
1000
0010
,
2000
0100
0100
0100
3002
0100
0100
0100
,
1003
0000
0000
0010
0000
0000
0100
0000
0000
0010
0000
0000
1000
0000
0000
0001
0000
0000
0010
0000
0000
0001
0000
0000
1000
0000
0010
0000
0100
0000
0001
0000
0000
0000
0000
0000
1000
0000
0100
0000
0010
0000
0001
0000
0000
0000
0000
0000
,
2000
3002
2003
3002
,
0023
0000
0230
0000
0320
0000
0000
0000
0230
0000
0000
0300
0110
0000
0010
0000
,
1002
0000
0000
0000
1003
0100
0010
0000
1000
0010
0000
0100
1000
0000
0001
0000
,
2001
0000
0000
0000
3001
0100
0010
0000
0001
0000
0010
0000
0100
0001
1000
0010
,
2000
0000
0000
0000
3001
0010
0100
0000
0001
0100
0000
0010
0001
0000
1000
0000
,
1002
0000
0000
0000
1003
0010
0100
0000
1000
0000
0100
0000
0010
1000
0001
0000
,
1000
0000
1000
0000
0001
0010
0001
0010
1000
0010
0000
0100
1000
0000
0001
0000
,
0002
0000
1000
0000
1003
0000
0100
0010
1000
0010
0000
0010
0100
0000
1000
0000
,
2000
0000
0001
0000
3001
0000
0100
0010
0100
0000
0001
1000
0100
0000
1000
0001
,
0100
0000
0001
0010
0100
0000
1000
0010
0002
0000
2003
0000
3200
0000
0301
0000
,
2001
0000
0000
0000
3001
0010
1000
0000
0001
1000
0000
0010
0001
0000
0100
0000
,
0102
0000
0000
0000
1003
0010
0001
0000
1000
0000
0001
0000
0010
1000
0001
0100
,
0002
0000
0000
0000
1003
0100
0001
0000
1000
0001
0000
0100
1000
0000
0010
0000
,
2010
0000
0000
0000
3001
0100
0010
0000
0001
0000
1000
0000
0100
0001
1000
0000
,
0001
0000
1000
0001
1000
0100
1000
0100
0002
0000
0103
0000
0010
0000
0010
0000
,
0002
1003
0100
0010
0002
0103
1000
1000
,
0002
0013
0001
0010
2000
3100
0010
0010
,
0001
0100
0001
0000
0010
0000
0001
1000
0100
0000
0010
0000
1000
0000
0010
0000
,
0110
0000
1000
0100
0000
1000
0010
0000
1000
0000
0001
0100
0000
0001
0010
0000
,
0001
0000
1000
0010
0000
1000
0100
0010
0001
1000
0010
1000
0001
0010
0100
1000
,
0010
0000
1000
0001
0000
1000
0100
0000
0010
0000
0001
1000
0000
0001
0100
0001
,
0010
0100
1000
0100
0010
0100
1000
0000
0010
0000
0100
1000
0100
0010
1000
0100
,
1000
0100
0010
0001
1000
0000
0001
0100
0010
1000
0001
1000
0001
0010
0100
1000
,
0010
0000
0100
0001
1000
0100
0010
0100
0010
0001
0100
0001
1000
0100
0010
0001
,
1000
0010
0100
0001
0000
1000
0001
0000
0010
0100
1000
0001
0000
0100
0010
0000
,
1000
0100
0010
0001
1000
0010
0100
0010
0100
0001
0010
0100
0001
0100
0010
0001
,
2000
0000
0000
0000
3020
0000
0000
0000
0230
0000
0000
0000
0301
0000
0000
0001
,
1000
0000
0100
0000
0001
0000
0100
0000
1000
0010
1000
0010
0001
0010
0001
0010
,
2000
3002
2003
3002
,
0203
0000
0320
0000
0230
0000
0000
0000
0320
0000
0000
0030
0110
0000
0010
0000
,
1001
1000
0011
0001
1010
1000
0011
0001
,
1010
1000
0011
0001
1010
1000
0011
0001
,
1010
1001
1100
1000
0101
0001
1100
1000
,
0101
0000
0001
0000
1100
0000
1000
0000
0101
0000
0001
1000
0100
0000
1000
0001
,
0200
0001
0310
0110
1020
0000
0130
2002
,
3000
0000
0013
0000
0110
0000
0010
0100
1000
0100
0010
0000
0002
0000
0203
0000
,
0310
1000
0010
1000
0100
0000
0010
0001
0010
0001
0100
0000
0001
1000
0100
1000
,
0001
0000
0100
0010
1000
0000
0100
0010
0002
0000
0203
0000
0310
0001
0010
0100
,
0020
0000
1000
0001
0000
0000
0001
1000
0000
0000
1000
0001
0000
0000
0031
1000
,
0200
0000
1000
0001
0000
0000
0001
1000
0000
0000
1000
0001
0000
0000
0301
1000
,
0100
0000
0100
0000
1000
0100
0010
0000
0001
0100
0010
0000
1010
0000
0000
0011
,
0000
0000
1001
0000
1100
0000
0101
0000
1001
0000
1000
0100
0002
0000
1003
0010
,
0002
0000
0000
0000
0103
0010
0100
0010
1000
0000
0100
0010
0100
0010
0001
0000
,
0100
0010
0100
0000
0001
0000
1000
0000
0100
0010
0100
0000
0020
0000
0000
0000
,
0031
0010
0001
0010
0100
0000
1000
0010
1000
0010
0100
0000
0001
1000
0010
1000
,
0001
0000
0010
0100
1000
0000
0010
0100
0001
0000
0001
0000
0010
0000
0100
0000
,
2000
0000
0000
0100
0000
0000
3001
0000
0000
0000
0100
0000
0001
0000
0000
0000
,
0002
0000
0000
0100
0000
0000
1003
0000
0000
0000
0100
0000
1000
0000
0000
0000
,
2000
0000
0000
0100
0000
0000
3001
0000
0000
0000
0010
0000
0100
0000
1000
0000
,
1010
0000
0000
0101
0000
0000
1001
0000
0000
0001
1000
0000
0100
0000
0010
0000
,
0110
0000
0000
1100
0000
0000
0011
0000
0001
0100
0010
1000
0100
1000
0001
0000
,
0110
0000
0000
1010
0000
0000
0101
0000
1000
0100
0010
0001
0100
0001
1000
0000
,
0001
0100
0010
1000
0100
0010
0001
0100
0010
1000
0100
0010
0001
0100
0010
1000
,
0010
1000
0100
1000
0001
0010
0001
1000
0010
1000
0001
0100
0001
1000
0001
1000
,
0002
0000
0000
0000
,
1003
0100
0010
0001
1000
0010
0100
0001
1000
0100
0010
0001
0100
0010
0001
0010
,
2000
3200
0302
0203
,
2300
0000
3020
0000
0032
0000
0000
0000
0023
0000
0000
0030
0110
0000
0100
0000
,
0001
0000
1000
0000
0010
0000
1000
0000
0100
1000
0000
0100
0010
0000
0001
0000
,
0100
0001
0000
0100
0010
0000
1000
0000
0100
0000
0010
0001
0100
0010
1000
0000
,
2001
0000
0000
0000
3100
0000
1000
0000
0010
0001
0000
0010
0100
0000
0001
0000
,
0010
1000
0000
0010
0100
0000
1000
0000
0010
0001
0000
0010
0100
0001
1000
0000
,
1002
0000
0000
0000
0013
0000
0001
0000
0100
1000
0000
0100
0010
0000
1000
0000
,
0100
0001
0000
0100
0010
0000
0001
0000
0200
0000
0000
0000
0310
1000
0001
1000
,
0002
0000
0013
0100
0001
0100
0010
0100
0001
0100
0010
0100
0001
0100
0010
0001
,
0100
0010
0100
1000
0100
0010
0100
1000
0100
0010
0100
1000
0100
0010
0100
0001
,
2000
0000
3100
0010
1000
0010
0100
0010
1000
0010
0100
0010
1000
0010
0100
1000
,
0020
0000
0130
0010
0001
0010
0100
0001
2000
0000
3020
0000
0031
0010
1000
0000
,
2001
0000
0000
0000
3010
0000
1000
0000
0100
0001
0000
1000
0010
0001
0100
0000
,
0010
0001
0000
1000
0100
0001
0010
0000
0100
0001
0000
1000
0010
0001
1000
0000
,
1002
0000
0000
0000
0103
0000
0001
0000
0010
1000
0000
0001
0100
1000
0010
0000
,
0002
0000
1003
0000
0100
0001
0010
0000
0120
0000
0000
0000
0031
0100
0001
0100
,
0002
0000
1003
0010
0001
0010
1000
0010
0001
0010
1000
0010
0001
0010
1000
0100
,
0010
0001
0010
1000
0010
0001
0010
1000
0010
0001
0010
1000
0010
0001
0010
0100
,
2000
0000
3001
0100
1000
0100
0001
0100
1000
0100
0001
0100
1000
0100
0001
0010
,
0200
0000
1300
0100
0001
0100
1000
0010
0002
0000
2003
0000
3200
0000
0310
0000
,
0220
0000
0330
0000
;

//---------------dance-single - XO+ DS JA+ XMOD JU----------------
#NOTEDATA:;
#CHARTNAME:;
#STEPSTYPE:dance-single;
#DESCRIPTION:XO+ DS JA+ XMOD JU;
#CHARTSTYLE:;
#DIFFICULTY:Hard;
#METER:16;
#RADARVALUES:0.796406,0.874734,0.242384,0.328392,0.617689,713.000000,682.000000,31.000000,42.000000,0.000000,0.000000,0.000000,0.000000,0.000000,0.796406,0.874734,0.242384,0.328392,0.617689,713.000000,682.000000,31.000000,42.000000,0.000000,0.000000,0.000000,0.000000,0.000000;
#CREDIT:Karl with a K;
#NOTES:
0000
0000
0000
0000
,
0000
0000
0000
0000
,
0000
0000
0000
0000
,
0000
0000
0000
0000
,
0000
0000
0000
0000
,
0000
0000
0000
0000
,
0000
0000
0000
0000
,
1000
0000
0000
0100
0000
0000
0010
0000
0000
0000
0100
0000
0010
0000
0001
0100
,
0001
0000
0000
0100
0000
0000
0010
0000
0000
0000
0100
0000
0010
0000
1000
0100
,
1000
0000
0000
0100
0000
0000
0010
0000
0000
0000
0100
0000
1000
0000
0010
0000
,
1000
0000
0000
0001
0000
0000
0010
0000
0000
0000
0001
0000
0100
0000
0001
0100
,
0002
0010
2003
0010
,
3002
0000
0000
0000
0023
0000
0000
0000
0031
0000
0010
0000
0100
1000
0100
1000
,
0001
0001
0001
0001
,
1000
0001
1000
0000
0001
0000
1000
0000
,
1002
0000
0000
0000
1003
0000
0010
0000
1000
0100
0000
1000
0100
0000
0010
0000
,
0012
0000
0000
0000
0013
0000
0100
0000
1000
0000
0010
0000
1000
0010
0100
0001
,
2000
0000
0000
0000
3010
0000
0100
0000
0001
0010
0000
0001
0010
0000
0100
0000
,
2100
0000
0000
0000
3100
0000
0010
0000
0001
0000
0100
0000
0001
1000
0010
0000
,
1000
0000
0100
0000
0010
0000
0001
0000
1000
0010
0000
1000
0010
0000
1000
0000
,
0001
0000
1000
0000
0001
0000
1000
0000
0001
0010
0000
0001
0010
0000
0001
0000
,
1000
0000
0001
0000
1000
0000
0001
0000
1000
0100
0000
0100
0010
0000
0000
0010
,
0001
0000
0000
0001
1000
0000
0000
1000
0010
0000
0001
0000
0010
0000
1000
0000
,
2001
0000
0000
0000
3001
0000
0100
0000
0001
0010
0000
0010
0100
0000
1000
0000
,
2010
0000
0000
0000
3100
0000
0010
0000
0001
0000
0100
0000
0001
0100
0010
1000
,
0002
0000
0000
0000
0103
0000
0010
0000
1000
0100
0000
0100
0010
0000
0001
0000
,
0102
0000
0000
0000
0013
0000
0100
0000
1000
0000
0010
0000
1000
0001
0100
0000
,
0001
0000
0010
0100
0010
0100
0010
0000
1000
0000
0010
0000
0100
0000
1000
0000
,
0001
0100
0010
0100
1000
0100
0010
1000
,
0001
0010
0100
0010
1000
0010
0100
0010
,
0001
0100
0001
0000
0010
0000
1000
0000
0001
0000
0100
0000
1000
0000
0001
0000
,
1000
0000
0001
0100
0000
0001
1000
0000
0001
0000
1000
0001
0000
0100
0001
0000
,
0010
0000
0001
1000
0000
0001
0100
0000
0010
0100
0010
0000
1000
0100
0010
0001
,
0010
0000
0001
1000
0000
0001
0100
0000
0010
0000
1000
0001
0000
1000
0100
0010
,
0001
0000
0100
0000
1000
0000
0100
0000
0001
0000
0010
0100
0010
0000
0001
0000
,
1000
0000
0100
0010
0100
0000
0001
0000
0100
0010
0100
0000
1000
0010
1000
0000
,
0010
0000
1000
0100
0000
1000
0001
0000
0010
0001
0100
0000
0010
1000
0100
0000
,
1000
0000
0001
0100
0000
0001
0010
0000
0001
0000
1000
0100
0000
1000
0010
0000
,
1000
0010
1000
0000
0001
0010
0001
0000
1000
0100
1000
0000
0001
0100
0001
0000
,
2000
0010
3002
0010
,
2003
0000
0000
0000
3020
0000
0000
0000
1030
0000
0010
0000
0100
0001
0100
0001
,
1000
1000
1000
1000
,
0001
1000
0001
0000
1000
0000
0001
0000
,
1001
0000
1000
1000
0100
0100
0010
0010
,
0100
0100
0001
0001
0100
0100
0010
0010
,
0100
1000
1100
1000
0010
0010
0100
0100
,
0010
0000
0010
0000
0001
0000
0001
0000
0010
0000
0010
0100
0001
0000
1000
0100
,
1000
0100
0100
0100
0200
0000
0310
0020
,
0000
0000
0031
0000
0001
0000
0001
0100
0010
0100
0001
0000
2000
0000
0000
0000
,
3001
0000
0100
0010
1000
0000
0100
0010
0001
0010
0100
0000
1000
0001
1000
0000
,
0001
0000
0010
0100
0010
0000
0100
1000
0100
0000
1000
0000
0001
1000
0001
1000
,
0001
0001
0100
0100
1000
1000
0100
0100
,
0001
0001
0100
0100
1000
1000
0100
0100
,
0001
0000
0001
0000
0001
0010
0001
0000
0100
0010
0100
0000
0010
0000
0000
0110
,
0000
0000
0110
0000
1001
0000
1000
0000
0100
0000
0010
0001
0100
0000
0001
0100
,
0020
0000
0000
0000
1030
0001
1000
0001
1000
0000
0100
0010
0000
0100
0010
0000
,
0001
1000
0001
0000
1000
0000
0010
0000
0020
0000
0000
0000
0230
0000
0000
0000
,
0301
0000
0001
0000
1000
0000
0010
0100
0001
0100
0010
0000
1000
0001
1000
0000
,
0001
0000
0010
0100
0010
0000
0100
1000
0100
0000
1000
0000
0100
0000
1000
0000
,
0010
0000
0000
0100
0000
0000
0010
0000
0000
0000
0100
0000
0001
0000
0000
0000
,
0010
0000
0000
0100
0000
0000
0010
0000
0000
0000
0100
0000
1000
0000
0000
0000
,
0001
0000
0000
0100
0000
0000
0001
0000
0000
0000
1000
0000
0100
0000
0010
0000
,
0011
0000
0000
1100
0000
0000
1001
0000
0000
0000
0001
0000
0100
0000
0010
0000
,
1010
0000
0000
0101
0000
0000
1010
0000
0010
0000
0001
0000
1000
0000
0100
0000
,
0110
0000
0000
1001
0000
0000
1100
0000
0100
0000
0001
0000
1000
0000
0010
0000
,
0100
0010
0000
0001
1000
0000
0001
0100
0000
0001
1000
0000
0010
0100
0010
0000
,
1000
0100
0000
0010
0100
0000
1000
0100
0000
0000
1000
0010
0100
0010
0100
0000
,
0002
0000
0000
0000
,
2003
3002
0023
0230
,
1300
0001
1000
0001
,
0100
0010
0100
0000
0010
0000
0110
0000
,
1000
0100
0010
0001
1000
0010
0001
0010
,
1000
0100
0001
1000
0010
0001
0100
0001
,
1002
0000
0000
0000
1003
0000
0100
0000
0010
0001
0000
0010
0001
0000
0010
0000
,
0001
0100
0000
0001
0100
0000
0010
0000
1000
0010
0000
1000
0010
0000
0100
0000
,
0210
0000
0000
0000
0301
0000
0100
0000
0010
1000
0000
0010
1000
0000
0010
0000
,
1000
0100
0000
1000
0100
0000
0010
0000
0001
0000
0100
0000
0001
0010
0100
0000
,
0210
0000
0000
0000
1300
0100
0010
0000
0001
0010
0100
0000
1000
0100
0010
0000
,
0001
0100
0010
0000
1000
0010
0100
0000
0001
0100
0010
0000
1000
0010
0100
0000
,
0102
0000
1003
0000
0001
0010
0100
0000
1000
0010
0100
0000
0001
0010
0100
0000
,
2000
0000
0000
0000
3001
1000
0001
0000
1000
0000
0010
0000
0100
0000
0001
0000
,
1002
0000
0000
0000
1003
0000
0010
0000
0100
1000
0000
0100
0010
1000
0001
0000
,
0010
1000
0000
0010
0100
1000
0001
0000
0100
1000
0000
0100
0001
1000
0010
0000
,
0210
0000
0000
0000
0301
0000
0010
0000
0100
0001
0000
0100
1000
0001
0100
0000
,
0120
0000
1030
0000
0010
1000
0010
0000
1000
0000
0100
0000
0001
0100
1000
0000
,
1002
0000
0000
0000
1003
0010
0100
0000
1000
0100
0010
0000
1000
0010
0100
0000
,
0001
0010
0100
0000
0001
0100
0010
0000
0001
0010
0100
0000
0001
0100
0010
0000
,
0012
0000
1003
0000
0001
0100
0010
0000
0001
1000
0100
0000
0001
0010
0100
0000
,
0002
0000
0000
0000
2003
0000
0000
3010
0100
0020
0000
0000
0031
0000
0100
0000
,
2002
0000
3003
0000
;

//---------------dance-single - JA XMOD JU-----------------
#NOTEDATA:;
#CHARTNAME:;
#STEPSTYPE:dance-single;
#DESCRIPTION:JA XMOD JU-;
#CHARTSTYLE:;
#DIFFICULTY:Medium;
#METER:13;
#RADARVALUES:0.536150,0.629809,0.179834,0.437856,0.109464,480.000000,457.000000,23.000000,56.000000,0.000000,0.000000,0.000000,0.000000,0.000000,0.536150,0.629809,0.179834,0.437856,0.109464,480.000000,457.000000,23.000000,56.000000,0.000000,0.000000,0.000000,0.000000,0.000000;
#CREDIT:Karl with a K;
#NOTES:
// measure 0
0000
0000
0000
0000
,  // measure 1
0000
0000
0000
0000
,  // measure 2
0000
0000
0000
0000
,  // measure 3
0000
0000
0000
0000
,  // measure 4
0000
0000
0000
0000
,  // measure 5
0000
0000
0000
0000
,  // measure 6
0000
0000
0000
0000
,  // measure 7
0001
0000
0000
0100
0000
0000
0010
0000
0000
0000
0100
0000
0010
0000
0000
0000
,  // measure 8
1000
0000
0000
0100
0000
0000
0010
0000
0000
0000
0100
0000
0010
0000
0000
0000
,  // measure 9
0001
0000
0000
0100
0000
0000
0001
0000
0000
0000
0100
0000
0010
0000
0000
0000
,  // measure 10
1000
0000
0000
0100
0000
0000
0010
0000
0000
0000
0100
0000
1000
0000
0000
0000
,  // measure 11
0002
0000
2003
0000
,  // measure 12
3200
0320
0032
0203
,  // measure 13
0302
0000
0000
0000
,  // measure 14
2003
0000
0000
3000
,  // measure 15
1001
0000
1000
0001
0010
0000
0100
0100
,  // measure 16
1000
0000
0001
1000
0010
0000
0100
0010
,  // measure 17
1000
0000
0001
1000
0100
0000
0010
0010
,  // measure 18
0001
0000
1000
0001
0100
0000
0010
0100
,  // measure 19
0001
0000
0001
0000
2000
0000
3100
1000
,  // measure 20
0200
0000
0310
0100
0020
0000
0031
1000
,  // measure 21
0002
0000
0103
0010
1000
0000
1000
0000
,  // measure 22
1000
0000
0001
0000
0010
0100
1000
0001
,  // measure 23
1001
0000
1000
0001
0100
0000
0010
0010
,  // measure 24
1000
0000
0001
1000
0100
0000
0010
0100
,  // measure 25
1000
0000
0001
1000
0010
0000
0100
0100
,  // measure 26
0001
0000
1000
0001
0010
0000
0100
0010
,  // measure 27
0001
0000
0001
0000
2000
0000
3010
1000
,  // measure 28
0020
0000
0130
0010
0200
0000
0301
1000
,  // measure 29
0002
0000
0013
0100
2000
0000
3001
1000
,  // measure 30
0001
0100
0010
1000
0001
0010
0011
0000
,  // measure 31
1100
0000
0000
0100
0000
0000
1000
0000
0001
0000
0000
0100
0000
0000
0001
0000
,  // measure 32
0010
0000
0000
0100
0000
0000
0010
0000
0001
0000
0100
0000
0010
0000
1000
0000
,  // measure 33
0001
0000
0000
0100
0000
0000
0001
0000
1000
0000
0000
0100
0000
0000
1000
0000
,  // measure 34
0010
0100
0010
1000
0100
0010
0001
1000
,  // measure 35
0001
0100
0010
1000
0100
0010
0001
0100
,  // measure 36
0010
0100
0001
1000
0010
1000
0100
0010
,  // measure 37
0001
0000
0000
0100
0000
0000
0001
0000
0010
0000
0000
0100
0000
0000
0010
0000
,  // measure 38
0001
0010
0100
1000
0001
0100
0010
1000
,  // measure 39
0002
0000
2003
0000
,  // measure 40
3020
0230
0302
0023
,  // measure 41
0032
0000
0000
0000
,  // measure 42
2003
0000
0000
3000
,  // measure 43
1001
1100
0011
1100
,  // measure 44
1001
0101
1010
0101
,  // measure 45
0001
0010
0100
0000
0110
0000
1001
0000
,  // measure 46
0011
0000
1100
0000
1020
0000
0130
0001
,  // measure 47
1000
0100
1000
0100
2000
0000
3001
0200
,  // measure 48
0000
0301
0100
0001
1000
0100
2000
0000
,  // measure 49
3001
0100
0001
1000
0100
1000
0001
0100
,  // measure 50
0001
1000
0100
1000
0010
1000
0001
0001
,  // measure 51
1000
0100
0010
0100
1000
0100
0010
0100
,  // measure 52
1000
0010
0100
0010
1000
0010
0100
0010
,  // measure 53
1000
0000
1000
0000
0001
0000
0001
0000
0010
0000
0010
0000
0100
0000
0000
0100
,  // measure 54
0000
0100
0010
0001
0100
0010
0100
0001
,  // measure 55
2000
0000
0000
0000
3010
0000
0010
0000
1000
0000
0000
0001
0000
0000
0010
0000
,  // measure 56
0010
0001
0001
1000
1000
0010
2000
0000
,  // measure 57
3001
0010
0001
1000
0010
1000
0001
0010
,  // measure 58
0001
1000
0010
1000
0002
0000
0000
0000
,  // measure 59
2003
0000
3200
0000
,  // measure 60
0320
0000
0032
0000
,  // measure 61
0203
0000
0320
0000
,  // measure 62
1030
0000
0000
0001
0000
0000
1000
0000
0000
0000
0100
0000
0010
0000
0001
0000
,  // measure 63
1000
0000
0000
0100
0000
0000
0010
0000
0001
0000
1000
0000
0001
0000
1000
0000
,  // measure 64
0001
0000
0000
0100
0000
0000
0010
0000
1000
0000
0001
0000
1000
0000
0001
0000
,  // measure 65
1000
0000
0000
0100
0000
0000
0010
0000
0000
0001
0000
0000
1000
0000
1000
0000
,  // measure 66
0001
0000
0000
0100
0000
0000
0010
0000
0000
0000
1000
0000
0001
0000
1000
0000
,  // measure 67
0002
0000
0000
0000
,  // measure 68
0023
0230
2300
3020
,  // measure 69
2030
0000
0000
0000
,  // measure 70
3002
0000
0000
0003
,  // measure 71
1000
0010
1000
0010
,  // measure 72
1000
0000
0100
0000
0010
0001
0010
0001
,  // measure 73
1001
0000
0000
0000
0001
0000
0010
0000
0100
0000
0000
1000
0000
0000
0001
0000
,  // measure 74
0010
0000
0000
0001
0000
0000
1000
0000
0010
0000
0000
0100
0000
0000
0001
0000
,  // measure 75
1001
0000
0000
0000
0001
0000
0100
0000
0010
0000
0000
1000
0000
0000
0001
0000
,  // measure 76
0100
0000
0000
0001
0000
0000
1000
0000
0200
0000
0000
0000
0310
0000
0001
0000
,  // measure 77
1000
0010
0100
0010
1000
0010
0100
0010
,  // measure 78
1000
0100
0010
0100
1000
0100
0010
0100
,  // measure 79
2000
0000
3010
0100
0001
0100
0010
0100
,  // measure 80
0002
0000
0023
0000
0130
0010
0001
1000
,  // measure 81
1001
0000
0000
0000
0001
0000
0100
0000
0010
0000
0000
1000
0001
0000
0001
0000
,  // measure 82
0100
0000
0000
0001
1000
0000
1000
0000
0100
0000
0000
0010
0001
0000
1000
0000
,  // measure 83
1001
0000
0000
0000
0001
0000
0010
0000
0100
0000
0000
1000
0001
0000
1000
0000
,  // measure 84
2001
0000
3100
1000
0020
0000
0130
0001
,  // measure 85
1000
0010
1000
0100
1000
0010
1000
0100
,  // measure 86
1000
0001
0010
0001
0100
0001
0010
0001
,  // measure 87
2000
0000
3100
1000
0010
0100
0001
0010
,  // measure 88
0002
0000
0203
0000
0310
0100
0001
0010
,  // measure 89
2002
0000
3003
0000
;

//---------------dance-single - ----------------
#NOTEDATA:;
#CHARTNAME:;
#STEPSTYPE:dance-single;
#DESCRIPTION:;
#CHARTSTYLE:;
#DIFFICULTY:Easy;
#METER:9;
#RADARVALUES:0.301584,0.384883,0.086007,0.281479,0.000000,270.000000,259.000000,11.000000,36.000000,0.000000,0.000000,0.000000,0.000000,0.000000,0.301584,0.384883,0.086007,0.281479,0.000000,270.000000,259.000000,11.000000,36.000000,0.000000,0.000000,0.000000,0.000000,0.000000;
#CREDIT:Karl with a K;
#NOTES:
0000
0000
0000
0000
,
0000
0000
0000
0000
,
0000
0000
0000
0000
,
0000
0000
0000
0000
,
0000
0000
0000
0000
,
0000
0000
0000
0000
,
0000
0000
0000
0000
,
1000
0000
0010
0000
,
0100
0000
0001
0000
,
1000
0000
0100
0000
,
0010
0000
0001
0000
,
2000
3000
0002
0003
,
1000
0001
1000
0001
,
2000
0000
0000
0000
,
0000
0000
0000
3000
,
0001
0100
0010
0010
,
1000
0100
0010
0010
,
0001
1000
0010
0100
,
0001
0010
0100
0000
,
1000
0000
0002
0000
,
2003
0000
3002
0000
,
0203
0000
0320
1000
,
2030
3200
0320
0032
,
1003
0100
0010
0010
,
0001
0100
0010
0010
,
1000
0001
0010
0100
,
1000
0010
0100
0000
,
0001
0000
2000
0000
,
3002
0000
2003
0000
,
3200
0000
0320
0000
,
0031
0100
0010
1001
,
1000
0100
0010
0100
,
1000
0010
0100
0010
,
1000
0001
0010
0100
,
0010
0001
0100
0010
,
1000
0001
0100
0010
,
1000
0001
0010
0100
,
1000
0001
0010
0001
,
1000
0001
0100
0001
,
2000
3000
0002
0003
,
1000
0001
1000
0001
,
2000
0000
0000
0000
,
0000
0000
0000
3000
,
0001
0001
0001
0001
,
1000
1000
1000
1000
,
0001
0001
0001
0001
,
1000
1000
1000
0000
,
1000
0100
0020
0030
,
0002
0003
0200
0310
,
1000
0001
1000
0001
,
0010
0100
1000
1000
,
0001
0001
1000
1000
,
0001
0001
1000
1000
,
0001
1000
0001
1000
,
1000
0100
0100
0010
,
0010
0001
0010
0001
,
0100
0010
0100
0010
,
1000
0100
0010
0001
,
0100
0010
2000
0000
,
3002
0000
0000
0000
,
0023
0000
0000
0000
,
0230
0000
0000
0000
,
1300
0000
0001
0000
,
1001
0000
1000
0001
,
0110
0000
0010
0100
,
1001
0000
0001
1000
,
0110
0000
0100
0010
,
2002
0000
0000
0000
,
0000
0000
0000
3003
,
0020
0000
0000
0030
,
0200
0000
0000
0300
,
0220
0000
0000
0000
,
0000
0000
0330
1001
,
1001
1000
0010
0100
,
0001
0010
0100
1000
,
1001
0001
0010
0100
,
1000
0010
0100
0001
,
1000
0010
0010
0010
,
1000
0100
0100
1000
,
0001
0010
0010
0010
,
0001
0100
0002
0100
,
1003
0000
0100
0000
0010
0100
0010
0000
,
0001
0000
0010
0000
0100
0010
0100
0000
,
1000
0000
0010
0000
0100
0010
0100
0000
,
0001
0000
0100
0000
0010
0100
0010
0000
,
1000
0000
0010
0000
0010
0100
0010
0000
,
1000
0000
0100
0000
1000
0010
1000
0000
,
0001
0000
0010
0000
0010
0100
0010
0000
,
0001
0010
0100
1000
,
2002
0000
3003
0000
;

//---------------dance-single - ----------------
#NOTEDATA:;
#CHARTNAME:;
#STEPSTYPE:dance-single;
#DESCRIPTION:;
#CHARTSTYLE:;
#DIFFICULTY:Beginner;
#METER:4;
#RADARVALUES:0.165313,0.278351,0.062551,0.070370,0.000000,148.000000,140.000000,8.000000,9.000000,0.000000,0.000000,0.000000,0.000000,0.000000,0.165313,0.278351,0.062551,0.070370,0.000000,148.000000,140.000000,8.000000,9.000000,0.000000,0.000000,0.000000,0.000000,0.000000;
#CREDIT:Karl with a K;
#NOTES:
0000
0000
0000
0000
,
0000
0000
0000
0000
,
0000
0000
0000
0000
,
0000
0000
0000
0000
,
0000
0000
0000
0000
,
0000
0000
0000
0000
,
0000
0000
0000
0000
,
1000
0000
0000
0000
,
0100
0000
0000
0000
,
0010
0000
0000
0000
,
0001
0000
0000
0000
,
2000
0000
0000
0000
,
0000
0000
0000
0000
,
3000
0000
0000
0000
,
0000
0000
0000
0000
,
0001
0000
0001
0000
,
1000
0000
1000
0000
,
0001
0000
0001
0000
,
1000
0000
1000
0000
,
0100
0000
0010
0000
,
0100
0000
0010
0000
,
0100
0000
0010
0000
,
0100
0000
0010
0000
,
0001
0000
0001
0000
,
1000
0000
1000
0000
,
0001
0000
0001
0000
,
1000
0000
1000
0000
,
0010
0000
0100
0000
,
0010
0000
0100
0000
,
0010
0000
0100
0000
,
0010
0000
0100
0000
,
0001
0000
0001
0000
,
0010
0000
0010
0000
,
0100
0000
0100
0000
,
1000
0000
1000
0000
,
0001
0000
0001
0000
,
0100
0000
0100
0000
,
0010
0000
0010
0000
,
1000
0000
1000
0000
,
0002
0000
0000
0000
,
0000
0000
0000
0000
,
0003
0000
0000
0000
,
0000
0000
0000
0000
,
1000
0000
1000
0000
,
1000
0000
1000
0000
,
1000
1000
1000
0000
,
1000
0000
1000
0000
,
2000
0000
0000
0000
,
0000
0000
0000
3000
,
1000
0000
0100
0000
,
0010
0000
0001
0000
,
0001
0000
0001
0000
,
0001
0000
0001
0000
,
0001
0001
0001
0001
,
0000
0001
0000
0000
,
0002
0000
0000
0000
,
0000
0000
0000
0003
,
0001
0000
0100
0000
,
0010
0000
1000
0000
,
1001
0000
0000
0000
,
0000
0000
0000
0000
,
0000
0000
0000
0000
,
0110
0000
0000
0000
,
1001
0000
0000
0000
,
0110
0000
0000
0000
,
1001
0000
0000
0000
,
0110
0000
0000
0000
,
2002
0000
0000
0000
,
0000
0000
0000
0000
,
3003
0000
0000
0000
,
0000
0000
0000
0000
,
0002
0000
0003
0000
,
2000
0000
3000
0000
,
0001
0001
0001
0000
,
1000
1000
1000
0000
,
0001
0001
0001
0000
,
1000
1000
1000
0000
,
0100
0100
0100
0000
,
0010
0010
0010
0000
,
0100
0100
0100
0000
,
0010
0010
0010
0000
,
0001
0100
0001
0000
,
1000
0010
1000
0000
,
0001
0010
0001
0000
,
1000
0100
1000
0000
,
1000
0001
1000
0001
,
1000
0001
1000
0000
,
0010
0100
0010
0100
,
0020
0000
0030
0000
,
1001
0000
0000
0000
;

//---------------dance-single - WTMDJWTM+++++++++++++++----------------
#NOTEDATA:;
#CHARTNAME:rejected by Demonic Holds;
#STEPSTYPE:dance-single;
#DESCRIPTION:WTMDJWTM+++++++++++++++;
#CHARTSTYLE:;
#DIFFICULTY:Edit;
#METER:15;
#RADARVALUES:1.201869,2.169341,1.243198,0.688059,1.243198,1076.000000,873.000000,159.000000,88.000000,19.000000,50.000000,0.000000,0.000000,0.000000,1.201869,2.169341,1.243198,0.688059,1.243198,1076.000000,873.000000,159.000000,88.000000,19.000000,50.000000,0.000000,0.000000,0.000000;
#CREDIT:Hammer Lunchroom;
#NOTES:
0000
0000
0000
0000
,
0000
0000
0000
0000
,
0000
0000
0000
0000
,
0000
0000
0000
0000
,
0000
0000
0000
0000
,
0000
0000
0000
0000
,
0000
0000
0000
0000
,
0001
0000
0000
0100
0000
0000
0001
0000
0000
1000
0100
0000
1100
0000
1000
0100
,
1000
0000
0000
0100
0000
0000
1000
0000
0000
0001
0100
0000
0101
0000
0001
0100
,
0001
0000
0000
0010
0000
0000
0001
0000
0000
1000
0010
0000
0210
0000
0301
0000
,
1000
0000
0000
0010
0000
0000
1000
0000
0000
0001
0010
0000
0001
1000
0001
0100
,
0002
0010
0010
0010
2003
0010
0010
0010
,
3001
0000
0000
0100
0000
0000
0010
0000
0000
0100
0000
0000
0001
0000
0000
1000
0000
0000
0100
0000
0000
1000
0000
0000
0001
0000
0010
0000
0100
0000
1000
0000
0010
0000
0100
0000
0001
0000
0100
0000
0010
0000
1000
0000
0100
0000
0010
0000
,
0002
0000
0000
0003
MMM2
0000
0000
0003
MMM2
0000
0000
0003
MMM2
0000
0000
0003
,
0200
0000
0320
0000
0230
0000
0000
0000
0320
0000
0000
0030
0110
0000
0100
0000
,
2111
0000
0000
0000
3001
0010
0100
0000
0011
0100
0000
0010
0001
0000
1000
0000
,
1002
0000
0000
0000
1003
0010
0100
0000
1010
0000
0100
0000
0010
1000
0001
0100
,
0002
0000
0000
0000
1003
0100
0010
0000
1100
0010
0000
0100
1000
0000
0001
0000
,
2001
0000
0000
0000
3001
0100
0010
0000
0101
0000
0010
0000
0100
0001
1000
0000
,
0001
0000
0001
0000
1000
0100
1000
0100
0011
0100
0000
0010
0001
0000
1000
0000
,
2000
0000
0001
0000
3001
0000
0010
0100
0011
0100
0000
0100
0010
0000
0001
0000
,
0002
0000
1000
0000
1003
0000
0010
0100
0021
0000
1000
0001
0000
0000
0001
1000
,
0000
0000
1000
0100
0000
0000
0031
0100
2000
0000
3002
0000
0023
0000
1030
0000
,
1112
0000
0000
0000
1003
0100
0001
0000
1100
0001
0000
0100
1000
0000
0010
0000
,
2010
0000
0000
0000
3001
0100
1000
0000
0101
0000
1010
0000
0100
0001
1000
0010
,
2100
0000
0000
0000
3001
0010
1000
0000
0011
1000
0000
0010
0001
0000
0100
0000
,
0102
0000
0000
0000
1003
0010
0100
0000
1010
0000
0101
0000
0010
1000
0001
0000
,
1000
0000
0001
1000
0001
0010
0001
0010
2100
0000
3010
0000
0100
1000
0100
0000
,
2000
0000
3001
0000
1000
0010
0100
0000
2010
0000
3100
0000
0001
0010
0001
0000
,
2000
3010
1000
0010
0102
0013
1000
0001
,
1000
0010
1000
0000
0100
0000
1000
0001
0010
0000
1000
0000
0011
0000
00M1
0000
,
0001
0010
0100
1000
0001
1000
0100
0010
0001
0100
0010
1000
0001
1000
0010
0100
,
0001
0010
0100
1000
0001
0010
0100
0010
0100
1000
0010
0100
0001
0010
0100
1000
,
0001
1000
0010
0100
0001
1000
0001
0100
0010
1000
0100
0010
0001
1000
0001
0010
,
0100
1000
0010
0100
0001
1000
0010
0100
0010
0100
0001
0010
0100
1000
0010
0100
,
0001
0010
0001
0010
0100
1000
0001
0100
0001
0100
0010
1000
0001
0010
0100
1000
,
0001
1000
0010
0100
0001
1000
0100
0010
0100
1000
0010
0100
0001
0010
0100
1000
,
0001
0010
0001
1000
0010
1000
0001
1000
0001
0100
0001
1000
0100
1000
0001
1000
,
0100
1000
0010
0100
0001
0010
0100
1000
0010
0100
0001
0010
0100
1000
0010
0100
,
0012
0000
0000
0000
0203
0000
0000
0000
0320
0000
0000
0000
1030
0000
0000
1000
,
0001
0000
0010
0000
1000
0000
0010
0000
0001
0100
0001
0100
1000
0100
1000
0100
,
2000
0000
0000
3000
2MMM
0000
0000
3000
2MMM
0000
0000
3000
2MMM
0000
0000
3000
,
0020
0000
0230
0000
0320
0000
0000
0000
0230
0000
0000
0300
0110
0000
0100
0000
,
1001
0000
0001
1000
0101
0000
1000
0001
1100
0000
0001
1000
0101
0000
1000
0001
,
1100
0000
0001
1000
0101
0000
1000
0001
1100
0000
0001
1000
0101
0000
1000
0001
,
1100
0000
1111
0000
1111
0000
0001
1000
0011
0000
1000
0001
1010
0000
0001
1000
,
0011
0000
1000
0001
1010
0000
0001
1000
0011
0000
1000
0001
0010
0000
0001
1000
,
0022
1000
0133
0110
0211
0000
0310
2012
,
0000
0000
0100
0000
0010
0000
0100
0010
0100
0010
3103
0000
2000
0000
3020
0000
,
0130
0001
1000
0001
0010
0100
1000
0001
0100
0001
1000
0001
1000
0100
0010
0001
,
0100
0010
1000
0001
1000
0010
1000
0100
1000
0000
0010
0000
0100
1000
0100
0010
,
1200
0000
0011
1010
0001
0000
1010
0011
1000
0000
0011
1010
0001
0000
1310
0011
,
1020
0000
0101
1100
0001
0000
1100
0101
1000
0000
0101
1100
0001
0000
1130
0101
,
1010
0000
1111
0000
0101
1010
0101
0000
1100
0011
1100
0000
1111
0000
0000
1111
,
0000
0000
1111
0000
1111
0000
1111
0000
1111
0000
0001
0010
2000
0000
3001
0100
,
2000
0000
0000
0000
3010
0100
0010
0100
0001
0000
0010
0100
0010
0100
1000
0000
,
0010
0100
0010
0000
1000
0000
0001
0000
0010
0100
0010
0000
0200
0000
0000
0000
,
1300
0010
1000
0010
0100
0001
0010
0100
0001
0100
0010
0100
1000
0010
0100
0001
,
1000
0010
0100
0010
0001
0010
1000
0001
2000
0000
0000
0000
0000
0000
0000
0000
,
3002
0000
0000
0010
0000
0000
1003
0000
0000
0000
0010
0000
1000
0000
0000
0000
,
2000
0000
0000
0010
0000
0000
3001
0000
0000
0000
0010
0000
0001
0000
0000
0000
,
0002
0000
0000
0010
0000
0000
1003
0000
0000
0000
0010
0000
0100
0000
0001
0000
,
1111
0000
0000
1111
0000
0000
1111
0000
0000
1000
0001
0000
0100
0000
0010
0000
,
1111
0000
0000
1111
0000
0000
1111
0000
1000
0010
0100
0001
0010
0100
1000
0000
,
1111
0000
0000
1111
0000
0000
1111
0000
0001
0010
0100
1000
0010
0100
0001
0000
,
1000
0010
0100
0001
0010
0100
1000
0010
0100
0001
0010
0100
1000
0010
0100
0000
,
0100
0001
0010
0001
1000
0100
1000
0001
0100
0001
1000
0010
1000
0001
1000
0001
,
2000
0000
0000
0000
,
3001
0010
0100
1000
0001
0100
0010
1000
0001
0010
0100
1000
0010
0100
1000
0100
,
0002
0023
2030
3020
,
0032
0000
0203
0000
2300
0000
0000
0000
3200
0000
0000
0300
0110
0000
0010
0000
,
1000
0000
0001
0000
0100
0000
0001
0000
0010
0001
0000
0010
0100
0000
1000
0000
,
0010
1000
0000
0010
0100
0000
0001
0000
0010
0000
0100
1000
0010
0100
0001
0000
,
1002
0000
0000
0000
0013
0000
0001
0000
0100
1000
0000
0100
0010
0000
1000
0000
,
0100
0001
0000
0100
0010
0000
0001
0000
0100
1000
0000
0100
0010
1000
0001
0000
,
2001
0000
0000
0000
3100
0000
1000
0000
0010
0001
0000
0010
0100
0000
0001
0000
,
0010
1000
0000
0010
0100
0000
1000
0000
0020
0000
0000
0000
0130
0001
1000
0001
,
2000
0000
3101
0010
1100
0010
0101
0010
1100
0010
0101
0010
1100
0010
0101
1000
,
0010
1100
0010
0101
0010
1100
0010
0101
0010
1100
0010
0101
0010
0100
0010
1000
,
0002
0000
1013
0100
0011
0100
1010
0100
0011
0100
1010
0100
0011
0100
1010
0001
,
0200
0000
0310
0100
1000
0100
0010
1000
0002
0000
0203
0000
1300
0100
0001
0000
,
1002
0000
0000
0000
0103
0000
0001
0000
0010
1000
0000
0001
0100
1000
0010
0000
,
0010
0001
0000
1000
0100
0001
0010
0000
0010
1000
0000
0001
0100
1000
0001
0000
,
2001
0000
0000
0000
3010
0000
1000
0000
0100
0001
0000
1000
0010
0001
0100
0000
,
2000
0000
3001
0000
0010
1000
0100
0000
0200
0000
0000
0000
0310
0001
0100
0001
,
2000
0000
3011
1100
1010
1100
0011
1100
1010
1100
0011
1100
1010
1100
0001
0010
,
0101
1010
0101
0011
0101
1010
0101
0011
0101
1010
0101
0011
0101
1010
0101
1010
,
0002
0000
1103
0011
0101
0011
1100
0011
0101
0011
1100
0011
0101
0011
1100
0101
,
0020
0000
0031
0010
1000
0010
0001
0100
2000
0000
3002
0000
0023
0000
0130
0000
,
2222
0000
3333
0000
;
