#TITLE:Fireman and Dancer;
#SUBTITLE:;
#ARTIST:Royal Republic;
#TITLETRANSLIT:;
#SUBTITLETRANSLIT:;
#ARTISTTRANSLIT:;
#GENRE:;
#CREDIT:;
#MUSIC:Fireman and Dancer.ogg;
#BANNER:Fireman and Dancer.png;
#BACKGROUND:Fireman and Dancer-bg.png;
#CDTITLE:;
#SAMPLESTART:38.528;
#SAMPLELENGTH:15.920;
#SELECTABLE:YES;
#OFFSET:0.005;
#BPMS:0.000=151.000;
#STOPS:;
#BGCHANGES:1.000=Fireman and Dancer.mp4=1.000=0=0=0=StretchNoLoop====,
99999.000=-nosongbg-=1.000=0=0=0=StretchNoLoop====,
99999.000=-nosongbg-=1.000=0=0=0=StretchNoLoop====
;
#FGCHANGES:;

//--------------- dance-single - eataninja ----------------
#NOTES:
     dance-single:
     eataninja:
     Beginner:
     4:
     0,0,0,0,0:
0000
0000
0000
0000
,
0000
0000
0000
0000
,
0000
0000
0000
0000
,
0000
0000
0000
0000
,
2002
0000
0000
0000
,
0000
0000
0000
0000
,
3003
0000
0000
0000
,
0020
0000
0000
0030
,
0110
0000
0100
0000
,
0001
0000
1000
1000
,
0100
0000
0010
0000
,
0100
0000
1000
1000
,
0001
1000
0001
0000
,
1000
0010
1000
0000
,
1001
0000
0001
0000
,
0010
0000
0100
0000
,
1000
0001
1000
0000
,
0001
0100
0001
0000
,
1001
0000
1000
0000
,
0010
0000
0100
0000
,
0001
0001
1000
0000
,
1000
1000
0100
0000
,
1000
1000
0001
0000
,
0001
0001
0100
0000
,
0010
0000
0110
0000
,
0010
0100
0001
0000
,
0010
0000
0110
0000
,
0010
0100
1000
0000
,
0010
0000
0110
0000
,
0100
0100
0002
2000
,
0000
0000
0000
0000
,
0000
0000
0000
3003
,
1000
0010
1000
0010
,
1000
1000
0001
0000
,
0001
0010
0001
0010
,
0001
0001
1000
0000
,
0010
0000
0010
0000
,
0100
0000
0100
0000
,
0001
0000
0010
0000
,
1000
0000
0100
0000
,
0001
0000
0001
0000
,
1000
0000
1000
0000
,
0010
0010
0010
0000
,
1000
0001
1001
0000
,
0001
0001
0010
0000
,
0001
1000
1001
0000
,
1000
1000
0010
0000
,
1000
0001
1001
0000
,
0001
0001
0100
0000
,
0020
0000
0130
0000
,
0200
0000
0301
0000
,
1000
0001
1000
1000
,
0100
0010
0001
0000
,
0001
1000
0001
0001
,
0100
0010
1000
0000
,
1000
1000
0001
0000
,
0010
0100
2000
0002
,
0000
0000
0000
0000
,
0000
0000
0000
0000
,
0000
0000
0000
0000
,
0000
0000
3003
0000
,
0010
0010
0010
0000
,
0100
0000
1001
0000
,
1000
0001
1000
1000
,
0010
0000
1001
0000
,
0001
1000
0001
0001
,
0100
0100
0100
0000
,
1001
0000
0000
0000
;

//--------------- dance-single - eataninja ----------------
#NOTES:
     dance-single:
     eataninja:
     Easy:
     7:
     0,0,0,0,0:
0000
0000
0000
0000
,
0000
0000
0000
0000
,
0000
0000
0000
0000
,
0000
0000
0000
0000
,
2002
0000
0000
0000
,
0000
0000
0000
0000
,
3003
0000
0000
0000
,
0002
2003
3200
0320
,
0031
0000
1000
0000
0001
0100
0001
0000
,
1000
0000
0001
0000
0010
0010
0100
0000
,
1000
0000
0001
0000
1000
0100
1000
0000
,
0001
0000
1000
0000
0100
0010
0010
0000
,
0001
0100
1000
0100
,
0001
0100
1000
0100
,
0110
0000
0000
0000
1000
0001
1000
0000
,
0100
0000
0010
0000
0001
1000
1000
0000
,
0001
0010
1000
0010
,
0001
0010
1000
0010
,
0110
0000
0000
0000
1000
0001
1000
0000
,
0010
0000
0100
0000
0001
1000
1000
0000
,
0100
0010
0001
0100
,
1000
0100
0001
0010
,
0100
0001
0100
0010
,
0001
0000
1000
0000
0010
0100
0100
0000
,
0102
0000
1003
0000
0001
0100
0000
1000
,
0000
0100
0001
0000
1000
0000
0000
0000
,
2100
0000
3001
0000
1000
0010
0000
0100
,
0000
0010
1000
0000
0001
0000
0000
0000
,
0012
0000
1003
0000
0001
0100
0000
1000
,
0000
0001
0010
0000
2000
0000
0002
0000
,
0000
0000
0000
0000
,
0000
0000
0000
3003
,
1001
0000
1000
0000
0100
0010
0001
0000
,
1000
0000
0010
1000
0000
0100
0010
0000
,
1001
0000
0001
0000
0010
0100
1000
0000
,
0001
0000
0100
0000
0010
0100
0100
0000
,
0002
0000
1003
0000
,
2000
0000
3100
0000
,
1000
0100
0001
0000
0100
0000
0010
0000
,
0001
1000
0010
0000
0100
0000
0000
0000
,
0001
1000
0001
0000
0100
0000
0000
0000
,
0010
1000
0000
0100
0000
0010
0001
0000
,
2000
0000
3001
0101
,
1000
0000
0001
0000
0010
0100
0000
0010
,
0000
0001
1000
0000
0010
0100
0000
0000
,
0001
0000
1000
0000
0100
0010
0000
1000
,
0000
0010
0100
0000
1000
0001
0000
0000
,
0100
0000
0001
0000
1000
0100
0000
0010
,
0000
0100
1000
0000
0001
0100
0000
0000
,
0020
0000
0001
0000
0100
0000
1030
2000
,
0000
0001
3002
0000
0023
0000
0230
0000
,
1300
0001
1000
0000
0010
0100
0000
2000
,
0000
3100
0001
0000
1001
0000
0000
0000
,
0001
1000
0001
0000
1000
0100
0000
0020
,
0000
0130
1000
0000
1001
0000
0000
0000
,
1000
0001
0100
0000
0010
0001
0000
2000
,
0000
3100
0010
0000
2000
0000
0002
0000
,
0000
0000
0000
0000
,
0000
0000
0000
0000
,
0000
0000
0000
0000
,
0000
0000
3003
1001
,
1000
0100
1000
0000
0001
0000
0100
0000
,
1000
0100
1000
0000
0100
0010
0010
0000
,
1000
0000
0001
0000
0010
0100
1000
0000
,
0001
0000
0100
0000
0010
0100
0100
0000
,
0001
0000
1000
0000
0100
0010
0001
0000
,
1000
0000
0010
0000
0100
0010
0010
0000
,
1001
0000
0000
0000
;

//--------------- dance-single - eataninja ----------------
#NOTES:
     dance-single:
     eataninja:
     Medium:
     11:
     0,0,0,0,0:
0000
0000
0000
0000
,
0000
0000
0000
0000
,
0000
0000
0000
0000
,
0000
0000
0000
0000
,
2200
0000
0000
0000
,
0000
0000
3300
1001
,
2002
0000
0000
3003
,
2000
0000
3002
0000
0013
0100
1000
0000
,
0001
0000
0101
0000
1000
0001
1000
0000
,
0100
0000
0010
0000
0001
1000
0100
0100
,
1000
0000
1100
0000
0001
1000
0001
0000
,
0100
0000
0010
0000
1000
0100
0100
0000
,
0010
0001
0100
2000
0000
3100
0001
2000
,
0000
3100
0010
2000
0000
3010
0100
0100
,
1000
0000
1001
0000
0001
0100
0010
0000
,
0100
0000
0100
0000
0001
0010
0100
1000
,
0001
0100
0010
0002
0000
0013
1000
0002
,
0000
0013
0100
0002
0000
0103
0010
0010
,
0001
0000
1001
0000
1000
0010
0100
0000
,
0010
0000
0010
0000
1000
0001
0001
0010
,
0100
1000
0001
1000
0000
0010
0100
0002
,
0000
1003
0100
1000
0000
0100
0001
0100
,
1000
0001
1000
0010
0000
0100
0100
0010
,
1000
0001
0010
1000
0000
0010
0100
1000
,
0001
0000
0100
0000
0101
1000
0000
2100
,
0000
0000
3100
0000
0010
0000
0001
0000
1000
0000
0000
0010
0000
0000
1000
0000
,
1000
0000
0010
0000
1010
0001
0000
0021
,
0000
0000
0130
0000
0010
0000
0001
0000
1000
0000
0000
0010
0000
0000
1000
0000
,
0001
0000
0010
0000
0011
1000
0000
1000
,
0010
0001
1000
0100
0020
0000
0200
0000
,
0000
0000
0000
0000
,
0000
0000
0330
1001
,
1000
0100
1000
0100
0010
0001
0100
0000
,
0001
1000
0100
0010
0000
1000
0010
0001
,
1000
0010
1000
0010
0100
0001
0010
0000
,
0001
1000
0100
1000
0001
0100
0100
0010
,
1000
0001
0010
0100
0000
0000
0000
0100
,
0010
0001
1000
0010
0000
0000
0000
0000
,
0010
1000
0100
0001
0100
0000
0010
0001
,
1000
0010
0100
0000
1001
0000
0000
0000
,
1000
0010
1000
0010
0100
0001
0000
0001
,
0010
0100
1000
0001
0000
0100
0010
0010
,
1000
0001
0010
0200
0000
0310
1000
0000
,
0010
0001
0011
0000
0011
1000
0000
0010
,
0100
0100
0001
0000
0010
0100
1000
0000
,
0010
0100
0101
0000
0101
1000
0010
0001
,
0000
0010
0001
0010
0100
0001
1000
0000
,
0100
1000
1100
0000
1100
0001
0000
0100
,
0010
0010
1000
0000
0001
0010
0000
0100
,
0001
0100
0001
0100
1000
0100
1000
0020
,
0000
0130
0100
0001
0001
1000
1000
0000
,
0100
0010
0001
1000
1010
0001
0000
0100
,
0010
0000
0100
0000
0001
0000
1000
0000
0100
0000
0000
0010
0000
0000
0001
0000
,
0001
1000
0100
0010
0011
1000
0000
0001
,
0100
0000
1000
0000
0100
0000
0010
0000
1000
0000
0000
0001
0000
0000
0010
0000
,
0100
1000
0001
0100
0101
1000
0000
0001
,
0010
1000
0001
0100
0020
0000
0200
0000
,
0000
0000
0000
0000
,
0000
0000
0000
0000
,
0000
0000
0000
0000
,
0000
0000
0330
1001
,
1000
0010
0100
0010
1000
0001
0000
0010
,
0100
0010
0001
1000
0010
0100
0100
0000
,
0001
0000
0000
1000
0000
0000
0001
0000
0000
0010
0000
0000
0100
0000
0000
0000
,
1000
0000
0000
0001
0000
0000
1000
0000
0010
0000
0100
0000
0100
0000
0001
0000
,
1000
0000
0000
0001
0000
0000
1000
0000
0000
0100
0000
0000
0010
0000
0000
0000
,
0001
0000
0000
1000
0000
0000
0001
0000
0010
0000
0100
0000
1000
0000
0010
0000
,
0100
0000
0000
0000
;

//--------------- dance-single - eataninja ----------------
#NOTES:
     dance-single:
     eataninja:
     Hard:
     14:
     0,0,0,0,0,0,0,0,0,0,0,0,0,0,0,0,0,0,0,0,0,0:
0000
0000
0000
0000
,
0000
0000
0000
0000
,
0000
0000
0000
0000
,
0000
0000
0000
0000
,
0202
0000
0000
0000
,
0000
0000
0303
1001
,
2002
0000
0000
0000
0000
0000
0000
0000
0000
0000
0000
0000
3003
0000
1000
0001
,
0200
0000
0000
0000
1300
0100
0001
0000
,
1000
0010
1000
0010
0000
0010
0100
0000
0001
1000
0001
0000
0010
0000
0100
0000
,
1000
0100
1000
0100
0000
0100
0010
0000
0001
0000
1000
0000
0010
0000
M010
0000
,
0001
0010
0001
0010
0000
0010
0100
0000
1000
0001
1000
0000
0010
0000
0100
0000
,
0001
0100
0001
0100
0000
0100
0010
0000
1000
0000
0100
0000
M100
0000
0001
1000
,
0100
0010
0001
0200
1300
0001
0010
0200
,
0301
1000
0100
0002
0003
0100
0100
1001
,
0001
0100
0001
1000
0000
1000
0001
0000
0010
0100
1000
0000
0001
0000
0010
0000
,
0001
0010
0001
1000
0000
1000
0001
0000
0100
0000
0001
0000
0010
0000
001M
0000
,
1000
0100
1000
0020
0031
1000
0100
0002
,
1003
0100
0010
2000
3000
0010
0010
1001
,
1000
0010
1000
0001
0000
0001
1000
0000
0010
0100
0001
0000
1000
0000
0010
0000
,
1000
0100
1000
0001
0000
0001
0010
0000
0001
0000
0100
0000
010M
0000
1000
0000
,
0001
1000
0100
0002
0000
0103
0010
0012
,
0000
1003
0010
0210
0000
0301
0100
010M
,
1000
0001
0100
2000
0000
3001
0010
1000
,
0001
0010
0100
2001
0000
3010
M010
0001
,
1000
0100
0010
0100
0001
0100
0010
0001
,
1000
0000
0010
0100
0001
0000
1000
0000
0100
0010
0100
0000
0010
0000
0001
0000
,
1000
0010
0100
0010
0001
0010
0100
0001
,
1000
0000
0100
0010
0001
0000
1000
0000
0001
0000
0010
0000
0100
0000
1000
0000
,
0001
0100
0010
0100
1000
0100
0010
1000
,
0001
0000
0010
0000
0100
1000
0100
1000
0001
0000
0000
0000
2000
0000
0000
0000
,
0010
3200
0001
0020
,
0000
0000
0000
0000
0330
0100
1001
0000
,
1000
0001
1000
0100
0000
0100
0010
0000
0001
1000
0010
0000
0100
0000
0001
0000
,
1000
0001
1000
0010
0000
0010
0100
0000
0001
0000
1000
0000
0100
0000
M100
0000
,
0001
1000
0001
0100
0000
0100
0010
0000
1000
0001
0010
0000
0100
0000
1000
0000
,
0001
1000
0001
0010
0000
0010
0100
0000
1000
0000
0010
0000
M010
0000
0001
0000
,
1000
0100
1000
2000
0000
3010
0100
0001
,
1000
0100
1000
0002
0000
0013
0100
0100
,
1000
0001
1000
0010
0001
1000
0100
0001
,
0010
0100
1000
1000
0001
1000
0010
0100
,
0001
0010
0001
0001
1000
1000
0010
0100
,
0001
1000
0100
0002
0000
0103
0010
0010
,
0001
0000
0100
0000
0001
0000
2000
0000
0000
0000
3100
0000
1001
0000
0001
0100
,
0010
0000
1000
0000
0001
0000
1000
0000
0100
0010
0001
0000
1000
0000
0010
0000
,
0100
0000
0001
0000
1000
0000
0001
0000
0010
0100
1000
0000
0001
0000
0000
0000
,
1000
0000
0010
0000
0100
0000
0010
0000
1000
0001
0010
0000
0100
0000
0001
0000
,
0100
0000
0010
0000
0001
0000
1000
0000
0010
0100
0001
0000
1000
0000
0000
0000
,
0010
0000
0100
0000
0001
0000
0100
0000
0010
1000
0001
0000
0010
0000
0100
0000
,
1000
0000
0001
0000
1000
0000
0010
0000
0100
0001
0010
0000
0100
0000
1000
0000
,
0001
0100
1000
0100
0001
0100
0010
0020
,
0000
1030
0001
0001
0010
0010
0100
0100
,
1000
0001
0100
1000
0100
0001
0100
0010
,
1000
0000
0001
0010
0100
0000
1000
0000
0010
0100
0001
0000
1000
0000
0010
0000
,
0100
0001
0010
1000
0010
0001
0010
0100
,
1000
0000
0001
1000
0010
0000
0100
0000
0001
0000
0010
0000
0100
0000
1000
0000
,
0001
1000
0010
0001
0010
1000
0010
0100
,
0001
0000
0010
0000
0100
1000
0100
1000
0001
0000
0000
0000
2000
0000
0000
0000
,
0010
3200
0001
0020
,
0000
0000
0000
0000
,
0000
0000
0000
0000
,
0000
0000
0000
0000
0330
0100
1001
0000
,
0001
0000
1000
0000
0010
0100
0001
0000
0100
0000
0010
0000
0000
0000
1000
0001
,
1000
0000
0100
0000
0010
0100
1000
0000
0001
0000
0100
0000
010M
0000
1000
0000
,
0001
1000
0100
0010
0000
0010
0100
0000
1000
0001
0100
0000
0010
0000
1000
0000
,
0001
1000
0010
0100
0000
0100
0001
0000
1000
0000
0100
0000
M100
0000
0001
0000
,
1000
0001
0010
0100
0000
0100
1000
0000
0001
1000
0010
0000
0100
0000
0001
0000
,
1000
0001
0100
0010
0000
0010
1000
0000
0001
0000
0010
0000
001M
0000
1000
0001
,
0100
0000
0000
0000
;
