#TITLE:Far Beyond;
#SUBTITLE:;
#ARTIST:Entity X Darwin;
#TITLETRANSLIT:;
#SUBTITLETRANSLIT:;
#ARTISTTRANSLIT:;
#GENRE:;
#CREDIT:darkanine;
#MUSIC:Far Beyond.ogg;
#BANNER:Far Beyond.png;
#BACKGROUND:Far Beyond-bg.png;
#CDTITLE:;
#SAMPLESTART:84.000;
#SAMPLELENGTH:19.200;
#SELECTABLE:YES;
#OFFSET:0.000;
#BPMS:0.000=400.000
,160.000=100.000
,196.000=200.000
,292.000=400.000
,340.000=800.000
,356.000=400.000
;
#STOPS:;
#DISPLAYBPM:100.000:400.000;
#BGCHANGES:;
#FGCHANGES:;

//--------------- dance-single - ----------------
#NOTES:
     dance-single:
     :
     Beginner:
     5:
     0,0,0,0,0:
0000
0000
0000
0000
,
0000
0000
0000
0000
,
0000
0000
0000
0000
,
0000
0000
0000
0000
,
0000
0000
0000
0000
,
0000
0000
0000
0000
,
0000
0000
0000
0000
,
0000
0000
0000
0000
,
1000
0000
0000
0000
,
0100
0000
0000
0000
,
1000
0000
0000
0000
,
0001
0000
0000
0000
,
0100
0000
0000
0000
,
0010
0000
0000
0000
,
0100
0000
0000
0000
,
0001
0000
0000
0000
,
1000
0000
0000
0000
,
0100
0000
0000
0000
,
0010
0000
0000
0000
,
0100
0000
0000
0000
,
1000
0000
0000
0000
,
0001
0000
0000
0000
,
0100
0000
0000
0000
,
0001
0000
0000
0000
,
1000
0000
0000
0000
,
1000
0000
0000
0000
,
1000
0000
0000
0000
,
1000
0000
0000
0000
,
0010
0000
0000
0000
,
0010
0000
0000
0000
,
0010
0000
0000
0000
,
0010
0000
0000
0000
,
0100
0000
0000
0000
,
0100
0000
0000
0000
,
0100
0000
0000
0000
,
0100
0000
0000
0000
,
0001
0000
0001
0000
,
0001
0000
0001
0000
,
0001
0000
0000
0000
,
1000
0000
0000
0000
,
0000
0000
0000
0000
,
0001
0000
0000
0000
,
0010
0000
0000
0000
,
1000
0000
0000
0000
,
0010
0000
0000
0000
,
0001
0000
0000
0000
,
1000
0000
0000
0000
,
0010
0000
0000
0000
,
0100
0000
0000
0000
,
0001
0000
0000
0000
,
0001
0000
0000
0000
,
1000
0000
0000
0000
,
1000
0000
0000
0000
,
0010
0000
0000
0000
,
0010
0000
0000
0000
,
0100
0000
0000
0000
,
0100
0000
0000
0000
,
0001
0000
0000
0000
,
0001
0000
0000
0000
,
0010
0000
0000
0000
,
0010
0000
0000
0000
,
0100
0000
0000
0000
,
0100
0000
0000
0000
,
1000
0000
0000
0000
,
1000
0000
0000
0000
,
0001
0000
0001
0000
,
0001
0000
0001
0000
,
0010
0000
0010
0000
,
0010
0000
0010
0000
,
1000
0000
1000
0000
,
1000
0000
1000
0000
,
0010
0000
0010
0000
,
0010
0000
0010
0000
,
0001
0000
0000
0000
,
0001
0000
0000
0000
,
0001
0000
0000
0000
,
0001
0000
0000
0000
,
1000
0000
0000
0000
,
1000
0000
0000
0000
,
1000
0000
0000
0000
,
1000
0000
0000
0000
,
0010
0000
0000
0000
,
0010
0000
0000
0000
,
0010
0000
0000
0000
,
0010
0000
0000
0000
,
0200
0000
0000
0000
,
0000
0000
0000
0000
,
0000
0000
0000
0000
,
0000
0000
0000
0000
,
0300
0000
0000
0000
,
0000
0000
0000
0000
,
0001
0000
0010
0000
,
0001
0000
0000
0000
,
1000
0000
0000
0000
,
0010
0000
0000
0000
,
0100
0000
0001
0000
,
0100
0000
0000
0000
,
0010
0000
0000
0000
,
1000
0000
0000
0000
,
0001
0000
0010
0000
,
1000
0000
0000
0000
,
0010
0000
0000
0000
,
0001
0000
0000
0000
,
1000
0000
0010
0000
,
0100
0000
0000
0000
,
1000
0000
0000
0000
,
0100
0000
0000
0000
,
0001
0000
1000
0000
,
0100
0000
0000
0000
,
0010
0000
0000
0000
,
0001
0000
0000
0000
,
1000
0000
0010
0000
,
0100
0000
0000
0000
,
0001
0000
0000
0000
,
1000
0000
0000
0000
,
0100
0000
0010
0000
,
0100
0000
0000
0000
,
1000
0000
0000
0000
,
0001
0000
0000
0000
,
0100
0000
0010
0000
,
0100
0000
0000
0000
,
0001
0000
0000
0000
,
1000
0000
0000
0000
,
0001
0000
0010
0000
,
0001
0000
0000
0000
,
0001
0000
0000
0000
,
1000
0000
0000
0000
,
0010
0000
0100
0000
,
0010
0000
0000
0000
,
1000
0000
0000
0000
,
1000
0000
0000
0000
,
0100
0000
0001
0000
,
0100
0000
0000
0000
,
1000
0000
0000
0000
,
1000
0000
0000
0000
,
0001
0000
0100
0000
,
1000
0000
0000
0000
,
0100
0000
0000
0000
,
0100
0000
0000
0000
,
0001
0000
0010
0000
,
0001
0000
0000
0000
,
1000
0000
0010
0000
,
1000
0000
0000
0000
,
0001
0000
0100
0000
,
0001
0000
0000
0000
,
1000
0000
0100
0000
,
1000
0000
0000
0000
,
0001
0000
0000
0000
,
0000
0000
0000
0000
,
1000
0000
0000
0000
,
0000
0000
0000
0000
,
1001
0000
0000
0000
,
0000
0000
0000
0000
,
0220
0000
0000
0000
,
0000
0000
0000
0330
,
1001
0000
0000
0000
;

//--------------- dance-single - ----------------
#NOTES:
     dance-single:
     :
     Easy:
     9:
     0,0,0,0,0:
0000
0000
0000
0000
,
0000
0000
0000
0000
,
0000
0000
0000
0000
,
0000
0000
0000
0000
,
0000
0000
0000
0000
,
0000
0000
0000
0000
,
0000
0000
0000
0000
,
0000
0000
0000
0000
,
1000
0000
0100
0000
,
1000
0000
0100
0000
,
1000
0000
0000
0000
,
0001
0000
0000
0000
,
0100
0000
0010
0000
,
0100
0000
0010
0000
,
0100
0000
0000
0000
,
0001
0000
0000
0000
,
1000
0000
0100
0000
,
0010
0000
0100
0000
,
1000
0000
0000
0000
,
0001
0000
0000
0000
,
1000
0000
0010
0000
,
0100
0000
0010
0000
,
1000
0000
0000
0000
,
0001
0000
0000
0000
,
1000
0000
0100
0000
,
0010
0000
0100
0000
,
1000
0000
0100
0000
,
0010
0000
0100
0000
,
1000
0000
0001
0000
,
0100
0000
0001
0000
,
1000
0000
0001
0000
,
0100
0000
0001
0000
,
1000
0000
0100
0000
,
0010
0000
0001
0000
,
1000
0000
0010
0000
,
0100
0000
0001
0000
,
1000
0000
0001
0000
,
1000
0000
0001
0000
,
1000
0000
0000
0000
,
0001
0000
0000
0000
,
0000
0000
0000
0000
,
1000
0000
0100
0000
,
0001
0000
0000
0000
,
1000
0000
0010
0000
,
0001
0000
0000
0000
,
0100
0000
1000
0000
,
0001
0000
0010
0000
,
1000
0000
0100
0000
,
0010
0000
0000
0000
,
0001
0000
0001
0000
,
0001
0000
0001
0000
,
1000
0000
1000
0000
,
1000
0000
1000
0000
,
0010
0000
0010
0000
,
0010
0000
0010
0000
,
0100
0000
0100
0000
,
0100
0000
0100
0000
,
0001
0000
0001
0000
,
0001
0000
0001
0000
,
0010
0000
0010
0000
,
0010
0000
0010
0000
,
0100
0000
0100
0000
,
0100
0000
0100
0000
,
1000
0000
1000
0000
,
1000
0000
1000
0000
,
0001
0000
0001
0000
,
0001
0001
0001
0000
,
0100
0000
0100
0000
,
0100
0100
0100
0000
,
0010
0000
0010
0000
,
0010
0010
0010
0000
,
1000
0000
1000
0000
,
1000
1000
1000
0000
,
0001
0000
0010
0000
,
0001
0000
0010
0000
,
0100
0000
1000
0000
,
0100
0000
1000
0000
,
0001
0000
0100
0000
,
0001
0000
0100
0000
,
0010
0000
1000
0000
,
0010
0000
1000
0000
,
0100
0000
0010
0000
,
0100
0000
0010
0000
,
0001
0000
1000
0000
,
0001
0000
1000
0000
,
0002
0000
0000
0000
,
0000
0000
0000
0000
,
0000
0000
0000
0000
,
0000
0000
0000
0000
,
0003
0000
0000
0000
,
0000
0000
0000
0000
,
1000
0000
0100
0000
,
0010
0000
0100
0000
,
1000
0000
0001
0100
,
0001
0000
1000
0000
,
0100
0000
0010
0000
,
0100
0000
1000
0000
,
0001
0000
0100
0010
,
0100
0000
0001
0000
,
1000
0000
0100
0000
,
1000
0000
0010
0000
,
0100
0000
0001
0010
,
0001
0000
1000
0000
,
0001
0000
0100
0000
,
0001
0000
0010
0000
,
0100
0000
1000
0010
,
1000
0000
0001
0000
,
1000
0000
0100
0000
,
0001
0000
0100
0000
,
1000
0000
0001
0100
,
0001
0000
1000
0000
,
0001
0000
0100
0000
,
1000
0000
0100
0000
,
0001
0000
1000
0100
,
1000
0000
0001
0000
,
1000
0000
0010
0000
,
0001
0000
0010
0000
,
1000
0000
0001
0010
,
0001
0000
1000
0000
,
0001
0000
0010
0000
,
1000
0000
0010
0000
,
0001
0000
0001
0000
,
0001
0000
0000
0000
,
1000
0000
0100
0000
,
0010
0000
1000
0000
,
0010
0000
0001
1000
,
0010
0000
0100
0000
,
0001
0000
0010
0000
,
1000
0000
0010
0000
,
0001
0000
1000
0010
,
0100
0000
0001
0000
,
1000
0000
0100
0000
,
0001
0000
1000
0000
,
0010
0000
0001
0100
,
0010
0000
0100
0000
,
0001
0000
0010
0000
,
1000
0000
0001
0000
,
0100
0000
1000
0010
,
1000
0000
0001
0000
,
0010
0000
1000
0000
,
0010
0000
0001
0000
,
1000
0000
0010
0100
,
0001
0000
1000
0000
,
0100
0000
0001
0000
,
0100
0000
1000
0000
,
0001
0000
0100
0010
,
1000
0000
0001
0000
,
1000
0000
0000
0000
,
0000
0000
0000
0000
,
0001
0000
0000
0000
,
0000
0000
0000
0000
,
0010
0000
0000
0000
,
0100
0000
0000
0000
,
0220
0000
0000
0000
,
0000
0000
0000
0330
,
1001
0000
0000
0000
;

//--------------- dance-single - ----------------
#NOTES:
     dance-single:
     :
     Medium:
     13:
     0,0,0,0,0:
0000
0000
0000
0000
,
0000
0000
0000
0000
,
0000
0000
0000
0000
,
0000
0000
0000
0000
,
0000
0000
0000
0000
,
0000
0000
0000
0000
,
0000
0000
0000
0000
,
0000
0000
0000
0000
,
2000
0000
3100
2000
,
0000
3001
0100
0001
,
0002
0000
0000
0000
,
0013
0100
1000
0000
,
0002
0000
0103
0002
,
0000
1003
0100
1000
,
2000
0000
0000
0000
,
3010
0100
0001
1000
,
0002
0000
0013
0002
,
0000
1003
0010
1000
,
2000
0000
0000
0000
,
3100
0010
0001
0000
,
2000
0000
3010
2000
,
0000
3001
0010
0001
,
0002
0000
0000
0000
,
1003
0010
0100
0100
,
0001
0010
0100
0010
,
0001
0010
0100
0010
,
0001
0010
0100
0010
,
0001
0010
0100
0010
,
0001
1000
0010
1000
,
0001
1000
0010
1000
,
0001
1000
0010
1000
,
0001
1000
0010
1000
,
0001
0010
0001
0010
,
0100
1000
0100
1000
,
0001
0100
0001
0100
,
0010
1000
0010
1000
,
0100
0010
0100
0010
,
0100
0010
0100
0010
,
0001
1000
0010
0000
,
0100
0001
1000
0000
,
0001
0000
0000
0000
,
1000
0100
1000
0010
,
0100
0000
0000
0000
,
0001
0010
0001
1000
,
0010
0000
0000
0000
,
1000
0100
0010
0001
,
0100
0001
0010
0100
,
1000
0010
0100
0001
,
1000
0000
0000
0000
,
0001
0001
0010
0010
,
0100
0100
0010
0010
,
0001
0001
1000
1000
,
0010
0010
0100
0100
,
0001
0001
1000
1000
,
0100
0100
1000
1000
,
0001
0001
0100
0100
,
0010
0010
1000
1000
,
0001
0001
0010
0010
,
0100
0100
1000
1000
,
0010
0010
0001
0001
,
0010
0010
1000
1000
,
0001
0001
0100
0100
,
1000
1000
0100
0100
,
0001
0001
1000
1000
,
0100
0100
0010
0010
,
0001
0001
1000
1000
,
0010
0100
0001
0001
,
1000
1000
0100
0100
,
0010
0001
0010
0010
,
0001
0001
0100
0100
,
0010
0001
0010
0010
,
1000
1000
0100
0100
,
0001
0100
1000
1000
,
0001
0100
0001
0000
,
1000
0100
1000
0000
,
0001
0010
0001
0000
,
1000
0010
1000
0000
,
0001
0010
0100
0000
,
1000
0010
0100
0000
,
0001
0100
0010
0000
,
1000
0100
0010
0000
,
0001
1000
0010
0100
,
0010
0001
0010
0100
,
0010
1000
0001
0010
,
0100
1000
0100
0010
,
0002
0000
0000
0000
,
0000
0000
0000
0000
,
0000
0000
0000
0000
,
0000
0000
0000
0000
,
0003
0000
0000
0000
,
0000
0000
0000
0000
,
1000
0100
1000
0010
,
0000
0100
0000
1000
,
0000
0100
0001
0000
,
1000
0000
0100
0010
,
0001
0100
0001
0010
,
0000
0100
0000
0001
,
0000
0100
1000
0000
,
0010
0000
0100
0001
,
1000
0100
0010
0100
,
0000
0001
0000
0100
,
0000
0010
0001
0000
,
0100
0000
0010
1000
,
0001
0100
0010
0100
,
0000
1000
0000
0100
,
0000
0010
1000
0000
,
0100
0000
0010
0001
,
1000
0010
0100
0010
,
0000
0001
0000
0010
,
0000
1000
0001
0000
,
0010
0000
0100
1000
,
0001
0010
0100
0010
,
0000
1000
0000
0010
,
0000
0001
0100
0000
,
0010
0000
1000
0001
,
1000
0010
0100
0010
,
0000
0001
0000
0010
,
0000
1000
0001
0000
,
0010
0000
0100
1000
,
0001
0100
0010
0100
,
0000
1000
0000
0100
,
0001
0000
1000
0000
,
0001
0000
0000
0000
,
1000
0100
1000
0000
,
0001
0100
0001
0000
,
1000
0010
1000
0000
,
0001
0010
0001
0000
,
1000
0010
0100
0001
,
0100
0010
1000
0001
,
0010
0100
0010
0001
,
1000
0010
0100
0000
,
0001
0010
0001
0000
,
1000
0010
1000
0000
,
0001
0100
0001
0000
,
1000
0100
1000
0000
,
0010
0100
0001
1000
,
0100
0010
0100
1000
,
0001
0100
0001
0010
,
0100
1000
0010
0000
,
1000
0100
0010
0000
,
0001
0100
0010
0000
,
1000
0010
0100
0000
,
0001
0010
0100
0000
,
1000
0001
0100
1000
,
0100
0001
1000
0100
,
1000
0010
0100
0001
,
0010
0001
1000
0000
,
0001
0000
0000
0000
,
0000
0000
0000
0000
,
1000
0000
0000
0000
,
0000
0000
0000
0000
,
0110
0000
0000
0000
,
1001
0000
0000
0000
,
0220
0000
0000
0000
,
0000
0000
0000
0330
,
1001
0000
0000
0000
;

//--------------- dance-single - ----------------
#NOTES:
     dance-single:
     :
     Hard:
     15:
     0,0,0,0,0:
0000
0000
0000
0000
,
0000
0000
0000
0000
,
0000
0000
0000
0000
,
0000
0000
0000
0000
,
0000
0000
0000
0000
,
0000
0000
0000
0000
,
0000
0000
0000
0000
,
0000
0000
0000
0000
,
2000
0000
0100
3002
,
0000
0103
1000
0100
,
0020
0000
0000
0000
,
1030
0001
1000
0000
,
0002
0000
0100
2003
,
0000
3100
0001
0100
,
0020
0000
0000
0000
,
0031
0000
1000
0000
0001
0000
0010
0100
,
2000
0000
0010
3002
,
0000
0013
1000
0010
,
0200
0000
0000
0000
,
1300
0001
1000
0000
,
0002
0000
0010
2003
,
0010
3010
0001
0010
,
0100
0000
0001
0010
0100
0000
1000
0010
,
0100
0000
0001
1000
0001
0000
0001
0000
,
1000
0100
0001
0100
,
1000
0100
0001
0100
,
1000
0001
0100
1000
,
0100
0001
0100
1000
,
0100
0001
1000
0010
,
0001
1000
0010
0100
,
0001
0010
1000
0001
,
0100
0000
1000
0000
0001
0000
1000
0001
,
1000
0100
1000
0100
,
0010
0001
0010
0001
,
1000
0010
1000
0010
,
0100
0001
0100
0001
,
1000
0100
1000
0000
0001
0100
0001
0000
,
1000
0010
1000
0000
0001
0010
0001
0000
,
1000
0010
0100
0001
1000
0000
0001
0010
,
0100
1000
0001
0000
0100
0010
1000
0001
,
0010
0000
0000
0000
,
0001
0100
0010
1000
,
0100
0000
0000
0000
,
0010
0001
1000
0010
,
0001
0000
0000
0000
,
0010
1000
0001
0010
,
0100
0001
0100
1000
,
0010
0100
0001
1000
,
0001
0000
0000
0000
,
1000
0100
1000
0100
,
1000
0100
1000
0100
,
0010
0001
0010
0001
,
0010
0001
0010
0001
,
1000
0010
1000
0010
,
1000
0010
1000
0010
,
0100
0001
0100
0001
,
0100
0001
0100
0001
,
1000
0100
0001
0100
,
1000
0100
0001
0100
,
1000
0010
0001
0010
,
1000
0010
0001
0010
,
1000
0001
0010
1000
,
0010
0001
0010
1000
,
0010
0001
0100
1000
,
0100
0001
0100
0010
,
1010
0000
1100
0000
,
0110
0011
1001
0000
,
0101
0000
0011
0000
,
0110
1100
1001
0000
,
1100
0000
1010
0000
,
0110
0101
1001
0000
,
0011
0000
0101
0000
,
0110
1010
1001
1001
,
1000
0100
0010
0100
,
1000
0100
0010
0001
,
0010
0100
0010
0100
,
1000
0000
0100
0000
0010
0000
0001
1000
,
0001
0100
0010
0100
,
0001
0100
0010
1000
,
0010
0100
0010
0100
,
0001
0000
0100
0000
0010
0000
1000
0001
,
1000
0100
0010
0000
0001
0100
0010
0000
,
0100
0001
1000
0000
0100
0010
0100
0000
,
1000
0001
0100
0000
0010
1000
0001
0000
,
0010
0100
0010
0000
0001
1000
0001
0000
,
2000
0000
0000
0000
,
0000
0000
0000
0000
,
0000
0000
0000
0000
,
0000
0000
0000
0000
,
3000
0000
0000
0000
,
0000
0000
1001
1001
,
0001
0010
1000
0010
,
0001
1000
0010
0100
,
0010
1000
0001
0010
,
0001
0000
0100
0010
1000
0000
0100
0000
,
1000
0001
0100
1000
,
0100
0001
1000
0100
,
0010
0100
1000
0100
,
0010
0000
0001
1000
0010
0000
0100
0000
,
0001
0010
1000
0001
,
0100
1000
0001
0100
,
0001
1000
0100
0010
,
0001
0000
0010
0100
1000
0000
0001
0000
,
0100
0010
0001
0010
,
1000
0001
0010
1000
,
0010
0100
1000
0010
,
0100
0000
0001
0100
0010
0000
1000
0001
,
1000
0100
1000
0001
,
0100
1000
0100
0010
,
1000
0100
1000
0010
,
0100
0000
0001
0010
0001
0000
1000
0000
,
0010
0001
0010
1000
,
0001
0010
0001
0100
,
0010
1000
0100
1000
,
0001
0000
0100
0010
0100
0000
0001
0000
,
1000
0100
1000
0001
,
0100
0001
1000
0100
,
0001
0100
1000
0001
,
0100
0000
0010
1000
0100
0000
0010
0000
,
0001
0100
0010
0001
,
1000
0100
0010
1000
,
1001
0000
1001
0000
,
1001
0000
0000
0000
,
2000
0100
3002
0100
,
2003
0010
3002
0010
,
1003
0010
0001
0010
,
1000
0000
0001
0010
0100
0000
1000
0000
,
0001
0100
1000
0100
,
0001
0000
1000
0100
0010
0000
1000
0000
,
0010
0001
0100
0010
,
0100
0000
0001
1000
0100
0000
0010
0000
,
0002
0100
2003
0100
,
3002
0010
2003
0010
,
3001
0010
1000
0010
,
0001
0000
1000
0010
0100
0000
0001
0000
,
1000
0100
0001
0100
,
0010
0000
0001
1000
0010
0000
0001
0000
,
0010
1000
0001
0010
,
0001
0000
0100
0010
1000
0000
0100
1000
,
0002
0100
0023
0100
,
0032
0100
2003
0100
,
3010
0001
0010
1000
,
0001
0000
0010
0100
1000
0000
0001
0000
,
0100
0010
0001
0010
,
1000
0000
0001
0010
0001
0000
1000
0000
,
0010
1000
0100
0010
,
0001
0000
0100
0001
1000
0000
0001
0000
,
1100
0000
0000
0000
,
0000
0000
0000
0000
,
0101
0000
0000
0000
,
0000
0000
0000
0000
,
0011
0000
0000
0000
,
1010
0000
0000
0000
,
0220
0000
0000
0000
,
0000
0000
0000
0330
,
1001
0000
0000
0000
;

//--------------- dance-single - ----------------
#NOTES:
     dance-single:
     :
     Challenge:
     17:
     0,0,0,0,0,0,0,0,0,0,0,0,0,0,0,0,0,0,0,0,0,0:
0000
0000
0000
0000
,
0000
0000
0000
0000
,
0000
0000
0000
0000
,
0000
0000
0000
0000
,
0000
0000
0000
0000
,
0000
0000
0000
0000
,
1000
0001
1000
0001
1000
0001
1000
0001
,
1000
0001
1000
0001
1000
0001
1000
0001
,
2000
0000
0100
3002
,
0100
1003
0010
0100
,
0002
0000
0010
0000
,
1003
0001
1000
1001
,
0002
0000
0100
2003
,
0100
3001
0010
0100
,
2000
0000
0010
0000
,
3001
0000
0001
0000
1000
0000
0010
0100
,
0002
0000
1003
0200
,
0010
0301
0100
1000
,
0002
0000
1000
0100
,
1003
1000
1000
0001
,
2000
0000
3001
0102
,
0100
1003
1100
0100
,
0110
0000
0010
0001
1000
0000
0010
1000
,
0001
0000
0010
0100
1000
0000
0001
0000
,
1000
0100
1000
0100
,
0010
0000
0001
1000
0010
0000
1000
0000
,
0001
0100
0001
0100
,
0010
0000
0100
0001
1000
0000
1100
0000
,
0100
0010
0100
1000
,
0001
0000
0100
0010
1000
0000
0001
0000
,
0010
1000
0010
0001
,
1000
0000
0010
1000
0001
0000
0010
0001
,
1000
0010
0100
0001
,
0010
0000
0100
1000
0001
0000
0100
0000
,
0010
0000
0100
0000
0001
0000
1000
0100
,
0010
0000
0100
1000
0001
0000
1000
0000
,
0001
0010
0001
1000
0010
0100
0001
1000
,
0100
0010
0100
1000
0100
0010
0001
1000
,
0010
1000
0010
1000
0001
0010
0001
0010
,
0100
1000
0100
1000
0010
0100
0001
1000
,
0100
0000
0000
0000
,
1000
0010
0100
0001
,
1000
0000
0000
0000
0000
0000
0100
0010
,
0001
0100
1000
0100
,
0001
0000
0000
0000
0000
0000
0010
0100
,
1000
0010
0100
0010
,
1000
0000
0001
0000
0010
0000
0100
0010
,
0001
1000
0010
0100
,
0001
0000
0000
0000
,
1000
1000
1000
1000
,
1000
1000
1000
1000
,
0001
0001
0001
0001
,
0001
0001
0001
0001
,
0010
0010
0010
0010
,
0010
0010
0010
0010
,
0100
0100
0100
0100
,
0100
0100
0100
0100
,
1000
1000
1000
1000
,
0010
0010
0010
0010
,
0100
0100
0100
0100
,
0001
0001
0001
0001
,
0010
0010
0010
0010
,
0100
0100
0100
0100
,
1000
1000
1000
1000
,
0001
0001
0001
0001
,
1100
1000
1010
0010
,
0110
0000
0101
0000
1001
0000
0000
0001
,
0011
0000
0000
0000
0001
0000
0000
0000
0101
0000
0000
0000
0100
0000
0010
1000
,
0001
0000
1001
0000
1001
0000
0000
1000
,
1010
1000
1100
0100
,
0110
0000
0011
0000
1001
0000
0000
0001
,
0101
0000
0001
0000
0011
0000
0010
0100
,
0110
0000
0010
0000
0100
0000
0000
0000
1100
0000
0000
0000
1001
0000
1000
0001
,
1000
0100
0010
0100
,
1000
0100
0010
0001
,
1000
0010
0100
0001
,
0100
0000
0010
0000
0100
0000
0001
1000
,
0001
0010
1000
0010
,
0001
0010
0100
0010
,
0001
1000
0010
0001
,
0010
0000
1000
0000
0010
0000
0100
0001
,
1000
0100
0010
0100
1000
0001
0100
0001
,
1000
0100
0010
0001
1000
0010
0100
0001
,
0010
0100
0010
0001
1000
0010
0100
0010
,
1000
0001
0010
0001
0100
0010
1000
0100
,
2000
0000
0000
0000
,
0000
0000
0000
0000
,
0000
0000
0000
0000
,
0000
0000
0000
0000
,
3000
0000
0000
0000
,
0000
0000
1001
1001
,
1000
0100
0001
1000
,
0010
0001
0100
0010
,
0100
0000
0001
0000
0010
0100
0010
0001
,
1000
0000
0010
0100
0001
0000
1000
0000
,
0001
0100
1000
0001
,
0010
1000
0010
0100
,
0010
0000
1000
0000
0001
0010
0001
0010
,
0100
0000
0000
1000
0010
0000
0100
0000
,
0001
0010
1000
0001
,
0100
1000
0010
1000
,
0100
0000
0010
0000
0001
0100
0001
1000
,
0100
0000
0010
0001
0010
0000
0100
0000
,
1000
0010
0001
1000
,
0100
0001
0010
0001
,
1001
0000
1001
0000
1000
0100
1000
0100
,
0010
0000
0000
0001
1000
0000
0010
0100
,
0001
0100
1000
0100
,
0010
0100
0001
1000
,
0100
0000
0010
0000
0100
1000
0001
0100
,
0010
0000
0000
0100
0001
0000
1000
0000
,
0100
0001
0100
1000
,
0001
0100
0001
1000
,
0100
0000
0010
0000
0001
0010
0100
1000
,
0001
0000
0100
0001
0100
0000
0001
0000
,
1000
0100
0010
0100
,
0001
0100
0010
0001
,
0100
0000
0010
0000
0100
0001
0010
0001
,
1000
0000
0000
0100
0001
0000
0100
0000
,
0010
0001
0010
1000
,
0010
0100
1000
0001
,
1001
0000
1001
0000
,
1001
0000
0000
0000
0001
0000
0010
0100
,
2000
0010
3002
0010
,
1003
0000
0010
0100
0001
0000
0100
0000
,
1000
0000
0100
0000
0001
1000
0100
1000
,
0001
0000
0100
0010
0100
0000
0001
0000
,
1000
0010
0100
1000
,
0100
0000
0001
1000
0100
0000
0010
0000
,
0100
1000
1001
0001
,
0101
0000
0100
0010
1000
0000
0001
0000
,
2000
0100
3002
0100
,
1003
0000
0100
1000
0100
0000
0001
0000
,
0100
0000
0010
0000
0100
1000
0001
0100
,
0010
0000
0100
0001
1000
0000
0100
0000
,
0001
1000
0010
0001
,
0100
0000
0010
1000
0010
0000
0100
0000
,
0001
0000
0011
0000
0011
0000
0001
1000
,
0010
0000
0100
0001
1000
0000
0100
1000
,
0001
0100
1000
0100
,
0001
0000
1000
0100
0010
0000
1000
0000
,
0010
0000
0001
0000
1000
0010
1000
0010
,
0100
0000
0001
0010
0001
0000
1000
0000
,
0010
0100
0010
1000
,
0001
0000
0010
1000
0010
0000
0001
0000
,
1000
0010
1010
0001
,
0010
0000
0100
0010
0001
0000
1000
0000
,
0110
0000
0000
0000
,
0000
0000
0000
0000
,
1001
0000
0000
0000
,
0000
0000
0000
0000
,
0110
0000
0000
0000
,
1001
0000
0000
0000
,
1000
0100
1000
0001
0100
0001
1000
0100
,
0010
0001
0010
0100
1000
0001
0100
0010
,
1000
0000
0000
0000
;
