#VERSION:0.83;
#TITLE:Explore Every Ave.;
#SUBTITLE:;
#ARTIST:BEMANI Sound Team "SYUNN";
#TITLETRANSLIT:;
#SUBTITLETRANSLIT:;
#ARTISTTRANSLIT:SYUNN;
#GENRE:ELECTRO HOUSE;
#ORIGIN:;
#CREDIT:;
#BANNER:Explore Every Ave.png;
#BACKGROUND:Explore Every Ave-bg.png;
#PREVIEWVID:;
#JACKET:Explore Every Ave-jacket.png;
#CDIMAGE:;
#DISCIMAGE:;
#LYRICSPATH:;
#CDTITLE:cdtitle.png;
#MUSIC:Explore Every Ave.ogg;
#OFFSET:0.000000;
#SAMPLESTART:72.888000;
#SAMPLELENGTH:15.000000;
#SELECTABLE:YES;
#BPMS:0.000=135.000;
#STOPS:;
#DELAYS:;
#WARPS:;
#TIMESIGNATURES:0.000=4=4;
#TICKCOUNTS:0.000=4;
#COMBOS:0.000=1;
#SPEEDS:0.000=1.000=0.000=0;
#SCROLLS:0.000=1.000;
#FAKES:;
#LABELS:0.000=Song Start;
#BGCHANGES:;
#KEYSOUNDS:;
#ATTACKS:
;

//---------------dance-single - Daff_4K----------------
#NOTEDATA:;
#CHARTNAME:Daff_4K;
#STEPSTYPE:dance-single;
#DESCRIPTION:Daff_4K;
#CHARTSTYLE:;
#DIFFICULTY:Beginner;
#METER:3;
#RADARVALUES:0.119417,0.158128,0.046440,0.000000,0.000000,90.000000,85.000000,5.000000,0.000000,0.000000,0.000000,0.000000,0.000000,0.000000,0.119417,0.158128,0.046440,0.000000,0.000000,90.000000,85.000000,5.000000,0.000000,0.000000,0.000000,0.000000,0.000000,0.000000;
#CREDIT:Daff_4K;
#NOTES:
0000
0000
0000
0000
,
0000
0000
0000
0000
,
0000
0000
0000
0000
,
0000
0000
0000
0000
,
0000
0000
0000
0000
,
0000
0010
0000
0000
,
0000
0100
0000
0000
,
0000
0010
0000
0000
,
0100
0000
0000
0000
,
1001
0000
0000
1000
,
1000
0000
0010
0000
,
1000
0000
0000
0100
,
0100
0000
0010
0000
,
1001
0000
0000
0001
,
0001
0000
0010
0000
,
0001
0000
0000
0100
,
0100
0000
0010
0000
,
1000
0000
0100
0000
,
0010
0000
0000
0000
,
0010
0000
0001
0000
,
1000
1000
1000
0000
,
0001
0000
0100
0000
,
0010
0000
0000
0000
,
0010
0000
1000
0000
,
0001
0000
0000
0000
,
1001
0000
0000
0000
,
1000
0000
0000
0000
,
0001
0000
0000
0000
,
0010
0000
0000
0000
,
0100
0000
0000
0000
,
0100
0000
0000
0000
,
1000
0000
0000
0000
,
0001
0000
0000
0000
,
0100
0000
0000
0000
,
0010
0000
0000
0000
,
1000
0000
0001
0000
,
0010
0000
0100
0000
,
0010
0000
0000
0000
,
0001
0000
0000
0000
,
1000
0000
0000
0000
,
0010
0000
0000
0000
,
1001
0000
0000
0001
,
0001
0000
1000
0000
,
0010
0000
0000
0100
,
0100
0000
0001
0000
,
1001
0000
0000
1000
,
1000
0000
0001
0000
,
0010
0000
0000
0100
,
0100
0000
0000
0000
,
1000
0000
0010
0000
,
0100
0100
0100
0000
,
0001
0000
1000
0000
,
0100
0000
0010
0000
,
0001
0000
0010
0000
,
0100
0100
0100
0000
,
1000
0000
0000
0000
,
0010
0000
0100
0100
;

//---------------dance-single - Daff_4K----------------
#NOTEDATA:;
#CHARTNAME:Daff_4K;
#STEPSTYPE:dance-single;
#DESCRIPTION:Daff_4K;
#CHARTSTYLE:;
#DIFFICULTY:Easy;
#METER:5;
#RADARVALUES:0.220258,0.263547,0.074304,0.195048,0.000000,166.000000,158.000000,8.000000,21.000000,0.000000,0.000000,0.000000,0.000000,0.000000,0.220258,0.263547,0.074304,0.195048,0.000000,166.000000,158.000000,8.000000,21.000000,0.000000,0.000000,0.000000,0.000000,0.000000;
#CREDIT:Daff_4K;
#NOTES:
0000
0000
0000
0000
,
0000
0000
0000
0000
,
0000
0000
0000
0000
,
0000
0000
0000
0000
,
0000
0000
0000
0000
,
2000
0010
0000
3010
,
1000
0001
1000
0000
,
0002
0010
0000
0013
,
2002
0000
0000
3003
,
1000
0010
0100
0010
,
1000
0100
0010
0010
,
0001
0100
0001
0010
,
0100
1000
0001
0000
,
0001
0010
0100
0010
,
0001
0100
0010
0010
,
1000
0100
1000
0010
,
0100
0001
1000
0000
,
1001
0001
0100
0000
,
1000
0100
0001
1000
,
0001
0001
0010
0100
,
1000
0010
0100
0000
,
1001
1000
0100
0000
,
0001
0100
1000
0001
,
1000
0010
0100
0001
,
0020
0000
0130
1000
,
0020
0000
0000
0000
,
0000
0000
0000
0030
,
0200
0000
0300
0001
,
2000
0000
3000
0100
,
0020
0000
0000
0000
,
0000
0000
0000
0030
,
0002
0000
0000
0003
,
1000
0010
0100
0001
,
0020
0000
0030
0100
,
1000
0001
0100
0010
,
2000
3000
0002
0003
,
0010
0010
0100
0100
,
2000
3000
0002
0003
,
0200
0300
0020
0030
,
1000
0100
0010
0001
,
0200
0000
0310
1001
,
1000
0100
0001
0100
,
1000
0010
0001
0010
,
0010
0100
0010
1000
,
0001
0010
0100
1000
,
0001
0100
1000
0100
,
0001
0010
1000
0010
,
0010
0100
0010
0001
,
0200
0000
0310
0000
,
1001
0001
0010
0000
,
0010
0100
1000
0010
,
0110
0100
0001
0000
,
1000
0100
0010
0001
,
1001
1000
0010
0000
,
0010
0100
0001
0010
,
0220
0000
0330
0000
,
1000
0001
0100
0010
;

//---------------dance-single - Daff_4K----------------
#NOTEDATA:;
#CHARTNAME:Daff_4K;
#STEPSTYPE:dance-single;
#DESCRIPTION:Daff_4K;
#CHARTSTYLE:;
#DIFFICULTY:Medium;
#METER:8;
#RADARVALUES:0.307830,0.343365,0.102168,0.343655,0.065016,232.000000,221.000000,11.000000,37.000000,0.000000,0.000000,0.000000,0.000000,0.000000,0.307830,0.343365,0.102168,0.343655,0.065016,232.000000,221.000000,11.000000,37.000000,0.000000,0.000000,0.000000,0.000000,0.000000;
#CREDIT:Daff_4K;
#NOTES:
0000
0000
0000
0000
,
0000
0000
0000
0000
,
0000
0000
0000
0000
,
0000
0000
0000
0000
,
0000
0000
0000
0000
,
1000
0000
0000
1000
0000
0000
0000
0000
0000
0000
0100
0000
0000
0010
0000
0000
,
0001
0000
0000
0001
0000
0000
1000
0000
0000
0000
0010
0000
0000
0100
0000
0000
,
0001
0000
0000
0001
0000
0000
0000
0000
0000
0000
0100
0000
0000
0010
0000
0000
,
0220
0000
0330
1001
,
1000
0000
0100
0000
1000
0001
1000
0000
,
0010
0000
0000
0000
0100
0000
0000
0001
0000
0000
1000
0000
0001
0000
0000
0000
,
0010
0000
0100
0000
1000
0010
1000
0000
,
0010
0100
0001
1000
,
0001
0000
0100
0000
0001
1000
0001
0000
,
0010
0000
0000
0000
0100
0000
0000
1000
0000
0000
0001
0000
1000
0000
0000
0000
,
0010
0000
0100
0000
0001
1000
0001
0000
,
2000
3200
0320
0031
,
2001
0000
0000
0000
3010
0000
0000
0000
0100
0000
0000
0001
0000
0000
1000
0000
,
0000
0001
0010
0000
0200
0000
1300
0000
,
0010
0000
0000
0010
0000
0000
0010
0000
0100
0000
0000
0100
0000
0000
0100
0000
,
0000
0001
1000
0000
0200
0000
0310
0000
,
1002
0000
0000
0000
0013
0000
0000
0000
0100
0000
0000
1000
0000
0000
0001
0000
,
0000
1000
0010
0000
0200
0000
0301
0000
,
0010
0100
0010
0000
0001
1000
0001
0000
,
0200
0000
0010
0310
,
2001
0000
0100
0000
,
0010
0000
3100
0010
,
0002
0000
0103
0010
,
2000
0000
3100
0010
,
0002
0000
0100
0000
,
0010
0000
0103
0010
,
2000
0000
3100
0010
,
0001
0001
1000
1000
,
0020
0100
0000
0230
,
0302
0000
2003
0000
3100
0010
0100
0000
,
1000
0010
1000
0000
0001
0010
0001
0000
,
0100
0000
0010
0000
1000
0001
1000
0000
,
0002
0010
2003
0010
,
3200
0000
0320
0000
0031
1000
0001
0000
,
0020
0230
2300
3001
,
0220
0000
0330
1001
,
1000
0000
0010
0000
0100
0001
0100
0000
,
0010
0000
0000
0000
1000
0000
0000
0001
0000
0000
1000
0000
0100
0000
0000
0000
,
0010
0000
0001
0000
1000
0010
1000
0000
,
0001
0010
0100
0000
1000
0001
1000
0000
,
0001
0000
0010
0000
0100
1000
0100
0000
,
0010
0000
0000
0000
0001
0000
0000
1000
0000
0000
0001
0000
0100
0000
0000
0000
,
0010
0000
1000
0000
0001
0010
0001
0000
,
0200
0000
0010
0310
,
2001
0100
0010
3001
,
1000
0010
1000
0000
0200
0000
0310
0000
,
0012
1000
0100
0013
,
0100
1000
0100
0000
1000
0001
1000
0000
,
1002
0100
0010
1003
,
0001
0010
0001
0000
0200
0000
0310
0000
,
2002
0000
0000
3003
,
0100
0000
0010
0000
0001
1000
0001
1000
;

//---------------dance-single - Daff_4K----------------
#NOTEDATA:;
#CHARTNAME:Daff_4K;
#STEPSTYPE:dance-single;
#DESCRIPTION:Daff_4K;
#CHARTSTYLE:;
#DIFFICULTY:Hard;
#METER:12;
#RADARVALUES:0.485629,0.581079,0.222912,0.362231,0.269352,366.000000,342.000000,24.000000,39.000000,0.000000,0.000000,0.000000,0.000000,0.000000,0.485629,0.581079,0.222912,0.362231,0.269352,366.000000,342.000000,24.000000,39.000000,0.000000,0.000000,0.000000,0.000000,0.000000;
#CREDIT:Daff_4K;
#NOTES:
0000
0000
0000
0000
,
0000
0000
0000
0000
,
0000
0000
0000
0000
,
0000
0000
0000
0000
,
0000
0000
0000
0000
,
2000
0000
0000
3010
0000
0000
0000
0000
0000
0000
2000
0000
0000
3100
0000
0000
,
0020
0000
0000
0031
0000
0000
2000
0000
0000
0000
3001
0000
0000
1000
0000
0000
,
0002
0000
0000
0013
0000
0000
0000
0000
0000
0000
0002
0000
0000
0103
0000
0000
,
2002
0000
0000
3003
,
1100
0000
0000
0000
0011
0000
0000
0001
0100
0000
0010
0000
0100
0000
1000
0000
,
0100
0000
0001
0000
1000
0000
0100
0010
0000
0100
0010
0000
0001
0000
1000
0000
,
0010
0000
0000
0000
0101
0000
0000
0001
0010
0000
0100
0000
0010
0000
0001
0000
,
1000
0000
0100
0000
1000
0000
0020
0000
0000
0100
0000
0000
0130
0000
0001
0000
,
0101
0000
0000
0000
1010
0000
0000
1000
0100
0000
0010
0000
0100
0000
0001
0000
,
0100
0000
1000
0000
0001
0000
0100
0010
0000
0100
0010
0000
1000
0000
0001
0000
,
0010
0000
0000
0000
1100
0000
0000
1000
0010
0000
0100
0000
0010
0000
1000
0000
,
0001
1000
0100
0010
0002
0000
1003
0000
,
1020
0000
0000
0000
0100
0000
0000
0000
0031
0000
0000
0010
0000
0000
1000
0000
,
0100
0000
0010
0000
0001
0000
0000
1000
0000
0000
0001
0000
0100
0000
0010
0000
,
2000
0000
0000
0100
0000
0000
3100
0000
0002
0000
0000
0100
0000
0000
0103
0000
,
1000
0000
0001
0000
0100
0000
0010
1000
0000
0010
1000
0000
0100
0000
0010
0000
,
0021
0000
0000
0000
0100
0000
0000
0000
1030
0000
0000
0010
0000
0000
0001
0000
,
0100
0000
0010
0000
1000
0000
0000
0001
0000
0000
1000
0000
0100
0000
0010
0000
,
0001
0100
0001
1000
0100
1000
0001
0000
,
2002
0000
0000
3003
,
1000
0000
0001
0000
0000
0100
0000
0010
0000
0200
0000
0000
0300
0000
0000
0000
,
0000
0001
2000
0000
0000
3100
0010
0001
,
0000
1000
0010
0100
0010
0001
0020
0000
,
2030
0000
3001
0010
0100
1000
0010
0100
,
0001
0000
2002
0000
3003
0000
1000
0001
,
0020
0000
0000
0100
0000
0000
0130
0000
2000
0010
0000
0000
3010
0000
0200
0001
,
0000
0000
0000
0301
0000
0000
1000
0000
0000
0100
0000
0000
0010
0000
0000
0001
0000
0000
0100
0000
0010
0000
0100
0000
,
0010
0000
1000
0000
0001
0000
1000
0000
0000
0001
0000
0000
0010
0000
0000
0100
0000
0000
1000
0000
0000
0010
0000
0000
,
0200
0001
1000
0302
,
0023
0000
2030
0000
3001
0100
1000
0001
,
0100
1000
0001
0010
1000
0001
0010
1000
,
0010
0001
1000
0010
0100
0001
0020
0100
,
0000
0130
0000
0000
2000
0000
0001
0000
0000
3001
0000
0000
1000
0000
0010
0000
,
0100
0010
1000
0001
0020
0000
0130
1000
,
0010
0010
0100
0100
0001
1000
0100
0010
,
0001
0000
0000
1000
0000
0000
0001
0000
0000
1000
0000
0000
0001
0000
0000
1000
0000
0000
0001
0000
0000
1000
0000
0000
0010
0000
0000
0000
0100
0000
0000
0000
0010
0000
0000
0000
0100
0000
0000
0000
0000
0000
0000
0000
0000
0000
0000
0000
,
1001
0000
0000
0000
1100
0000
0000
0100
0001
0000
0100
0000
0010
0000
0001
0000
,
1000
0000
0010
0000
0100
0000
0001
1000
0000
1000
0100
0000
0010
0000
0001
0000
,
1000
0000
0000
0000
1010
0000
0000
0010
0100
0000
0001
0000
1000
0000
0001
0000
,
0010
0000
0100
0000
0010
0000
0001
1000
0000
0001
0100
0000
0010
0000
1000
0000
,
1001
0000
0000
0000
0101
0000
0000
0100
1000
0000
0100
0000
0010
0000
1000
0000
,
0001
0000
0010
0000
0100
0000
1000
0001
0000
0001
0100
0000
0010
0000
1000
0000
,
0001
0000
0000
0000
0011
0000
0000
0010
0100
0000
1000
0000
0001
0000
1000
0000
,
0020
0000
0000
0100
0000
0000
0100
0000
0000
0100
0000
0000
0130
0000
0001
0000
,
0011
0000
0000
0000
1100
0000
0000
0000
2010
0000
0000
0001
0000
0000
3100
0000
,
1000
0010
0100
0010
0001
0010
1000
0001
,
0020
0000
0000
0100
0000
0000
0130
0000
2000
0000
0000
0001
0000
0000
3001
0000
,
0100
0000
0010
0000
1000
0000
0001
1000
0001
0000
0010
0000
0100
0000
1000
0000
,
1010
0000
0000
0000
0101
0000
0000
0000
0012
0000
0000
1000
0000
0000
0103
0000
,
0001
0010
0100
0010
1000
0010
0001
1000
,
2002
0000
0000
3003
,
0001
1000
0010
0100
0001
0001
1000
1000
;

//---------------dance-single - Daff_4K----------------
#NOTEDATA:;
#CHARTNAME:Daff_4K;
#STEPSTYPE:dance-single;
#DESCRIPTION:Daff_4K;
#CHARTSTYLE:;
#DIFFICULTY:Challenge;
#METER:15;
#RADARVALUES:0.607699,0.739556,0.260064,0.352943,0.617651,458.000000,430.000000,28.000000,38.000000,0.000000,0.000000,0.000000,0.000000,0.000000,0.607699,0.739556,0.260064,0.352943,0.617651,458.000000,430.000000,28.000000,38.000000,0.000000,0.000000,0.000000,0.000000,0.000000;
#CREDIT:Daff_4K;
#NOTES:
// measure 0
0000
0000
0000
0000
,  // measure 1
0000
0000
0000
0000
,  // measure 2
0000
0000
0000
0000
,  // measure 3
0000
0000
0000
0000
,  // measure 4
0000
0000
0000
0000
,  // measure 5
2000
0000
0000
0010
0000
0000
0000
0000
0000
0000
3002
0000
0000
0100
0000
0000
,  // measure 6
0023
0000
0000
0230
0000
0000
2300
0000
0000
0000
3020
0000
0000
0230
0000
0000
,  // measure 7
0302
0000
0000
0010
0000
0000
0000
0000
0000
0000
2003
0000
0000
3100
0000
0000
,  // measure 8
0220
0000
0330
1001
,  // measure 9
0001
0000
0100
0000
1100
0000
0100
0010
0000
0010
1000
0000
0001
0000
0010
0000
,  // measure 10
0100
0000
0010
0000
0001
0000
1000
0010
0000
0100
0010
0000
1000
0001
1000
0000
,  // measure 11
0100
0000
0010
0000
0011
0000
0001
1000
0000
1000
0010
0000
0100
0001
0100
0000
,  // measure 12
0001
1000
0100
0000
0010
0000
0100
1000
0000
1000
0001
0000
0100
0000
0010
0000
,  // measure 13
1000
0000
0100
0000
0101
0000
0100
0010
0000
0010
0001
0000
1000
0000
0010
0000
,  // measure 14
0100
0000
0010
0000
1000
0000
0001
0010
0000
0100
0010
0000
0001
1000
0001
0000
,  // measure 15
0100
0000
0010
0000
1010
0000
1000
0001
0000
0001
0010
0000
0100
1000
0100
0000
,  // measure 16
1000
0010
0100
0010
0100
0001
0010
0100
2000
0000
0000
0000
3001
0000
0000
0000
,  // measure 17
0101
0000
0000
0000
1010
0000
0000
1000
0100
0000
0001
0100
0000
1000
0010
0000
,  // measure 18
0001
0000
0010
0000
1010
0000
1000
0001
0000
0001
0010
0000
0100
0000
1000
0000
,  // measure 19
1010
0000
0000
0101
0000
0000
1001
0000
0011
0000
0000
1100
0000
0000
1001
0000
,  // measure 20
0001
0000
0100
0000
1000
0000
0100
0010
0100
0000
0001
0000
1000
0000
0100
0000
,  // measure 21
1100
0000
0000
0000
0011
0000
0000
0001
0100
0000
1000
0100
0000
0001
0010
0000
,  // measure 22
1000
0000
0010
0000
0011
0000
0001
1000
0000
1000
0010
0000
0100
0000
0001
0000
,  // measure 23
1000
0000
0001
0010
0100
0000
1000
0010
0100
0000
0010
1000
0001
1000
0001
0010
,  // measure 24
0200
0000
0000
0300
,  // measure 25
1000
0000
0010
0100
0000
0010
0000
0001
0000
2000
0000
0000
3000
0000
0000
0000
,  // measure 26
0000
0000
0100
0000
0001
2000
0000
0000
0000
0000
3100
0010
0100
0000
0001
0000
,  // measure 27
0000
0000
0000
0000
1000
0000
0000
0000
0010
0000
0100
0000
0010
0000
0000
0000
0001
0000
0000
0000
0100
0000
0000
0000
0010
0000
0100
0000
0010
0000
0000
1000
,  // measure 28
0000
0000
0000
0001
0000
0000
1000
0000
0000
0000
0100
0000
0010
0000
0000
0000
0001
0000
0100
0000
0001
0000
0000
0000
1000
0000
0100
0000
1000
0000
0000
0000
,  // measure 29
0010
0000
0000
0000
0000
0000
0000
0000
0010
0000
0200
0000
0000
0000
0000
0000
0000
0000
0000
0000
0000
0000
0000
0000
0301
0000
1000
0000
0000
0001
0000
0000
,  // measure 30
1000
0000
0000
0100
0000
0000
0001
0000
0100
0010
0000
0000
0100
0000
1000
0001
,  // measure 31
0000
0000
0000
0000
1000
0000
0000
0000
0010
0000
0100
0000
0010
0000
0000
0000
1000
0000
0001
0000
1000
0000
0001
0000
0010
0000
0100
0000
0000
0010
0000
0000
,  // measure 32
0100
0000
0000
1000
0000
0000
0001
0000
1000
0000
0010
0000
1000
0000
0000
0000
0001
0000
0010
0000
0001
0000
0000
0000
0100
0000
0010
0000
1000
0000
0001
0000
,  // measure 33
0020
1000
0100
0032
,  // measure 34
0203
0000
0000
0000
2300
0000
0000
0000
3100
0000
0001
0020
0000
0000
0130
0000
,  // measure 35
1000
0020
0000
0000
0130
0000
0001
2000
0000
0000
3100
0000
0010
0000
0001
0100
,  // measure 36
0001
0000
0100
0000
0010
1000
0010
0000
1000
0001
1000
0001
0010
0000
0200
0000
,  // measure 37
0000
0000
0320
0000
0031
0100
0010
2000
0000
0000
3002
0000
1003
0100
0010
0001
,  // measure 38
0100
0010
0100
0000
0001
0000
1000
0001
2000
0000
0000
0000
3100
0010
0100
0000
,  // measure 39
1000
0010
1000
0000
0001
0010
0001
0000
1000
0100
1000
0000
0001
0100
0001
0000
,  // measure 40
0010
0000
0000
0100
0000
0000
0010
0000
0000
0100
0000
0000
1000
0000
0000
0001
0000
0000
1000
0000
0000
0001
0000
0000
0100
0000
0000
0000
0010
0000
0000
0000
1000
0000
0000
0000
1001
0000
0000
0000
0000
0000
0000
0000
0000
0000
0000
0000
,  // measure 41
0001
0000
0010
0000
1010
0000
0010
0001
0000
0001
1000
0000
1010
0000
0010
0000
,  // measure 42
0100
0000
0001
0000
1000
0000
0100
0010
0000
0100
0001
0000
0100
0000
1000
0000
,  // measure 43
0001
0000
0100
0000
0110
0000
0100
1000
0000
1000
0001
0000
0010
0100
0010
0000
,  // measure 44
1000
0001
0010
0000
0100
0000
1000
0010
0000
0100
0001
0000
0010
0000
0100
0000
,  // measure 45
1000
0000
0010
0000
0011
0000
0010
1000
0000
1000
0001
0000
0011
0000
0010
0000
,  // measure 46
0100
0000
1000
0000
0001
0000
0100
0010
0000
0100
1000
0000
0100
0000
0001
0000
,  // measure 47
1000
0000
0100
0000
0110
0000
0100
0001
0000
0001
1000
0000
0010
0100
0010
0000
,  // measure 48
0002
0000
0000
0100
0000
0000
2003
0000
0000
0010
0000
0000
3001
0000
1000
0000
,  // measure 49
1200
0000
0000
0000
0301
0000
1000
0000
0020
0000
0000
0100
0000
0000
0031
0000
,  // measure 50
1000
0000
0010
0100
0010
0000
1000
0000
0001
0000
0010
0100
0000
0100
1000
0000
,  // measure 51
0002
0000
0000
0100
0000
0000
0010
0000
2003
0000
0000
0100
0000
0000
0010
0000
,  // measure 52
3001
0000
0100
0010
0100
0000
0001
0000
1000
0000
0100
0000
0010
0000
0001
0000
,  // measure 53
0201
0000
0000
0000
1300
0000
0001
0000
0020
0000
0000
0100
0000
0000
1030
0000
,  // measure 54
0001
0000
0010
0100
0010
0000
0001
0000
1000
0000
0010
0100
0000
0100
0001
0000
,  // measure 55
2002
0000
0000
3003
,  // measure 56
1000
0000
0100
0010
0100
0000
0001
0000
1000
0000
0010
0000
0001
0000
1000
0000
;
