#TITLE:Exitium;
#SUBTITLE:;
#ARTIST:Laur;
#TITLETRANSLIT:;
#SUBTITLETRANSLIT:;
#ARTISTTRANSLIT:;
#GENRE:GOTHIC SPEEDCORE;
#CREDIT:;
#BANNER:Exitium.png;
#BACKGROUND:Exitium-bg.png;
#LYRICSPATH:;
#CDTITLE:cdtitle.png;
#MUSIC:Exitium.ogg;
#OFFSET:-0.077000;
#SAMPLESTART:94.231003;
#SAMPLELENGTH:15.000000;
#SELECTABLE:YES;
#DISPLAYBPM:65.000000:260.000000;
#BPMS:0.000000=260.000000
,136.000000=130.000000
,200.000000=65.000000
,201.000000=130.000000
,202.000000=260.000000
,326.000000=65.000000
,327.000000=780.000000
,339.000000=260.000000
,482.000000=130.000000
,498.000000=65.000000
,499.000000=260.000000
;
#STOPS:201.000000=0.462000,
341.000000=0.231000
;
#BGCHANGES:;
#KEYSOUNDS:;
#ATTACKS:;

//---------------dance-single - Daff_4K----------------
#NOTES:
     dance-single:
     Daff_4K:
     Beginner:
     5:
     0.203539,0.361181,0.113982,0.000000,0.000000,200.000000,184.000000,16.000000,0.000000,0.000000,0.000000,0.203539,0.361181,0.113982,0.000000,0.000000,200.000000,184.000000,16.000000,0.000000,0.000000,0.000000:
0000
0000
0000
0000
,
0000
0000
0000
0000
,
0000
0000
0000
0000
,
0000
0000
0000
0000
,
0000
0000
0000
0000
,
0000
0000
0000
0000
,
0000
0000
0000
0000
,
0000
0000
0000
0000
,
0000
0000
0000
0000
,
0000
0000
0000
0000
,
1000
0000
0000
0000
,
0001
0000
0000
0000
,
1000
0000
0000
0000
,
0001
0000
0000
0000
,
0010
0000
0010
0000
,
0100
0000
0100
0000
,
0110
0000
0000
0000
,
0000
0000
0000
0000
,
1000
0000
0100
0000
,
1000
0000
0100
0000
,
1000
0000
0000
0000
,
1000
0000
0000
0000
,
0001
0000
0100
0000
,
0001
0000
0100
0000
,
0001
0000
0000
0000
,
0001
0000
0000
0000
,
0010
0000
0100
0000
,
0010
0000
0000
0000
,
0001
0000
0100
0000
,
0001
0000
0000
0000
,
1000
0000
0100
0000
,
1000
0000
0000
0000
,
0010
0000
0010
0000
,
0100
0000
0100
0000
,
0001
0000
0010
0000
,
0100
0100
0100
0000
,
1000
0000
0010
0000
,
0100
0100
0100
0000
,
0110
0000
0010
0000
,
1001
0000
0001
0000
,
0110
0000
0100
0000
,
1001
0000
1000
0000
,
0001
0000
0100
0000
,
0001
0000
0001
0000
,
1000
0000
0100
0000
,
1000
0000
1000
0000
,
0010
0010
0010
0000
,
0100
0100
0100
0000
,
0001
0000
1000
0000
,
0100
0100
0100
0000
,
1001
0000
1000
0000
,
0000
0000
1001
0000
,
0000
0000
0100
0000
,
0100
0000
0100
0000
,
0000
0000
0010
0000
,
0000
0000
0110
0000
,
0000
0000
0001
0000
,
0001
0000
0001
0000
,
0000
0000
0001
0000
,
0000
0000
1001
0000
,
0000
0000
0100
0000
,
0100
0000
0100
0000
,
0000
0000
0010
0000
,
0000
0000
0110
0000
,
0000
0000
1000
0000
,
1000
0000
1000
0000
,
0000
0000
1001
0000
,
0000
0000
0001
0000
,
0000
0000
1000
0000
,
1000
0000
1000
0000
,
0000
0000
0110
0000
,
0000
0000
0010
0000
,
0000
0000
0100
0000
,
0100
0000
0100
0000
,
0000
0000
0001
0000
,
0001
0000
0001
0000
,
0000
0000
1000
0000
,
1000
0000
1000
0000
,
0000
0000
0100
0000
,
0100
0000
0010
0000
,
0010
0000
0001
0000
,
1000
0000
1001
0000
,
0000
0000
0000
0000
,
0000
0000
0000
0000
,
0000
0000
0000
0000
,
0000
0000
1000
0000
,
0010
0000
1000
0000
,
0010
0000
0100
0000
,
0010
0000
0100
0000
,
0000
0000
0001
0000
,
0010
0000
0001
0000
,
0010
0000
0100
0000
,
0010
0000
0100
0000
,
0000
0000
1000
0000
,
0001
0000
1000
0000
,
0001
0000
0100
0000
,
0010
0000
0100
0000
,
0000
0000
0001
0000
,
1000
0000
0001
0000
,
1000
0000
0100
0000
,
0010
0000
0100
0000
,
0010
0000
0100
0000
,
0000
0000
1000
0000
,
0010
0000
1000
0000
,
0000
0000
0001
0000
,
0010
0000
0001
0000
,
0000
0000
0100
0000
,
0010
0000
1000
0000
,
0000
0000
0100
0000
,
0010
0000
0001
0000
,
0000
0000
1000
0000
,
0010
0000
0100
0000
,
0000
0000
0001
0000
,
0010
0000
0100
0000
,
0000
0000
1000
0000
,
0001
0000
1000
0000
,
0000
0000
1001
0000
,
0000
0000
0001
0000
,
0000
0000
1000
0000
,
0001
0000
1000
0000
,
0001
0000
1000
0000
,
0010
0000
0100
0100
,
0100
0000
0001
0000
,
0010
0000
0100
0100
,
0100
0000
1001
0000
,
0000
0000
0000
0000
,
0000
0000
0000
0110
;

//---------------dance-single - Daff_4K----------------
#NOTES:
     dance-single:
     Daff_4K:
     Easy:
     10:
     0.372477,0.722361,0.256460,0.612653,0.000000,366.000000,330.000000,36.000000,86.000000,0.000000,0.000000,0.372477,0.722361,0.256460,0.612653,0.000000,366.000000,330.000000,36.000000,86.000000,0.000000,0.000000:
0000
0000
0000
0000
,
0000
0000
0000
0000
,
0000
0000
0000
0000
,
0000
0000
0000
0000
,
0000
0000
0000
0000
,
0000
0000
0000
0000
,
0000
0000
0000
0000
,
0000
0000
0000
0000
,
0000
0000
0000
0000
,
0000
0000
0000
0000
,
2001
0000
0000
0000
,
3010
0000
1000
0000
,
1002
0000
0000
0000
,
0013
0000
0001
0000
,
2000
0000
3002
0000
,
0203
0000
0310
0000
,
2002
0000
0000
0000
,
0000
0000
3003
0000
,
1000
0100
1000
0100
,
0010
0001
0010
0001
,
0100
0010
1000
0000
,
0100
0010
0001
0000
,
0001
0100
0001
0100
,
0010
1000
0010
1000
,
0100
0010
0001
0000
,
0100
0010
1000
0000
,
0001
0010
0001
1000
,
0002
0000
0103
0000
,
0010
1000
0001
1000
,
0200
0000
0310
0001
,
1000
0010
1000
0001
,
2000
0000
3100
0000
,
0010
0001
1000
0001
,
0200
0000
0310
0000
,
2001
0000
3100
0000
,
0010
0001
1000
0000
2002
0000
3003
0000
,
1002
0000
0103
0000
,
0020
2030
3002
0013
,
0001
0100
0001
0100
0010
0100
0010
0000
,
1000
0100
1000
0100
0010
0100
0010
0000
,
0001
1000
0001
1000
0010
0100
0010
0000
,
1000
0001
1000
0001
0010
0100
0010
0000
,
1002
0100
2003
0100
,
3002
0010
2003
0010
,
3100
0010
0100
0000
1000
0010
1000
0000
,
0001
0010
0001
0000
0200
0000
0310
0000
,
1002
0103
2010
3001
,
2001
3100
0012
1003
,
0001
0100
0010
0000
1000
0100
0010
0000
,
0001
1000
0001
1000
0020
0100
0130
0000
,
2002
3003
0022
0000
,
0033
0000
2200
0000
,
3300
0000
2000
0000
,
3002
0000
0203
0000
,
0310
0000
2020
0000
,
3030
0000
0202
0000
,
0303
0000
0002
0000
,
2003
0000
3200
0000
,
0310
0000
0220
0000
,
0330
0000
2002
0000
,
3003
0000
0002
0000
,
0203
0000
0320
0000
,
1030
0000
0220
0000
,
0330
0000
2002
0000
,
3003
0000
1000
0001
,
1000
0000
0100
0010
,
0100
0000
2200
0000
,
0300
0000
0020
0000
,
0030
0000
0002
0000
,
0003
0000
3200
0000
,
0310
0000
0022
0000
,
0030
0000
0200
0000
,
0300
0000
2000
0000
,
3000
0000
0023
0000
,
0130
0000
1000
0001
,
1000
0001
0010
0100
,
0010
0000
0001
1000
,
0001
1000
0010
0100
,
0010
0000
1000
0010
,
1000
0000
0001
0010
,
0001
0000
0100
0010
,
0100
0000
2002
0000
,
0000
0000
0000
0000
,
0000
0000
0000
0000
,
0000
0000
0000
0000
,
0000
3003
1000
0100
,
1000
0001
0100
0001
,
1000
0000
0001
0010
,
0100
1000
0002
0000
,
1003
0000
0001
0100
,
0001
1000
0100
1000
,
0001
0000
1000
0010
,
0100
0001
2000
0000
,
3001
0000
1000
0001
,
1000
0001
0100
0010
,
1000
0001
1000
0001
,
0010
0100
2000
0000
,
3001
0000
0001
1000
,
0001
1000
0100
0010
,
0001
1000
0001
1000
,
0010
0100
0002
0000
,
1003
0000
2002
0000
,
0000
3003
1000
0100
,
0010
0000
0100
0010
,
0001
0000
1000
0010
,
0100
0000
0010
0100
,
0001
1000
0001
0010
,
1000
0000
1000
0010
,
0001
0000
0001
0100
,
0010
1000
0100
0010
,
0001
1000
0001
0100
,
0010
0000
0100
0010
,
1000
0000
0001
0010
,
0100
0000
0010
0100
,
1000
0001
1000
0010
,
0001
0000
0001
0010
,
1000
0000
1001
0000
,
0001
0000
1000
0000
,
0001
0000
0100
0010
,
0100
0010
2000
0000
,
3001
0000
1100
0110
,
0022
0033
0220
0330
,
2002
3003
0101
0110
,
2020
0000
3030
0000
1000
0001
1000
0000
,
2002
3003
0220
0000
,
0000
0000
0000
0000
,
0000
0000
0330
1001
;

//---------------dance-single - Daff_4K----------------
#NOTES:
     dance-single:
     Daff_4K:
     Medium:
     14:
     0.594335,1.264132,0.491548,0.883361,0.106858,584.000000,515.000000,69.000000,124.000000,0.000000,0.000000,0.594335,1.264132,0.491548,0.883361,0.106858,584.000000,515.000000,69.000000,124.000000,0.000000,0.000000:
// measure 0
0000
0000
0000
0000
,  // measure 1
0000
0000
0000
0000
,  // measure 2
0000
0000
0000
0000
,  // measure 3
0000
0000
0000
0000
,  // measure 4
0000
0000
0000
0000
,  // measure 5
0000
0000
0000
0000
,  // measure 6
0000
0000
0000
0000
,  // measure 7
0000
0000
0000
0000
,  // measure 8
0000
0000
0000
0000
,  // measure 9
0000
0000
0000
0000
,  // measure 10
1001
0000
1000
0010
0000
0010
0100
0000
,  // measure 11
0002
0013
0200
1300
,  // measure 12
1001
0000
0001
0010
0000
0010
0100
0000
,  // measure 13
2000
3010
0200
0301
,  // measure 14
0010
0100
0010
0000
0001
1000
0001
0000
,  // measure 15
0100
0010
1000
0001
1000
0000
0001
0000
,  // measure 16
2002
0000
0000
0000
,  // measure 17
0000
0000
0000
3003
,  // measure 18
2001
3020
0230
0302
,  // measure 19
2003
0000
3100
0010
0001
0000
1001
0000
,  // measure 20
1010
0101
0011
1100
,  // measure 21
1001
0000
0001
0100
0010
0000
1010
0000
,  // measure 22
1002
0023
0230
2300
,  // measure 23
3002
0000
0103
0010
1000
0000
1001
0000
,  // measure 24
0011
1100
1010
0101
,  // measure 25
1001
0000
1000
0100
0010
0001
1000
0000
,  // measure 26
0001
0100
0001
0100
0010
1000
0010
1000
,  // measure 27
0002
0000
0013
0100
1000
0000
1001
0000
,  // measure 28
0001
0010
0001
0010
0100
1000
0100
1000
,  // measure 29
0002
0000
0103
0001
0100
0010
1000
0010
,  // measure 30
1000
0100
1000
0100
0010
0001
0010
0001
,  // measure 31
2000
0000
3010
0100
0001
0000
1001
0000
,  // measure 32
1000
0010
1000
0010
0100
0001
0100
0001
,  // measure 33
0020
0000
0130
1000
0001
0000
1001
0000
,  // measure 34
1020
0031
0201
1300
,  // measure 35
1000
0010
0001
0000
0110
0000
1001
0000
,  // measure 36
0021
1030
1200
0301
,  // measure 37
0110
1001
0110
1001
,  // measure 38
0001
0100
0001
0100
0001
0100
0001
0100
0001
0100
0001
0100
0001
0000
0000
0000
,  // measure 39
1000
0100
1000
0100
1000
0100
1000
0100
1000
0100
1000
0100
1000
0000
0000
0000
,  // measure 40
0010
0100
0010
0100
0010
0100
0010
0100
0010
0100
0010
0100
0010
0000
0000
0000
,  // measure 41
1000
0001
1000
0001
1000
0001
1000
0001
1000
0000
0110
0000
1001
0000
0000
0000
,  // measure 42
0201
2300
3020
0032
,  // measure 43
0203
0000
0320
0000
2030
0000
3100
0010
,  // measure 44
0001
0000
1000
0001
1000
0000
0010
0000
0100
0000
0001
1000
0001
0000
1000
0000
,  // measure 45
0100
0000
0010
0100
0010
0000
0001
0000
1000
0000
0000
0000
1001
0000
0000
0000
,  // measure 46
1200
0302
0023
2030
,  // measure 47
3200
0000
0320
0000
0032
0000
0103
0010
,  // measure 48
1000
0000
0001
1000
0001
0000
0010
0000
0100
0000
1000
0001
1000
0000
0001
0000
,  // measure 49
0100
0000
0010
0100
0010
1000
0001
1000
0001
0000
0010
0000
0100
0000
0000
0000
,  // measure 50
2002
3003
2020
0000
,  // measure 51
0000
3000
0002
0000
,  // measure 52
0000
0003
2000
0030
,  // measure 53
0200
3000
0020
0300
,  // measure 54
0002
0033
0022
0000
,  // measure 55
0000
0003
2000
0000
,  // measure 56
0000
3000
0002
0030
,  // measure 57
0200
0003
0020
0300
,  // measure 58
2000
0030
0200
0000
,  // measure 59
0000
3000
0002
0000
,  // measure 60
0000
0003
2000
0300
,  // measure 61
0020
3000
0200
0030
,  // measure 62
0002
0303
0202
0000
,  // measure 63
0000
0003
2000
0000
,  // measure 64
0000
3000
0301
1000
,  // measure 65
0001
0000
0010
0100
0010
0000
0100
0000
,  // measure 66
1001
0000
2020
0000
,  // measure 67
0000
3000
0002
0000
,  // measure 68
0000
0030
0200
0000
,  // measure 69
0000
0003
2000
0300
,  // measure 70
0002
3003
0022
0000
,  // measure 71
0000
0003
2000
0000
,  // measure 72
0000
0030
0200
0000
,  // measure 73
0000
3000
0002
0300
,  // measure 74
2000
3003
2000
0100
,  // measure 75
0100
0001
0001
0010
,  // measure 76
0010
0100
3002
0100
,  // measure 77
0100
1000
1000
0010
,  // measure 78
0010
0000
0100
0000
1003
0001
1000
0001
,  // measure 79
0100
0010
0100
0010
1000
0010
1000
0100
,  // measure 80
1000
0100
0010
0001
0010
0001
0100
0001
,  // measure 81
0100
0010
1000
0001
0020
0000
0200
0000
,  // measure 82
0000
0000
0000
0000
,  // measure 83
0000
0000
0000
0000
,  // measure 84
0000
0000
0000
0000
,  // measure 85
0000
0000
0330
0000
1000
0010
1000
0000
,  // measure 86
0001
0000
0010
0100
0000
0010
1000
0000
,  // measure 87
0010
0000
0001
1000
0001
0000
0100
0000
,  // measure 88
0010
0000
1000
0001
2000
0000
0100
0000
,  // measure 89
0100
0000
3001
1000
0001
0010
0001
0000
,  // measure 90
1000
0000
0010
0100
0000
0010
0001
0000
,  // measure 91
0010
0000
1000
0001
1000
0000
0100
0000
,  // measure 92
0010
0000
0001
1000
0002
0000
0100
0000
,  // measure 93
0100
0000
1003
0001
1000
0000
1001
0000
,  // measure 94
1001
0000
0001
0010
0000
0010
0100
0000
,  // measure 95
2000
0000
3010
0100
0001
0000
1001
0000
,  // measure 96
1001
0000
1000
0100
0020
0000
0001
0000
,  // measure 97
0001
0000
0130
1000
0001
0000
1001
0000
,  // measure 98
1001
0000
1000
0010
0000
0010
0100
0000
,  // measure 99
0002
0000
0013
0100
1000
0000
1001
0000
,  // measure 100
1001
0000
0001
0100
0020
0000
1000
0000
,  // measure 101
1000
0000
0130
0001
2000
0000
0001
0000
,  // measure 102
3001
1001
0201
0310
,  // measure 103
1000
0001
0000
0001
0020
0000
0130
0000
,  // measure 104
1000
0001
0000
0100
0020
0000
1030
0000
,  // measure 105
0001
0010
0000
0100
2000
0000
3001
0000
,  // measure 106
0100
0010
0100
0001
2000
0000
3100
0000
,  // measure 107
0010
0001
0000
1000
0020
0000
0130
0000
,  // measure 108
0001
1000
0001
0000
0020
0000
0130
0000
,  // measure 109
1000
0001
0000
0100
0020
0000
0130
0010
,  // measure 110
1000
0001
1000
0000
1200
0000
0310
0000
,  // measure 111
0001
1000
0000
1000
0020
0000
0130
0000
,  // measure 112
0001
1000
0000
0100
0020
0000
0031
0000
,  // measure 113
1000
0010
0000
0100
0002
0000
1003
0000
,  // measure 114
0100
0010
0100
1000
0002
0000
0103
0000
,  // measure 115
0010
1000
0000
0001
0020
0000
0130
0000
,  // measure 116
1000
0001
1000
0000
0220
0000
0330
0000
,  // measure 117
2002
3003
0220
0330
,  // measure 118
2002
3003
0002
2003
,  // measure 119
3020
0000
0230
0000
0301
1000
0001
1000
,  // measure 120
0001
1000
0001
1000
0200
0000
0310
0000
,  // measure 121
2002
3003
1010
0101
,  // measure 122
2002
3003
0200
0310
,  // measure 123
2002
3003
0011
1100
,  // measure 124
2002
3003
0110
2002
,  // measure 125
0000
0000
0000
0000
,  // measure 126
0000
0000
3003
0110
;

//---------------dance-single - Daff_4K----------------
#NOTES:
     dance-single:
     Daff_4K:
     Hard:
     17:
     0.795839,1.264132,0.762255,0.569910,0.345508,782.000000,675.000000,107.000000,80.000000,0.000000,0.000000,0.795839,1.264132,0.762255,0.569910,0.345508,782.000000,675.000000,107.000000,80.000000,0.000000,0.000000:
// measure 0
0000
0000
0000
0000
,  // measure 1
0000
0000
0000
0000
,  // measure 2
0000
0000
0000
0000
,  // measure 3
0000
0000
0000
0000
,  // measure 4
0000
0000
0000
0000
,  // measure 5
0000
0000
0000
0000
,  // measure 6
0000
0000
0000
0000
,  // measure 7
0000
0000
0000
0000
,  // measure 8
0000
0000
0000
0000
,  // measure 9
0000
0000
0000
0000
,  // measure 10
2001
0000
3010
0200
0000
0301
1000
0100
,  // measure 11
0001
0000
1100
0000
1000
0001
0100
0000
,  // measure 12
1002
0000
0013
0200
0000
1300
0001
0100
,  // measure 13
1000
0100
0010
0100
0001
0000
1001
0000
,  // measure 14
1000
0100
0010
0001
0100
0010
1000
0001
,  // measure 15
0010
0100
0010
0000
0100
0000
1000
0000
0001
0000
0000
0000
0110
0000
0000
0000
,  // measure 16
2002
0000
0000
0000
,  // measure 17
0000
0000
0000
3003
,  // measure 18
1100
0101
0011
1010
,  // measure 19
1001
0000
0001
0010
0100
0000
1001
0000
,  // measure 20
1010
0000
0101
0000
0001
1000
0100
0010
,  // measure 21
0002
0000
0103
0010
1000
0000
1001
0000
,  // measure 22
0101
1100
1010
0011
,  // measure 23
1001
0000
1000
0010
0100
0000
1001
0000
,  // measure 24
0011
0000
1100
0000
1000
0001
0100
0010
,  // measure 25
2000
0000
3100
0010
0001
0100
0010
1000
,  // measure 26
0001
0010
0100
0010
0001
1000
0001
0100
,  // measure 27
0010
0100
0010
0000
1000
0000
0001
0000
1000
0000
0100
0000
0010
0000
0001
0000
,  // measure 28
1000
0010
0100
0010
1000
0001
1000
0100
,  // measure 29
0010
0100
0010
0000
0001
0000
1000
0000
0001
0000
0100
0000
0010
0000
1000
0000
,  // measure 30
0100
0010
0100
1000
0010
1000
0001
0010
,  // measure 31
0001
1000
0001
0000
1000
0000
0010
0000
0100
0000
0000
0000
1001
0000
0000
0000
,  // measure 32
0001
0010
1000
0010
0100
1000
0010
0001
,  // measure 33
0010
0100
0002
0000
2003
0000
3100
0000
,  // measure 34
1002
0000
0103
0010
2010
0000
3100
0001
,  // measure 35
0100
0110
1001
0000
1010
0000
0101
0000
,  // measure 36
2001
0000
3100
0010
0012
0000
0103
1000
,  // measure 37
0110
1001
1100
0011
,  // measure 38
0001
0100
0001
1000
0100
1000
0001
0100
0001
1000
0100
1000
0001
0000
0000
0000
,  // measure 39
1000
0010
1000
0001
0010
0001
1000
0010
1000
0001
0010
0001
1000
0000
0000
0000
,  // measure 40
0100
0010
0100
1000
0001
1000
0010
0100
0010
1000
0100
0010
0001
0000
0000
0000
,  // measure 41
0100
0010
0100
0001
1000
0001
0010
0100
0010
0000
0110
0000
1001
0000
0000
0000
,  // measure 42
2010
3100
0102
0013
,  // measure 43
2010
0000
3001
0000
0102
0000
1003
0001
,  // measure 44
0010
0000
0000
0100
1000
0100
1000
0000
0000
0010
0000
0000
0100
0000
0000
0001
1000
0001
1000
0000
0000
0100
0000
0000
,  // measure 45
0010
0000
0000
0001
1000
0001
1000
0000
0000
0010
0000
0000
0100
0000
0000
0001
0000
0000
1001
0000
0000
0000
0000
0000
,  // measure 46
1100
1000
1001
1000
1010
1000
1001
0001
,  // measure 47
0101
0001
1001
0001
0011
0001
1001
0001
,  // measure 48
1000
0000
0000
0000
0000
0000
0100
0000
0010
0000
0100
0000
0010
0000
0000
0000
0000
0000
0001
0000
0000
0000
0000
0000
1000
0000
0000
0000
0000
0000
0010
0000
0100
0000
0010
0000
0100
0000
0000
0000
0000
0000
0001
0000
0000
1000
0000
0000
,  // measure 49
0100
0000
0010
0001
1000
0010
1000
0001
0010
0001
0100
0010
1000
0000
0000
0000
,  // measure 50
2002
3003
0022
0000
,  // measure 51
0000
0033
2200
0000
,  // measure 52
0000
0000
0000
3300
0000
0000
1000
0010
1000
0010
1000
0010
,  // measure 53
0100
0001
0100
0001
0100
0001
0020
0000
0000
0230
0000
0000
,  // measure 54
2300
3002
0200
0000
,  // measure 55
0000
0303
2020
0000
,  // measure 56
0000
0000
0000
3030
0000
0000
1000
0001
1000
0001
1000
0001
,  // measure 57
0010
0100
0010
0100
0010
0100
2000
0000
0000
3002
0000
0000
,  // measure 58
0203
0320
2000
0000
,  // measure 59
0000
3030
0202
0000
,  // measure 60
0000
0000
0000
0303
0000
0000
0001
0010
0001
0010
0001
0010
,  // measure 61
0100
1000
0100
1000
0100
1000
0020
0000
0000
0230
0000
0000
,  // measure 62
0302
2003
0200
0000
,  // measure 63
0000
3300
0022
0000
,  // measure 64
0000
0033
0101
0101
,  // measure 65
1010
0000
1010
0000
1000
0001
0010
0000
,  // measure 66
0110
1001
0202
0000
,  // measure 67
0000
0003
2000
0000
,  // measure 68
0000
3000
0020
0000
,  // measure 69
0000
0300
2030
3002
,  // measure 70
0023
0130
2200
0000
,  // measure 71
0000
3000
0002
0000
,  // measure 72
0000
0003
0020
0000
,  // measure 73
0000
0300
0032
2003
,  // measure 74
3020
0130
0102
0100
,  // measure 75
1000
1000
0010
0010
,  // measure 76
0100
0013
2100
0100
,  // measure 77
0001
0001
0010
0010
,  // measure 78
0100
0000
3010
0000
1000
0100
0010
0100
,  // measure 79
1000
0001
0100
0010
0100
0001
0010
0100
,  // measure 80
1000
0010
0100
0001
1000
0100
0010
0001
,  // measure 81
0100
0010
1000
0001
0020
0100
0200
0000
,  // measure 82
0000
0000
0000
0000
,  // measure 83
0000
0000
0000
0000
,  // measure 84
0000
0000
0000
0000
,  // measure 85
0000
0000
0330
0000
1000
0010
0001
0010
,  // measure 86
1000
0000
0001
0000
1000
0000
0100
0000
0010
0000
0001
0000
0100
0000
0010
0100
,  // measure 87
0010
0000
1000
0000
0001
0000
0010
0001
0010
0000
0000
0000
0100
0000
1000
0000
,  // measure 88
0001
0000
1000
0000
0010
0100
0010
0000
0200
0000
0000
0000
1000
0000
0000
0000
,  // measure 89
0010
0000
0301
1000
0001
0010
1000
0010
,  // measure 90
0001
0000
1000
0000
0001
0000
0100
0000
0010
0000
1000
0000
0100
0000
0010
0100
,  // measure 91
0010
0000
0001
0000
1000
0000
0010
1000
0010
0000
0000
0000
0100
0000
0001
0000
,  // measure 92
1000
0000
0001
0000
0010
0100
0010
0000
0200
0000
0000
0000
0001
0000
0000
0000
,  // measure 93
0010
0000
0000
0000
1300
0000
0001
0000
0100
0010
0000
0000
0010
1000
0000
0000
,  // measure 94
1000
0001
0000
0000
0001
0000
0010
0000
0100
0000
0010
0000
1000
0000
0010
0000
,  // measure 95
0001
1000
0001
0000
1000
0000
0010
0000
0100
0001
0000
0000
0001
1000
0000
0000
,  // measure 96
1000
0100
0000
0000
0100
0000
0010
0000
0002
0000
0000
0000
0103
0000
0010
0000
,  // measure 97
2000
0000
0000
0000
3001
0000
1000
0000
0100
0010
0000
0000
0010
0001
0000
0000
,  // measure 98
0001
1000
0000
0000
1000
0000
0010
0000
0100
0000
0010
0000
0001
0000
0010
0000
,  // measure 99
1000
0001
1000
0000
0001
0000
0010
0000
0100
1000
0000
0000
1000
0001
0000
0000
,  // measure 100
0001
0100
0000
0000
0100
0000
0010
0000
2000
0000
0000
0000
3100
0000
0010
0000
,  // measure 101
0002
1003
0200
0010
,  // measure 102
0310
1001
1100
0011
,  // measure 103
0001
1000
0010
0100
0010
0000
1001
0000
,  // measure 104
0001
0010
0100
1000
0010
0000
1001
0000
,  // measure 105
0001
0100
1000
0100
0001
0000
1010
0000
,  // measure 106
1000
0000
0100
1000
0100
0000
0010
0000
0001
0000
0000
0000
1001
0000
0000
0000
,  // measure 107
1000
0010
0100
0001
1000
0000
0011
0000
,  // measure 108
0100
1000
0001
0100
0010
0000
1001
0000
,  // measure 109
1000
0000
0001
0000
0010
0000
0100
0010
0100
0000
1000
0000
0001
0000
0000
0000
,  // measure 110
0110
1001
0101
1010
,  // measure 111
1000
0001
0010
0100
0010
0000
1001
0000
,  // measure 112
1000
0010
0100
0001
0010
0000
1001
0000
,  // measure 113
1000
0100
0001
0100
1000
0000
0011
0000
,  // measure 114
0001
0000
0100
0001
0100
0000
0010
0000
1000
0000
0000
0000
1001
0000
0000
0000
,  // measure 115
0001
0010
0100
1000
0001
0000
1010
0000
,  // measure 116
0100
0001
1000
0000
1002
0000
0013
0000
,  // measure 117
2001
3010
1002
0103
,  // measure 118
2001
3100
0110
1001
,  // measure 119
0110
0000
1001
0000
0001
1000
0100
0010
,  // measure 120
0001
1000
0001
1000
0001
1000
0001
1000
0200
0000
0000
0000
0310
0000
0000
0000
,  // measure 121
0012
1003
0201
0310
,  // measure 122
2010
0000
3001
0000
1100
0110
0011
0000
,  // measure 123
0110
0000
1001
0000
0101
0110
1010
0000
,  // measure 124
0110
0000
1001
0000
0020
0100
0200
0000
,  // measure 125
0000
0000
0000
0000
0000
0000
0000
0000
0330
0000
0000
0000
0001
1000
0000
0000
,  // measure 126
1000
0001
0000
0000
0001
1000
0001
1000
0001
0000
0000
0000
1001
0000
0000
0000
;

//---------------dance-single - Daff_4K XVI -The Tower-----------------
#NOTES:
     dance-single:
     Daff_4K XVI -The Tower-:
     Challenge:
     18:
     0.939334,1.444722,0.762255,0.776503,0.641149,923.000000,816.000000,107.000000,109.000000,0.000000,0.000000,0.939334,1.444722,0.762255,0.776503,0.641149,923.000000,816.000000,107.000000,109.000000,0.000000,0.000000:
// measure 0
0000
0000
0000
0000
,  // measure 1
0000
0000
0000
0000
,  // measure 2
0000
0000
0000
0000
,  // measure 3
0000
0000
0000
0000
,  // measure 4
0000
0000
0000
0000
,  // measure 5
0000
0000
0000
0000
,  // measure 6
0000
0000
0000
0000
,  // measure 7
0000
0000
0000
0000
,  // measure 8
0000
0000
0000
0000
,  // measure 9
0000
0000
0000
0000
,  // measure 10
2001
0000
3010
0100
0001
1000
0100
0010
,  // measure 11
0200
0000
0310
0001
1000
0000
0110
0000
,  // measure 12
1002
0000
0013
0100
1000
0001
0100
0010
,  // measure 13
0200
0000
0000
0000
0000
0000
0000
0000
0000
0000
0000
0000
0310
0000
0000
0000
0000
0000
1000
0000
0000
0001
0000
0000
1000
0000
0000
0000
0000
0000
0001
0000
0000
0000
0000
0000
0010
0000
0000
0000
0100
0000
0000
0000
1000
0000
0000
0000
,  // measure 14
0002
0000
0103
1000
0100
0010
0100
0001
,  // measure 15
1000
0001
1000
0000
0001
1000
0001
0000
0010
0100
0010
0100
1000
0001
1000
0002
,  // measure 16
2000
0000
0000
0000
,  // measure 17
0000
0000
0000
3003
,  // measure 18
1100
0101
0011
1010
,  // measure 19
1001
0000
1000
0100
0001
0000
0110
0000
,  // measure 20
1001
0000
0101
0000
0010
1000
0001
1000
,  // measure 21
0100
0000
0010
0000
0001
0100
0001
0000
1000
0100
1000
0000
0001
0000
0000
0000
,  // measure 22
0101
1100
1010
0011
,  // measure 23
1001
0000
0001
0100
1000
0000
0110
0000
,  // measure 24
1001
0000
1100
0000
0010
0001
1000
0001
,  // measure 25
0100
0000
0000
0010
0000
0000
1000
0000
0001
0000
1000
0000
0001
0000
0000
0010
0000
0000
0100
0000
0000
1000
0000
0000
,  // measure 26
0001
0100
0010
0100
0001
0010
0100
0010
,  // measure 27
0001
1000
0001
0000
1000
0000
0010
0000
0100
0000
0001
1000
0001
0000
1000
0000
,  // measure 28
0100
0010
0100
1000
0010
0100
0010
1000
,  // measure 29
0001
0000
0000
1000
0000
0000
0001
0000
0000
0000
0000
0000
0010
0000
0000
0000
0000
0000
0100
0000
0000
0000
0000
0000
1000
0000
0000
0000
0010
0000
0000
0000
1000
0000
0000
0000
0001
0000
0000
0000
0010
0000
0000
0000
0001
0000
0000
0000
,  // measure 30
0100
0010
1000
0001
1000
0100
0010
0001
,  // measure 31
1000
0001
1000
0000
0010
0000
0100
0000
0001
0000
0010
0100
0010
0000
0100
0000
,  // measure 32
1000
0010
1000
0000
0010
1000
0010
0000
0100
0001
0100
0000
0001
0100
0001
0000
,  // measure 33
0010
0000
0100
0000
1000
0001
1000
0000
0001
0000
0100
0000
0010
0000
0000
0000
,  // measure 34
2001
0000
0000
0000
3100
0010
0001
0000
0201
0000
0000
0000
0310
1000
0001
0000
,  // measure 35
0011
0000
0110
0000
2100
0000
0000
0000
3010
0100
0000
0100
0001
0000
1000
0000
,  // measure 36
1002
0000
0000
0000
0013
0100
1000
0000
1020
0000
0000
0000
0130
0001
1000
0000
,  // measure 37
1001
0100
0011
1000
1001
0100
1010
0001
,  // measure 38
1000
0100
0100
0001
0100
0100
1000
0010
0010
0001
0010
0010
1000
0000
1001
0000
,  // measure 39
0001
0100
0100
1000
0100
0100
0001
0010
0010
1000
0010
0010
0001
0000
1001
0000
,  // measure 40
1000
0010
0010
0001
0100
0100
1000
0010
0010
0001
0100
0100
1000
0000
1001
0000
,  // measure 41
0001
0010
0010
1000
0100
0100
0001
0010
0010
0000
0110
0000
1001
0000
0000
0000
,  // measure 42
2000
0100
3002
0100
0023
1000
0230
0001
,  // measure 43
2300
0010
3002
0010
0203
1000
0320
0001
,  // measure 44
2030
0000
0000
3100
0010
0001
2000
0000
0000
0010
0000
0000
3002
0000
0000
0103
0010
1000
0002
0000
0000
0010
0000
0000
,  // measure 45
0203
0000
0000
0310
1000
0001
0020
0000
0000
0100
0000
0000
0031
0000
0000
1000
0000
0000
1001
0000
0000
0000
0000
0000
,  // measure 46
0201
0310
2010
3001
0021
0130
2001
3010
,  // measure 47
1200
0310
0012
1003
1020
0130
1002
0013
,  // measure 48
1100
0000
0000
0000
0000
0000
1000
0000
0010
0000
0100
0000
0002
0000
0000
0000
0000
0000
1003
0000
0000
0000
0000
0000
0011
0000
0000
0000
0000
0000
0001
0000
0100
0000
0010
0000
2000
0000
0000
0000
0000
0000
3001
0000
0000
1000
0000
0000
,  // measure 49
0200
0000
0000
0000
0000
0000
0000
0000
0000
0000
0000
0000
0000
0000
0000
0000
0000
0000
0000
0000
0000
0000
0000
0000
0310
0000
0000
0000
0000
0000
0000
0000
0001
0000
0000
0000
0000
0000
0000
0000
1000
0000
0000
0000
0000
0000
0000
0000
0001
0000
0000
0000
0000
0000
0000
0000
0000
0000
0000
0000
0100
0000
0000
0000
0000
0000
0000
0000
0000
0000
0000
0000
0010
0000
0000
0000
0000
0000
0000
0000
0000
0000
0000
0000
1000
0000
0000
0000
0000
0000
0000
0000
0000
0000
0000
0000
0100
0000
0000
0000
0000
0000
0010
0000
0000
0000
0000
0000
0100
0000
0000
0000
0000
0000
0000
0000
0000
0000
0000
0000
0010
0000
0000
0000
0000
0000
0000
0000
0000
0000
0000
0000
0001
0000
0000
0000
0000
0000
0000
0000
0000
0000
0000
0000
1000
0000
0000
0000
0000
0000
0000
0000
0000
0000
0000
0000
0000
0000
0000
0000
0000
0000
0000
0000
0000
0000
0000
0000
0000
0000
0000
0000
0000
0000
0000
0000
0000
0000
0000
0000
0000
0000
0000
0000
0000
0000
0000
0000
0000
0000
0000
0000
,  // measure 50
2002
3003
0202
0003
,  // measure 51
2000
3000
0002
0300
,  // measure 52
2000
0000
0000
0003
0000
0000
3100
0010
0100
0010
0001
1000
,  // measure 53
0001
1000
0010
0100
0010
0100
0001
0010
0100
0010
0100
1000
,  // measure 54
0002
1003
2020
0030
,  // measure 55
0200
0300
0002
3000
,  // measure 56
0200
0000
0000
0300
0000
0000
0013
0100
0010
0100
1000
0010
,  // measure 57
1000
0001
0010
0001
0100
0010
1000
0100
0010
0001
1000
0001
,  // measure 58
2000
3100
2200
3000
,  // measure 59
0002
0003
2000
0300
,  // measure 60
0002
0000
0000
3000
0000
0000
0103
0010
0100
0010
1000
0001
,  // measure 61
1000
0001
0010
0100
0010
0100
1000
0010
0100
0010
0100
0001
,  // measure 62
2000
3001
0022
0030
,  // measure 63
0200
0300
2000
0003
,  // measure 64
0200
3300
1010
0101
,  // measure 65
0011
0000
1100
0000
1000
0010
0001
0000
,  // measure 66
0110
1001
2200
3000
,  // measure 67
0002
0003
0020
0030
,  // measure 68
2000
0300
0020
3000
,  // measure 69
0200
0300
0032
0023
,  // measure 70
2030
3001
0202
0003
,  // measure 71
2000
3000
0020
0030
,  // measure 72
0002
0300
0020
0003
,  // measure 73
0200
0300
2030
3020
,  // measure 74
0032
0000
1003
0000
0010
0100
0010
0000
,  // measure 75
1001
0000
1000
0100
0000
0100
0001
0000
,  // measure 76
0110
0000
1001
0000
0010
0100
0010
0000
,  // measure 77
1001
0000
0001
0100
0000
0100
1000
0000
,  // measure 78
0110
0000
1001
0000
1000
0100
1000
0001
,  // measure 79
1000
0000
0010
0000
1000
0000
0001
1000
0001
0000
0100
0000
0001
0000
1000
0000
,  // measure 80
0001
0000
0010
0000
0001
0000
1000
0001
1000
0000
0010
0000
0100
0000
0001
0000
,  // measure 81
0010
0100
1000
0000
1001
0110
2002
0000
,  // measure 82
0000
0000
0000
0000
,  // measure 83
0000
0000
0000
0000
,  // measure 84
0000
0000
0000
0000
,  // measure 85
0000
0000
3003
0000
0001
0010
0100
0010
,  // measure 86
1000
0000
0010
0000
0001
0000
1000
0001
1000
0000
0010
0000
0100
0000
0001
1000
,  // measure 87
0001
0000
1000
0000
0100
0000
0010
0001
0010
0000
0000
0000
0001
0000
0100
0000
,  // measure 88
0010
0000
0100
0001
1000
0001
1000
0000
0200
0000
0000
0000
0001
0000
0000
0000
,  // measure 89
0010
0000
0000
0000
1300
0001
1000
0001
1000
0000
0010
0000
0100
0000
0010
0000
,  // measure 90
0001
0000
0010
0000
1000
0000
0001
1000
0001
0000
0010
0000
0100
0000
1000
0001
,  // measure 91
1000
0000
0001
0000
0100
0000
0010
1000
0010
0000
0000
0000
1000
0000
0100
0000
,  // measure 92
0010
0000
0100
1000
0001
1000
0001
0000
0200
0000
0000
0000
1300
0000
0100
0000
,  // measure 93
0001
0000
0000
0000
0010
0100
0010
0100
2000
0001
0000
0000
3002
0100
0000
0000
,  // measure 94
0203
0010
0000
0000
0310
0000
1000
0000
0001
0000
0010
0001
0010
0000
0100
0000
,  // measure 95
1000
0100
1000
0000
0010
0000
0100
0000
0002
1000
0000
0000
2003
0100
0000
0000
,  // measure 96
3200
0010
0000
0000
0310
0000
0001
0000
0200
0000
0000
0000
1000
0000
0000
0000
,  // measure 97
0001
0000
0000
0000
0310
0000
1000
0000
0002
1000
0000
0000
2003
0100
0000
0000
,  // measure 98
3200
0010
0000
0000
0310
0000
0001
0000
1000
0000
0010
1000
0010
0000
0100
0000
,  // measure 99
0001
0100
0001
0000
0010
0000
0100
0000
2000
0001
0000
0000
3002
0100
0000
0000
,  // measure 100
0203
0010
0000
0000
0310
0000
1000
0000
0002
0000
0000
0000
0013
0000
0100
0000
,  // measure 101
0010
0000
0001
1000
0001
0000
1000
0000
0020
0000
0000
0000
0100
0000
0000
0000
,  // measure 102
0130
0000
0000
0000
1001
0000
0000
0000
1100
0000
0000
0000
0011
0000
0000
0001
,  // measure 103
0100
0000
0010
0000
0100
0000
0001
0000
1000
0000
0000
0000
1100
0000
0000
0100
,  // measure 104
0010
0000
0001
0000
1000
0000
0010
0000
0100
0000
0000
0000
1001
0000
0000
0001
,  // measure 105
0010
0100
0010
0001
1000
0000
1001
0001
,  // measure 106
0100
0000
0010
0100
0010
0000
1000
0000
0001
0000
0000
0000
0011
0000
0000
0010
,  // measure 107
0100
0000
1000
0000
0001
0000
1000
0000
0010
0000
0000
0000
0101
0000
0000
0001
,  // measure 108
1000
0100
0010
0100
1000
0000
0110
0000
,  // measure 109
1001
0000
0001
0000
0100
0000
0010
0100
0010
0000
1000
0000
0001
0000
0010
0000
,  // measure 110
0100
0000
1000
0000
0001
0000
0000
0000
0101
0000
0000
0000
1010
0000
0000
1000
,  // measure 111
0100
0000
0010
0000
0100
0000
1000
0000
0001
0000
0000
0000
0101
0000
0000
0100
,  // measure 112
0010
0000
1000
0000
0001
0000
0010
0000
0100
0000
0000
0000
1001
0000
0000
1000
,  // measure 113
0010
0100
0010
1000
0001
0000
1001
1000
,  // measure 114
0100
0000
0010
0100
0010
0000
0001
0000
1000
0000
0000
0000
1010
0000
0000
0010
,  // measure 115
0100
0000
0001
0000
1000
0000
0001
0000
0010
0000
0000
0000
1100
0000
0000
1000
,  // measure 116
0001
0100
0010
1000
1200
0000
0310
0000
,  // measure 117
2100
3001
0201
0310
,  // measure 118
0102
1003
0011
1100
,  // measure 119
1010
0000
0000
0000
0101
0000
0000
0000
0001
1000
0001
1000
0001
1000
0001
1000
,  // measure 120
0100
0010
0100
0010
0100
0010
0100
0010
0002
0000
0000
0000
0103
0000
0010
0000
,  // measure 121
2001
0000
3100
0010
0110
0000
1001
0000
,  // measure 122
0001
0100
0000
0100
0010
0000
1000
0000
1100
0000
0110
0000
0011
0000
0000
0000
,  // measure 123
0101
0000
0110
0000
1010
0000
0000
0000
1001
0000
0001
0010
0100
1000
0010
0100
,  // measure 124
0001
0000
0110
0000
1001
0000
0000
0000
0110
0000
0000
0000
1000
0001
1000
0001
,  // measure 125
1000
0001
1000
0001
1000
0001
1000
0001
1000
0001
1000
0001
2000
0001
0000
0000
,  // measure 126
3002
0100
0000
0000
0103
0010
0100
0010
0100
0000
0000
0000
1001
0000
0000
0000
;
