#TITLE:Everything You're Not;
#SUBTITLE:;
#ARTIST:Jade Key feat. Luna Bands;
#TITLETRANSLIT:;
#SUBTITLETRANSLIT:;
#ARTISTTRANSLIT:;
#GENRE:Hard Dance;
#CREDIT:;
#MUSIC:Everything You_re Not.ogg;
#BANNER:Everything You_re Not-bn.png;
#BACKGROUND:Everything You_re Not-bg.jpg;
#CDTITLE:;
#SAMPLESTART:77.419;
#SAMPLELENGTH:18.581;
#SELECTABLE:YES;
#OFFSET:0.000;
#BPMS:0.000=155.000
,136.000=77.500
,152.000=155.000
,248.000=77.500
;
#STOPS:;
#BGCHANGES:;
#FGCHANGES:;

//--------------- dance-single - D0omsday ----------------
#NOTES:
     dance-single:
     D0omsday:
     Medium:
     12:
     0,0,0,0,0:
0000
0000
0000
0000
,
0000
0000
0000
0000
,
0001
0000
1000
0000
0001
0000
1000
0010
,
0100
0001
0000
0010
0000
0100
0000
0010
,
0001
0000
1000
0000
0010
0000
0100
0001
,
1000
0100
0000
0010
0000
1000
0000
0010
,
0100
1000
0000
0001
0000
0000
0100
0010
,
0000
1000
0000
0100
0000
0010
0000
0001
,
0100
0010
0000
0001
0000
0000
0010
0100
,
0000
0001
0000
1000
0000
0100
0000
0000
,
0010
0001
1000
0010
,
2000
0000
3200
0000
,
0320
0000
0000
0000
,
0000
0000
0032
0000
,
1003
0100
0000
0010
0000
0000
0100
1000
,
0000
0010
0000
0001
0000
0010
0000
0100
,
0002
0023
0230
2300
,
3010
0000
0100
0000
0000
0000
0001
0000
0000
0000
0010
0000
0000
0000
0010
0001
,
0010
0000
0100
0000
1000
0000
0001
0100
,
0010
0100
0001
0010
0100
1000
0020
0100
,
1030
0000
0100
0000
0010
0000
0100
1000
,
0001
0000
0100
0000
0010
0000
1000
0000
0100
0000
0010
0200
0000
0000
0010
0000
,
1300
0010
0100
0001
1000
0000
0100
0010
,
0001
0010
0100
1000
0010
1000
0002
0100
,
1003
0100
0010
0001
0100
0000
0001
0010
,
0200
0000
0000
0000
,
2300
0000
0000
0000
3002
0000
0000
0000
2003
0000
0000
0000
3001
0000
0010
0100
,
0010
0000
0000
0100
0000
0000
1000
0000
0001
0000
0100
0000
0020
0000
1000
0000
,
0130
0000
0001
0000
0010
0000
0001
1000
,
0100
0000
1000
0000
0010
0000
0100
0000
0001
1000
0000
0002
0000
0000
0010
0000
,
1003
0010
0100
0010
1000
0000
0001
0010
,
0100
0000
1000
0000
0010
0000
1000
0000
0100
0000
0000
0020
0000
0000
0001
0000
,
0130
0000
1000
0000
0001
0000
0100
0000
0010
0000
0000
1000
0000
0000
0001
0000
,
0020
0000
0000
0000
,
0130
0000
0000
0000
1000
0000
0001
0100
0001
0010
0001
0000
0100
0010
1000
0000
,
0002
0000
0000
0013
0100
0000
1000
0000
0020
0100
0000
0100
0130
0000
0001
0000
,
0020
0000
0000
0031
2000
0000
0000
3020
0000
0230
0000
0320
0000
1030
0001
0000
,
0020
0000
0000
0230
2300
0000
3002
0000
,
0103
0000
0001
0000
1000
0000
0100
0010
,
0001
0100
0000
0010
0000
0100
0000
0010
,
1000
0000
0100
0000
0010
0000
0001
1000
,
0010
1000
0000
0001
0000
0010
0000
0001
,
0100
0000
0010
0000
1000
0000
0100
0000
0010
0000
0000
0001
0000
0000
1000
0000
,
0010
0000
0000
1000
0000
0000
0001
0000
0100
0000
0000
0010
0000
0000
1000
0000
,
0200
0320
0032
2003
,
3010
0100
0000
0001
0000
0010
0000
0000
,
1001
0000
0000
0000
,
0000
0000
0000
0000
0000
0000
0000
0000
0000
0000
0000
0000
0000
0000
1000
0001
,
1000
0000
0010
0000
0100
0000
0001
0010
,
0100
0000
0010
0000
0001
0000
1000
0000
0010
0000
0100
0001
0000
0002
0010
0000
,
1003
0100
1000
0010
0100
0000
0001
0010
,
0100
0010
1000
0010
0100
0010
0002
1000
,
0103
0010
1000
0100
1000
0000
0010
0000
,
0100
0000
0001
0000
0010
0100
0000
0000
,
2000
0000
0000
0000
3002
0000
0000
0000
2003
0000
0000
0000
3001
0000
0100
0010
,
0100
0000
0000
0010
0000
0000
1000
0000
0001
0000
0010
0000
0200
0000
0010
0000
,
1300
0000
0010
0000
0100
0000
0001
1000
,
0100
0000
1000
0000
0010
0000
1000
0000
0100
0010
0000
0100
0000
0020
0001
0000
,
0130
1000
0010
1000
0001
0000
0100
0010
,
1000
0000
0100
0000
0010
0000
0100
0000
1000
0000
0000
0020
0000
0000
1000
0000
,
0130
0000
0001
0000
0010
0000
0001
0000
1000
0000
0000
0010
0000
0000
1000
0000
,
0001
0000
0010
0000
0100
1000
0000
0000
,
0020
0000
2030
3200
,
0320
0000
0030
2000
,
3020
0000
0000
0030
0000
0000
0000
0002
,
2000
0000
3003
0000
;

//--------------- dance-single - D0omsday ----------------
#NOTES:
     dance-single:
     D0omsday:
     Hard:
     14:
     0,0,0,0,0:
0000
0000
0000
0000
,
0000
0000
0000
0000
,
0001
0000
0001
0000
0001
0000
0001
0010
,
0100
1000
0000
0010
0000
1000
0000
0001
,
0010
0000
0010
0000
0010
0000
0010
0001
,
1000
0010
0000
1000
0000
0100
0000
0010
,
0010
0000
0001
0000
0000
0000
1000
0000
0000
0000
0000
0000
0010
0100
0010
0000
,
0000
0010
0000
2000
0000
3100
0000
0100
,
0100
1000
0000
0010
0000
0000
0100
0001
,
0000
1000
0000
0001
0000
0020
0000
0000
,
0130
1000
0001
0100
,
0020
1000
0230
0010
,
0302
0010
1000
0010
,
0100
1000
0023
0100
,
0031
0100
0001
1000
0100
0010
1000
0010
,
0100
0010
0001
1000
0010
0001
0010
1000
,
0001
0000
0000
0000
0010
0000
0000
0000
0100
0000
0000
0000
1000
0000
0000
0001
0000
0000
0100
0000
0000
0001
0000
0000
0000
0000
0000
0010
0000
0000
0100
0000
0000
0010
0000
0000
0000
0000
0000
0100
0000
0000
1000
0000
0000
0100
0000
0000
,
2000
0000
0010
0000
0000
0000
0100
0000
0000
0000
0001
0000
0000
0000
3010
0010
,
0001
0101
1010
1100
,
0110
0000
0000
0000
0011
0000
0000
0000
1010
0000
0001
0000
0101
0000
0100
0100
,
1000
1001
1010
0011
,
0101
0000
0000
0000
1100
0000
0000
0000
0110
0000
0000
0110
0000
0010
0100
0100
,
0010
1001
0101
1010
,
1100
0000
0000
0000
0011
0000
0000
0000
0110
0000
1000
0000
1010
0000
0010
0010
,
0001
1100
1010
0110
,
0001
0000
0010
0000
0100
1000
0000
0010
,
2000
0000
0000
0000
3002
0000
0000
0000
2003
0000
0000
0000
3002
0000
0013
0010
,
1000
0000
0000
1100
0000
0000
0110
0000
0001
0000
1000
0000
0010
0000
0100
0100
,
1000
1010
0011
0110
,
1001
0000
0000
0000
0101
0000
0000
0000
0001
0010
0000
1010
0000
1000
0100
0100
,
0001
1010
1100
0110
,
1001
0000
0000
0000
0011
0000
0000
0000
0101
0000
0000
1010
0000
0000
0010
0010
,
0001
0000
0000
0000
1100
0000
0000
0000
0101
0000
0000
1001
0000
0000
1010
0000
,
1000
0000
0100
0000
0010
0001
0000
0000
,
2000
0000
0000
0000
3010
0000
1000
0001
0010
0001
1000
0000
0010
0100
1000
0100
,
0002
0000
0000
0010
0013
0000
0100
0000
2000
0001
0000
0001
3010
0000
0000
0100
,
0001
0000
0000
1000
0001
0000
0000
0020
0000
0230
0000
0320
0001
0130
1000
0001
,
0101
0000
0001
0010
0100
0000
1000
0000
0020
0000
0000
0000
0032
0000
0000
0000
,
0013
0000
0010
0000
0010
0000
0010
0100
,
0001
0010
0000
0001
0000
1000
0000
0100
,
0010
0000
0010
0000
0010
0000
0010
0001
,
1000
0010
0000
1000
0000
0001
0000
0010
,
0010
0000
0100
0000
1000
0000
0001
0000
0100
0000
0100
0010
0000
0010
1000
0000
,
0001
0000
0001
0010
0000
0010
0001
0000
1000
0000
1000
0010
0000
0010
0100
0000
,
0001
0000
0000
0000
0010
0000
0000
0000
0100
0000
0000
0000
1000
0000
0000
0010
0000
0000
0100
0000
0000
0010
0000
0000
0000
0000
0000
1000
0000
0000
0001
0000
0000
1000
0000
0000
0000
0000
0000
0100
0000
0000
0010
0000
0000
0100
0000
0000
,
0020
0001
0000
0100
0000
1030
0010
0100
,
2200
0000
0000
0000
,
0000
0000
0000
0000
0000
0000
0000
0000
3000
0000
0000
0000
0000
0000
0301
0001
,
0010
0011
1010
0101
,
0110
0000
0000
0000
1001
0000
0000
0000
1100
0000
0000
0110
0000
0010
1000
1000
,
0100
0011
0101
1010
,
0110
0000
0000
0000
1001
0000
0000
0000
1100
0000
0100
0000
0110
0000
0001
0001
,
0010
1001
1010
0101
,
0001
0000
0100
0000
0010
1000
0000
0001
,
2000
0000
0000
0000
3002
0000
0000
0000
2003
0000
0000
0000
3020
0000
0031
0001
,
0100
0000
0000
1010
0000
0000
1100
0000
0100
0000
0010
0000
0100
0000
0001
0001
,
0010
1100
1010
0110
,
1001
0000
0000
0000
0011
0000
0000
0000
0001
0100
0000
0010
0000
0100
1000
1000
,
0010
0101
0011
0110
,
1001
0000
0000
0000
1010
0000
0000
0000
1100
0000
0000
0110
0000
0000
1000
1000
,
0100
0000
0000
0000
0011
0000
0000
0000
1010
0000
0000
0110
0000
0000
0101
0000
,
0001
0000
0010
0000
0100
1000
0000
0000
,
0010
0000
0010
0000
0010
0000
0010
0100
0001
0010
0000
1000
0000
0010
0000
0001
,
0100
0000
0100
0000
0100
0000
0100
0010
1000
0001
0000
0010
0000
1000
0000
0010
,
0010
0001
0000
1000
0000
0000
0010
0100
0000
1000
0000
0001
0000
0010
0000
1000
,
1000
0001
0000
0100
0000
0000
0010
1000
0000
0100
0000
0010
0000
0002
0000
0000
,
0003
0000
0000
0000
;
