#TITLE:Driveshaft;
#SUBTITLE:;
#ARTIST:Simon Viklund;
#TITLETRANSLIT:;
#SUBTITLETRANSLIT:;
#ARTISTTRANSLIT:;
#GENRE:;
#CREDIT:;
#BANNER:Driveshaft.png;
#BACKGROUND:Driveshaft-bg.png;
#LYRICSPATH:;
#CDTITLE:;
#MUSIC:Driveshaft.ogg;
#OFFSET:-0.008000;
#SAMPLESTART:67.773003;
#SAMPLELENGTH:22.587999;
#SELECTABLE:YES;
#BPMS:0.000000=170.000000
;
#STOPS:
;
#BGCHANGES:;
#KEYSOUNDS:;
#ATTACKS:;

//---------------dance-single - ----------------
#NOTES:
     dance-single:
     :
     Hard:
     15:
     0.686879,0.920768,0.279227,0.299658,0.510781,706.000000,665.000000,41.000000,44.000000,0.000000,0.000000,0.686879,0.920768,0.279227,0.299658,0.510781,706.000000,665.000000,41.000000,44.000000,0.000000,0.000000:
0000
0000
0000
0000
,
0000
0000
0000
0000
,
0000
0000
0000
0000
,
0000
0000
0000
0000
,
0000
0000
0000
0000
,
0000
0000
0000
0000
,
0000
0000
0000
0000
,
0000
0000
0000
0000
0000
1000
0100
0010
,
0002
0000
0000
0203
0000
0000
0302
0000
,
0000
0023
0000
0000
0031
1000
0100
1000
,
0020
0000
0000
2030
0000
0000
3200
0000
,
0000
2300
0000
0000
3001
0010
0100
1000
,
0020
0000
0000
0032
0000
0000
2003
0000
,
0000
3200
0000
0000
0301
1000
0100
0001
,
0200
0000
0000
2300
0000
0000
3002
0000
,
0000
0023
0000
0000
0130
1000
0001
0100
,
1000
0000
0100
0000
0010
0000
1000
0001
0000
0000
0000
0000
1001
0000
0000
0000
,
1000
0000
0100
0000
0001
0000
0100
0010
0000
0000
0000
0000
0011
0000
0000
0000
,
0001
0000
1000
0000
0010
0000
0100
1000
0000
0000
0000
0000
0101
0000
0000
0000
,
0001
0000
1000
0000
0100
0000
0001
0100
0000
0010
0100
0000
1100
0000
0000
0000
,
0001
0000
0100
0000
1000
0000
0100
0010
0000
0000
0000
0000
1010
0000
0000
0000
,
1000
0000
0001
0000
0010
0000
0100
0001
0000
0000
0000
0000
1100
0000
0000
0000
,
0001
0000
0100
0000
0010
0000
1000
0001
0000
0000
0000
0000
0011
0000
0000
0000
,
1000
0000
0100
0010
0001
0000
1000
0010
1000
0010
0100
0000
0000
0000
0100
0000
,
0001
0000
1000
0000
0100
0000
0010
1000
0000
0000
0000
0000
0011
0000
0000
0000
,
1000
0000
0010
0000
0001
0000
0010
0100
0000
0000
0000
0000
0101
0000
0000
0000
,
1000
0000
0100
0000
0010
0000
0001
1000
0000
0000
0000
0000
0101
0000
0000
0000
,
0010
0000
1000
0000
0001
0000
0010
1000
0000
0010
0100
0000
0110
0000
0000
0000
,
1000
0000
0001
0000
0100
0000
0010
0001
0000
0000
0000
0000
1010
0000
0000
0000
,
0001
0000
0010
0000
1000
0000
0010
0100
0000
0000
0000
0000
1100
0000
0000
0000
,
0001
0000
0100
0000
0010
0000
1000
0001
0000
0000
0000
0000
0011
0000
0000
0000
,
0001
0000
0010
0100
1000
0000
0001
0100
0001
0100
0010
0000
0000
0000
0010
0000
,
1010
0000
0000
0000
1000
0000
0001
0020
0000
0000
0000
0000
0130
0000
0000
0000
,
1100
0000
0000
0000
0001
0000
0100
0020
0000
0000
0000
0000
1030
0000
0000
0000
,
0011
0000
0000
0000
0100
0000
1000
0002
0000
0000
0000
0000
0103
0000
0000
0000
,
1010
0000
0000
0000
0010
0000
1000
0001
0000
0001
1000
0000
1100
0000
0000
0000
,
0011
0000
0000
0000
0001
0000
1000
0020
0000
0000
0000
0000
0130
0000
0000
0000
,
0101
0000
0000
0000
1000
0000
0100
0020
0000
0000
0000
0000
0031
0000
0000
0000
,
1010
0000
0000
0000
0100
0000
0001
2000
0000
0000
0000
0000
3100
0000
0000
0000
,
0010
0001
0010
0001
2000
0000
0000
0000
3000
0000
1010
0000
0000
0000
0101
0000
,
0001
0000
0000
0000
1000
0000
0001
0020
0000
0000
0000
0000
1030
0000
0000
0000
,
0110
0000
0000
0000
1000
0000
0001
0200
0000
0000
0000
0000
1300
0000
0000
0000
,
0101
0000
0000
0000
0100
0000
0010
2000
0000
0000
0000
0000
3001
0000
0000
0000
,
0011
0000
0000
0000
0100
0000
1000
0001
0000
0001
1000
0000
1010
0000
0000
0000
,
0101
0000
0000
0000
0001
0000
1000
0020
0000
0000
0000
0000
0031
0000
0000
0000
,
0110
0000
0000
0000
0100
0000
0001
2000
0000
0000
0000
0000
3100
0000
0000
0000
,
0020
0000
0000
0030
,
0001
0000
1000
0001
1000
0000
0001
0010
0100
1000
0010
0000
0000
0000
0010
0000
,
1000
0010
1000
0000
0010
0001
0000
1000
0100
0000
0100
0000
0001
0100
0001
0000
,
1000
0100
0010
0000
1000
0010
0000
0001
1000
0000
1000
0000
0001
1000
0001
0000
,
0100
0010
1000
0000
0001
0010
0000
1000
0010
0000
0010
0000
0100
1000
0100
0000
,
1000
0001
0100
0000
0010
1000
0000
0001
0020
0000
0000
0000
0130
0000
0000
0000
,
1000
0000
0100
0000
0001
0000
0000
1100
0000
0000
0000
0000
1000
0001
0000
0000
,
0100
0000
0010
0000
1000
0000
0000
0011
0000
0000
0000
0000
0100
1000
0000
0000
,
0001
0000
0100
0000
1000
0000
0000
0101
0000
0000
0000
0000
0100
0010
0000
0000
,
2000
0000
0000
0000
0000
0000
0000
3000
,
0001
0010
0001
0000
0010
1000
0000
0001
0100
0000
0100
0000
1000
0100
1000
0000
,
0001
0100
0010
0000
0001
0010
0000
1000
0001
0000
0001
0000
1000
0001
1000
0000
,
0100
0010
0001
0000
1000
0010
0000
0001
0010
0000
0010
0000
0100
0001
0100
0000
,
0001
1000
0100
0000
0010
0001
0000
1000
0020
0000
0000
0000
0130
0000
0000
0000
,
0001
0000
0100
0000
1000
0000
0000
0101
0000
0000
0000
0000
0001
1000
0000
0000
,
0100
0000
0010
0000
0001
0000
0000
1010
0000
0000
0000
0000
0100
0001
0000
0000
,
1000
0000
0100
0000
0001
0000
0000
1100
0000
0000
0000
0000
0100
0010
0000
0000
,
0002
0000
0000
0000
0000
0000
0000
0003
,
1000
0000
0100
0000
0010
0000
0100
1000
0100
0000
0010
0000
0001
0000
1000
0000
,
0010
0000
0001
0000
0010
0000
0100
0001
0100
0000
0010
0000
0100
0000
0001
0000
,
1000
0000
0100
0000
0001
0000
0100
1000
0100
0000
0010
0000
0100
0000
1000
0000
,
0001
0000
0100
0000
0010
0000
1000
0001
0010
0100
1000
0000
0100
0000
0001
0000
,
0100
0000
1000
0000
0100
0000
0010
0001
0010
0000
0001
0000
0100
0000
1000
0000
,
0100
0000
0001
0000
0100
0000
0010
1000
0010
0000
1000
0000
0001
0000
0010
0000
,
0100
0000
0001
0000
0100
0000
1000
0100
1000
0000
0100
0000
0010
0000
0001
0000
,
1000
0010
1000
0010
0100
0001
0100
0001
1000
0001
1000
0001
1000
0100
0010
0001
,
1000
0000
0010
0000
1000
0000
0001
0100
1000
0000
0100
0000
0001
0000
0100
0000
,
0010
0000
1000
0000
0001
0000
0010
0100
1000
0000
0100
0000
0001
0000
0100
0000
,
1000
0000
0001
0000
0100
0000
0010
1000
0001
0000
0010
0000
1000
0000
0010
0000
,
0001
0000
0010
0000
0100
0000
1000
0001
0100
0010
1000
0000
0001
0000
1000
0000
,
0001
0000
0010
0000
0001
0000
1000
0100
0001
0000
0100
0000
1000
0000
0100
0000
,
0010
0000
0001
0000
1000
0000
0010
0100
0001
0000
0100
0000
1000
0000
0100
0000
,
0001
0000
1000
0000
0100
0000
0010
0001
1000
0000
0010
0000
0001
0000
0010
0000
,
0200
0000
0000
0300
,
0001
0000
0001
0000
0001
0000
0000
1000
0100
0000
0010
0000
0010
0000
0000
0001
,
1000
0000
1000
0000
1000
0000
0000
0001
0100
0000
0010
0000
0010
0000
0000
1000
,
0001
0000
0001
0000
0001
0000
0000
0010
0100
0000
1000
0000
1000
0000
0000
0001
,
1000
0000
1000
0000
1000
0000
0010
0100
0001
1000
0100
0000
0010
0000
0000
0000
,
0001
0000
0010
0000
0001
0000
0000
1000
0010
0000
0100
0000
0100
0000
0000
0001
,
1000
0000
0100
0000
1000
0000
0000
0100
0010
0000
0001
0000
0001
0000
0000
0100
,
0010
0000
1000
0000
0010
0000
0000
1000
0001
0000
0010
0000
0010
0000
0000
0100
,
1000
0000
0001
0000
1000
0000
0001
0100
0010
1000
0100
0000
0010
0000
0000
0000
,
0001
0000
0010
0000
1000
0000
0000
0001
0100
0000
1000
0000
0001
0000
0000
1000
,
0010
0000
0100
0000
0001
0000
0000
1000
0100
0000
0001
0000
0100
0000
0000
1000
,
0001
0000
0100
0000
1000
0000
0000
0100
0010
0000
1000
0000
0001
0000
0000
0010
,
0100
0000
1000
0000
0001
0000
0100
0010
1000
0001
0010
0000
0100
0000
0000
0000
,
1000
0000
0010
0000
0001
0000
0000
1000
0100
0000
0001
0000
1000
0000
0000
0001
,
0010
0000
0100
0000
1000
0000
0000
0001
0100
0000
1000
0000
0100
0000
0000
0001
,
1000
0000
0100
0000
0001
0000
0000
0100
0010
0000
0001
0000
1000
0000
0000
0010
,
0100
0001
0100
0001
1000
0100
1000
0100
0010
0001
0010
0001
1000
0001
1000
0001
,
2000
0000
0000
0000
3010
0000
1000
0001
0000
0000
0000
0000
0101
0000
0000
0000
,
0002
0000
0000
0000
0013
0000
0001
1000
0000
0000
0000
0000
1100
0000
0000
0000
,
0002
0000
0000
0000
0103
0000
0010
1000
0000
0000
0000
0000
1001
0000
0000
0000
,
2000
0000
0000
0000
3100
0000
0010
0001
0000
0000
0000
0000
1001
0000
0000
0000
,
0002
0000
0000
0010
0000
0000
0010
0000
,
2003
0010
0000
0000
0010
0000
0000
0000
,
3020
0000
0000
0100
0000
0000
0100
0000
,
0000
0200
0000
0330
2002
0000
0000
0000
,
3003
0000
0000
0000
;

//---------------dance-single - ----------------
#NOTES:
     dance-single:
     :
     Medium:
     11:
     0.454352,0.531212,0.217933,0.286037,0.105561,467.000000,435.000000,32.000000,42.000000,0.000000,0.000000,0.454352,0.531212,0.217933,0.286037,0.105561,467.000000,435.000000,32.000000,42.000000,0.000000,0.000000:
// measure 0
0000
0000
0000
0000
,  // measure 1
0000
0000
0000
0000
,  // measure 2
0000
0000
0000
0000
,  // measure 3
0000
0000
0000
0000
,  // measure 4
0000
0000
0000
0000
,  // measure 5
0000
0000
0000
0000
,  // measure 6
0000
0000
0000
0000
,  // measure 7
0000
0000
0000
0000
,  // measure 8
0002
0000
0000
0023
0000
0000
0032
0000
,  // measure 9
0000
0203
0000
0000
0310
0000
1000
0000
,  // measure 10
0200
0000
0000
2300
0000
0000
3020
0000
,  // measure 11
0000
2030
0000
0000
3001
0000
0010
0000
,  // measure 12
0200
0000
0000
0302
0000
0000
0203
0000
,  // measure 13
0000
2300
0000
0000
3001
0000
0100
0000
,  // measure 14
0020
0000
0000
2030
0000
0000
3002
0000
,  // measure 15
0000
0023
0000
0000
0130
0000
1000
0000
,  // measure 16
0001
0000
0100
0000
0001
0000
0000
0010
0000
0000
0000
0000
1100
0000
0000
0000
,  // measure 17
1000
0000
0001
0000
0100
0000
0000
0010
0000
0000
0000
0000
1010
0000
0000
0000
,  // measure 18
1000
0000
0100
0000
1000
0000
0000
0001
0000
0000
0000
0000
0011
0000
0000
0000
,  // measure 19
0100
0000
1000
0000
0001
0000
0100
0000
0000
0100
0000
0000
0110
0000
0000
0000
,  // measure 20
1000
0000
0100
0000
1000
0000
0000
0010
0000
0000
0000
0000
0101
0000
0000
0000
,  // measure 21
0001
0000
1000
0000
0100
0000
0000
0010
0000
0000
0000
0000
0011
0000
0000
0000
,  // measure 22
0001
0000
0100
0000
0001
0000
0000
1000
0000
0000
0000
0000
1010
0000
0000
0000
,  // measure 23
0100
0001
0010
0000
0000
0100
0000
0100
,  // measure 24
1000
0000
0001
0000
0100
0000
0000
1000
0000
0000
0000
0000
0101
0000
0000
0000
,  // measure 25
0001
0000
1000
0000
0100
0000
0000
0001
0000
0000
0000
0000
1100
0000
0000
0000
,  // measure 26
0100
0000
0010
0000
0001
0000
0000
1000
0000
0000
0000
0000
0110
0000
0000
0000
,  // measure 27
0001
0000
1000
0000
0100
0000
0010
0000
0000
0010
0000
0000
0011
0000
0000
0000
,  // measure 28
1000
0000
0010
0000
0100
0000
0000
0001
0000
0000
0000
0000
0011
0000
0000
0000
,  // measure 29
0001
0000
0010
0000
0100
0000
0000
1000
0000
0000
0000
0000
1010
0000
0000
0000
,  // measure 30
0010
0000
0100
0000
0001
0000
0000
1000
0000
0000
0000
0000
0110
0000
0000
0000
,  // measure 31
0001
1000
0010
0000
0000
0100
0000
0100
,  // measure 32
0002
0000
0000
0013
0000
0000
0000
0000
,  // measure 33
2000
0000
0000
3010
0000
0000
0000
0000
,  // measure 34
0002
0000
0000
1003
0000
0000
0000
0000
,  // measure 35
0010
0000
0000
0000
0000
0000
0100
0000
0000
0100
0000
0000
0101
0000
0000
0000
,  // measure 36
2000
0000
0000
3100
0000
0000
0000
0000
,  // measure 37
0002
0000
0000
0103
0000
0000
0000
0000
,  // measure 38
2000
0000
0000
3001
0000
0000
0000
0000
,  // measure 39
0100
0010
1000
0000
0000
0001
0000
0001
,  // measure 40
0011
0000
0000
0000
0000
0000
0100
1000
0000
0000
0000
0000
0000
0000
0000
0000
,  // measure 41
1010
0000
0000
0000
0000
0000
0100
0001
0000
0000
0000
0000
0000
0000
0000
0000
,  // measure 42
0101
0000
0000
0000
0000
0000
0001
1000
0000
0000
0000
0000
0000
0000
0000
0000
,  // measure 43
1100
0000
0000
0000
0000
0000
0010
0000
0000
0010
0000
0000
0010
0000
0000
0000
,  // measure 44
0011
0000
0000
0000
0000
0000
0001
1000
0000
0000
0000
0000
0000
0000
0000
0000
,  // measure 45
1010
0000
0000
0000
0000
0000
1000
0001
0000
0000
0000
0000
0000
0000
0000
0000
,  // measure 46
0020
0000
0000
0030
,  // measure 47
0100
1000
0001
0100
0010
1000
0000
1000
,  // measure 48
0001
0010
0001
0000
1000
1000
0100
0000
,  // measure 49
1000
0010
1000
0000
0001
0001
0100
0000
,  // measure 50
0001
0010
0100
0000
1000
1000
0001
0000
,  // measure 51
1000
0010
0100
0000
0001
0001
1000
0000
,  // measure 52
0001
0000
0010
0000
0001
0000
0000
2200
0000
0000
0000
0000
3300
0000
0000
0000
,  // measure 53
1000
0000
0010
0000
1000
0000
0000
0202
0000
0000
0000
0000
0303
0000
0000
0000
,  // measure 54
0001
0000
1000
0000
0100
0000
0000
0022
0000
0000
0000
0000
0033
0000
0000
0000
,  // measure 55
2000
0000
0000
3000
,  // measure 56
0001
0010
1000
0000
0010
0010
0100
0000
,  // measure 57
1000
0001
0100
0000
0010
0010
1000
0000
,  // measure 58
1000
0010
0001
0000
0010
0010
0100
0000
,  // measure 59
0001
1000
0100
0000
0010
0010
0001
0000
,  // measure 60
0010
0000
0100
0000
1000
0000
0000
2020
0000
0000
0000
0000
3030
0000
0000
0000
,  // measure 61
0010
0000
0100
0000
0001
0000
0000
0022
0000
0000
0000
0000
0033
0000
0000
0000
,  // measure 62
0100
0000
1000
0000
0001
0000
0000
0220
0000
0000
0000
0000
0330
0000
0000
0000
,  // measure 63
2000
0000
0000
3000
,  // measure 64
0001
0000
0010
0000
0001
1000
0100
0000
,  // measure 65
1000
0000
0010
0000
0100
0001
1000
0000
,  // measure 66
0100
0000
0001
0000
0100
0010
0001
0000
,  // measure 67
1000
0000
0010
0100
0001
1000
0100
0000
,  // measure 68
0001
0000
0100
0000
1000
0100
0010
0000
,  // measure 69
0001
0000
1000
0000
0010
0100
0010
0000
,  // measure 70
1000
0000
0001
0000
0010
0100
1000
0000
,  // measure 71
0001
0000
0100
0010
1000
0001
0010
0100
,  // measure 72
1000
0000
0010
0000
1000
0001
0100
0000
,  // measure 73
0001
0000
0010
0000
0100
1000
0001
0000
,  // measure 74
0100
0000
1000
0000
0100
0010
1000
0000
,  // measure 75
0001
0000
0010
0100
1000
0001
0100
0000
,  // measure 76
1000
0000
0100
0000
0001
0100
0010
0000
,  // measure 77
1000
0000
0001
0000
0010
0100
0010
0000
,  // measure 78
0001
0000
1000
0000
0010
0100
0001
0000
,  // measure 79
2000
0000
0000
3000
,  // measure 80
0001
0010
0001
0000
1000
0100
1000
0000
,  // measure 81
1000
0010
1000
0000
0001
0100
0001
0000
,  // measure 82
0001
1000
0100
0000
0010
0001
1000
0000
,  // measure 83
0010
0100
0001
1000
0100
0010
0001
0000
,  // measure 84
1000
0010
1000
0000
0001
0100
0001
0000
,  // measure 85
0001
0010
0001
0000
1000
0100
1000
0000
,  // measure 86
1000
0001
0100
0000
0010
1000
0001
0000
,  // measure 87
0010
0100
1000
0001
0100
0010
1000
0000
,  // measure 88
0001
0010
1000
0000
0010
0100
1000
0000
,  // measure 89
1000
0010
0001
0000
0010
0100
0001
0000
,  // measure 90
1000
0100
0010
0000
0001
1000
0010
0000
,  // measure 91
0100
0001
1000
0100
0010
0001
1000
0000
,  // measure 92
0001
0100
1000
0000
0100
0010
1000
0000
,  // measure 93
1000
0100
0001
0000
0100
0010
0001
0000
,  // measure 94
1000
0010
0100
0000
0001
1000
0100
0000
,  // measure 95
0010
0001
0010
0001
1000
0010
1000
0010
,  // measure 96
0100
0000
0000
0000
0001
0000
0000
1000
0000
0000
0000
0000
0011
0000
0000
0000
,  // measure 97
0100
0000
0000
0000
1000
0000
0000
0001
0000
0000
0000
0000
1010
0000
0000
0000
,  // measure 98
0001
0000
0000
0000
0010
0000
0000
0100
0000
0000
0000
0000
1100
0000
0000
0000
,  // measure 99
1000
0000
0000
0000
0010
0000
0000
0100
0000
0000
0000
0000
0101
0000
0000
0000
,  // measure 100
0002
0000
0000
1000
0000
0000
2003
0000
,  // measure 101
0000
0001
0000
0000
3001
0000
0000
0000
,  // measure 102
0001
0000
0000
1000
0000
0000
0010
0000
,  // measure 103
0000
0100
0000
0000
2002
0000
0000
0000
,  // measure 104
3003
0000
0000
0000
;
