#TITLE:Divine Intervention;
#SUBTITLE:;
#ARTIST:DM DOKURO;
#TITLETRANSLIT:;
#SUBTITLETRANSLIT:;
#ARTISTTRANSLIT:;
#GENRE:;
#CREDIT:;
#BANNER:banner.png;
#BACKGROUND:bg.png;
#LYRICSPATH:;
#CDTITLE:;
#MUSIC:Divine Intervention.ogg;
#OFFSET:0.300000;
#SAMPLESTART:11.726001;
#SAMPLELENGTH:12.599999;
#SELECTABLE:YES;
#BPMS:0.000000=200.000000
,1.000000=100.000000
,17.000000=200.000000
,18.000000=100.000000
,21.000000=200.000000
,249.000000=150.000000
,255.000000=75.000000
,287.000000=150.000000
;
#STOPS:
;
#BGCHANGES:;
#KEYSOUNDS:;
#ATTACKS:;

//---------------dance-single - ----------------
#NOTES:
     dance-single:
     :
     Challenge:
     17:
     0.695261,1.238208,0.260009,0.500017,0.526684,730.000000,691.000000,39.000000,75.000000,0.000000,0.000000,0.695261,1.238208,0.260009,0.500017,0.526684,730.000000,691.000000,39.000000,75.000000,0.000000,0.000000:
// measure 0
0000
0000
0000
0000
,  // measure 1
0000
0000
0000
0000
,  // measure 2
0000
2000
0000
3200
,  // measure 3
0000
0000
1300
1000
0001
0001
0100
0100
,  // measure 4
0010
0010
2000
0000
0000
0000
0000
0000
,  // measure 5
0000
0000
0000
0000
3001
1000
0001
1000
0100
0000
0000
0000
1000
0000
0000
0000
0100
0000
0000
0000
0010
0000
0000
0000
0100
0000
0000
0000
1000
0000
0000
0000
,  // measure 6
0001
1000
0010
0000
0100
0001
0100
0000
0010
0000
0100
0000
0001
0000
0001
0000
,  // measure 7
0010
0000
0001
0000
0010
0000
0100
0010
0100
0000
1000
0000
1000
0001
0100
0000
,  // measure 8
0010
1000
0010
0000
0100
0001
0100
0001
1000
0000
0100
0000
1000
0000
0001
0100
,  // measure 9
0010
0000
1000
0000
1000
0000
0010
0000
0100
0010
1000
0000
0001
1000
0100
0000
,  // measure 10
0010
0000
0100
0010
0100
0000
1000
0100
1000
0000
0001
0100
0010
0000
0001
0010
,  // measure 11
0100
0000
0010
0000
0100
0000
0010
0000
0010
1000
0001
0000
0010
0000
1000
0000
,  // measure 12
0010
0000
0100
0000
2000
0000
0000
0000
3100
0010
1000
0000
0010
0100
1000
0000
,  // measure 13
0001
0000
0100
0000
0010
0000
0100
0010
0001
0000
0010
0000
1000
0000
1000
0000
,  // measure 14
0100
0000
0010
0000
0100
0001
0100
0000
0010
0000
0001
0000
1000
0010
0200
0000
,  // measure 15
0000
0000
0310
0100
1000
0000
0100
0001
1000
0000
0001
0000
2000
0000
0000
0000
,  // measure 16
3010
0000
0100
1000
0100
0000
0010
0000
0100
0000
0001
0000
1000
0000
0100
0000
,  // measure 17
0010
0000
1000
0000
0010
0000
0001
0000
0001
0000
1000
0001
0100
0000
1000
0000
,  // measure 18
0001
0010
1000
0100
0010
0001
0100
1000
,  // measure 19
0200
0000
0301
0100
0010
1000
0001
1000
,  // measure 20
1020
1030
1100
1001
,  // measure 21
0001
0001
0100
0001
0020
0000
0031
1000
,  // measure 22
0010
0000
1000
0000
0100
1000
0100
0000
1000
0000
0010
0000
0100
0000
0001
0000
,  // measure 23
0021
0031
0101
1002
,  // measure 24
1003
0010
0000
0010
0100
0001
0000
1000
,  // measure 25
0001
0001
2000
0010
0000
3010
0100
0001
,  // measure 26
0201
0000
0301
0000
0001
0010
2000
0000
,  // measure 27
3010
0100
0010
0001
1000
1000
0002
0000
,  // measure 28
0023
0000
0000
0000
0130
0000
1000
0000
0100
0000
0010
0100
0010
0000
0100
0000
,  // measure 29
1200
0000
1300
0000
1100
0000
0001
0010
,  // measure 30
0001
0100
0010
0100
0001
1000
0001
0020
,  // measure 31
0000
0130
0010
0001
1000
0010
0000
0010
,  // measure 32
0100
1000
0100
0010
0100
0001
1000
1000
,  // measure 33
0001
0000
0000
0010
0000
0000
0100
0000
0000
0010
0000
0000
0001
0000
0100
0000
0010
0000
1000
0000
0000
0001
0000
0000
,  // measure 34
1000
0100
0000
0100
0010
1000
0010
0100
,  // measure 35
2000
0000
3100
0010
0001
0010
0100
0010
,  // measure 36
0002
0000
1003
0002
0000
0103
0020
0000
,  // measure 37
2030
0000
3002
0000
0103
0020
0000
0130
,  // measure 38
1000
0100
0001
1000
0200
0000
0310
0002
,  // measure 39
0000
0013
1000
0010
0001
1000
0010
0000
,  // measure 40
0000
1001
0000
0000
1100
0000
0021
0000
,  // measure 41
0000
0100
0000
0000
0001
0000
0000
0100
,  // measure 42
0000
0000
0001
0000
0000
0100
0000
0000
,  // measure 43
0001
0000
0001
0000
0031
0000
0100
0001
,  // measure 44
0100
0000
0010
0000
0100
0001
0100
0000
,  // measure 45
0001
0010
0100
1000
0100
0010
1000
0010
,  // measure 46
0001
0000
0100
0000
2000
0000
0000
0000
3100
0000
0001
0000
1000
0100
1000
0100
,  // measure 47
0010
0000
0001
0000
0100
0000
0010
0000
1000
0000
0010
0100
0010
0000
1000
0000
,  // measure 48
0001
0000
1000
0000
0100
0000
0010
0000
0001
0000
0010
0000
0100
1000
0100
1000
,  // measure 49
0001
0000
1000
0000
0100
0000
1000
0000
0010
0000
0100
0010
1000
0000
0010
0000
,  // measure 50
0100
0000
0001
0000
1000
0000
0100
0000
0010
0000
0001
0000
0010
0001
0010
0001
,  // measure 51
1000
0000
0100
0000
1000
0000
0001
0000
0100
0000
0010
1000
0010
0000
1000
0000
,  // measure 52
0001
0000
0100
0000
0001
0000
0010
0000
0100
0000
1000
0000
0001
0100
0001
0100
,  // measure 53
0010
0000
1000
0000
0010
0000
0100
0000
0001
0000
1000
0001
0010
0000
0000
0000
,  // measure 54
0010
0000
0100
0000
1100
0000
0000
0000
1000
0001
0100
0000
0001
0000
0022
0000
,  // measure 55
0000
0000
0033
0000
0101
0000
0000
0000
0001
1000
0100
0000
1000
0000
2020
0000
,  // measure 56
0000
0000
3030
0000
1100
0000
0000
0000
0100
0010
1000
0000
0010
0000
0220
0000
,  // measure 57
0000
0000
0330
0000
1001
0000
0000
0000
0001
0100
1000
0000
0100
0000
0210
0000
,  // measure 58
0000
0000
0310
0000
1010
0000
0000
0000
1000
0100
0010
0000
0011
0000
0001
0100
,  // measure 59
0000
0000
0010
0000
0110
0000
0000
0000
0010
1000
0100
0000
2100
0000
0000
3200
,  // measure 60
0000
0000
0310
0000
0011
0000
0002
0000
0000
0000
0103
0000
0110
0000
0000
0010
,  // measure 61
0000
0000
0010
0000
0001
0000
0010
0000
1000
0000
0100
0001
1000
0000
0010
0000
,  // measure 62
0001
1000
2002
0000
0000
0000
0000
0000
,  // measure 63
0000
0000
3003
0002
,  // measure 64
0000
0203
0320
0230
,  // measure 65
2300
0000
3200
0302
,  // measure 66
0000
2003
3200
0302
0000
0000
0203
0000
0000
2300
0000
0000
,  // measure 67
3002
0000
0203
0000
0302
0000
0203
0010
,  // measure 68
0001
0000
0000
0000
0010
0000
0000
0000
2300
0000
0000
0000
0001
0000
0000
0000
3200
0000
0000
0000
0010
0000
0000
0000
0320
0000
0000
0000
0000
0100
0000
0000
,  // measure 69
2030
0000
0000
0100
0000
0000
0000
0000
3200
0000
0000
0000
0010
0000
0000
0000
2300
0000
0000
0000
3100
0000
0000
0000
1100
0000
0000
0000
0001
0000
0000
0000
,  // measure 70
0101
0000
0000
0000
1000
0000
0000
0000
1100
0000
0000
1000
0000
0000
0100
0000
0110
0000
0000
0000
1001
0000
0000
0000
0001
0000
0100
0000
0000
0100
0000
0000
,  // measure 71
0001
0000
0000
0000
1000
0000
0100
0000
0010
0000
0001
0000
0010
0000
0001
1000
0001
0000
0100
0000
0001
0000
1000
0000
0100
0000
0010
0000
1000
0000
0010
0000
0200
0000
0000
0000
0000
0000
0000
0000
1000
0000
0000
0000
0000
0000
0000
0000
1300
0000
0000
0000
0010
0000
0000
0000
0100
0000
0000
0000
0010
0000
0000
0000
,  // measure 72
0001
0000
0000
0010
0000
0000
0100
0000
0000
0010
0000
0000
1000
0000
0000
0000
0000
0000
0000
0000
1001
0000
0000
0000
0000
0000
0000
0000
0110
0000
0000
0000
0000
0000
0000
0000
0001
0000
0000
0000
0100
0000
0000
0000
0010
0000
0000
0000
,  // measure 73
0100
0000
0000
0000
1000
0000
0100
0000
0010
0000
0000
0000
1000
0000
0000
0000
0000
0000
0100
0000
0000
0000
0000
0000
0000
0000
0000
0000
0000
0000
0100
0000
0000
0000
0000
0000
1000
0000
0000
0100
0000
0000
0010
0000
0000
0100
0000
0000
,  // measure 74
0001
0000
0000
0100
0000
0000
0010
0000
0000
0100
0000
0000
1000
0000
0000
0000
0000
0000
0000
0000
1001
0000
0000
0000
0000
0000
0000
0000
0110
0000
0000
0000
0000
0000
0000
0000
0001
0000
0000
0000
0010
0000
0000
0000
0100
0000
0000
0000
,  // measure 75
0010
0000
0000
0000
1000
0000
0010
0000
0100
0000
0000
0000
1000
0000
0000
0000
0000
0000
0100
0000
0000
0000
0000
0000
0000
0000
0000
0000
0000
0000
0100
0000
0000
0000
0000
0000
1000
0000
0000
0010
0000
0000
0100
0000
0000
0001
0000
0000
,  // measure 76
1000
0000
0000
0100
0000
0000
0010
0000
0000
0001
0000
0000
1000
0000
0000
0000
0000
0000
0000
0000
1010
0000
0000
0000
0000
0000
0000
0000
0011
0000
0000
0000
0000
0000
0000
0000
0001
0000
0000
0000
0100
0000
0000
0000
0010
0000
0000
0000
,  // measure 77
1000
0000
0000
0000
0001
0000
0010
0000
0100
0000
0000
0000
1000
0000
0000
0000
0000
0000
0100
0000
0000
0000
0000
0000
0010
0000
0000
0000
0000
0000
0100
0000
0000
0000
0000
0000
1000
0000
0000
0100
0000
0000
0001
0000
0000
0100
0000
0000
,  // measure 78
1000
0000
0000
0010
0000
0000
0100
0000
0000
0001
0000
0000
1000
0000
0000
0000
0000
0000
0000
0000
1100
0000
0000
0000
0000
0000
0000
0000
0001
0000
0000
0000
0100
0000
0000
0000
1000
0000
0000
0000
0000
0000
0000
0000
0100
0000
0000
0000
,  // measure 79
0000
0000
0000
0000
0001
0000
0100
0000
0001
0000
0000
0000
0100
0000
0000
0000
0010
0000
0000
0000
0001
0000
0000
0000
0010
0000
0000
0000
0100
0000
0001
0000
0100
0000
0000
0000
0010
0000
0000
0000
0000
0000
1000
0000
0000
0100
0000
0000
,  // measure 80
0010
0000
0000
0100
0000
0000
0002
0000
0000
0000
0103
0000
1000
0000
0020
0000
0000
0000
0030
0000
0100
0000
0001
0000
,  // measure 81
0100
0000
0010
0100
0010
0000
0002
0000
0000
0000
0013
0000
1000
0000
0100
0000
0000
0000
0010
0000
0000
0001
0000
0000
,  // measure 82
0100
0000
0000
0010
0000
0000
0100
0000
0000
0000
0000
0000
2000
0000
0000
0000
0000
0000
0000
0000
3100
0000
0000
0000
0001
0000
0000
0000
0020
0000
0000
0000
0000
0000
0000
0000
0030
0000
0000
0000
0100
0000
0000
0000
1000
0000
0000
0000
,  // measure 83
0100
0000
0000
0000
0010
0000
0100
0000
0010
0000
0000
0000
2000
0000
0000
0000
0000
0000
3010
0000
0000
0000
0000
0000
0001
0000
0000
0000
0000
0000
0100
0000
0000
0010
0000
0000
1000
0000
0000
0100
0000
0000
0010
0000
0000
0001
0000
0000
,  // measure 84
0100
0000
0000
0010
0000
0000
1000
0000
0000
0001
0000
0000
1000
0000
0000
0000
0000
0000
0000
0000
0100
0000
0000
0000
0001
0000
0000
0000
0100
0000
0000
0000
0000
0000
0000
0000
1000
0000
0000
0000
0001
0000
0000
0000
0100
0000
0000
0000
,  // measure 85
1000
0000
0000
0000
0100
0000
0010
0000
0100
0000
0000
0000
0001
0000
0000
0000
0100
0000
0000
0000
0010
0000
0000
0000
1000
0000
0000
0000
0100
0000
0000
0000
0010
0000
0000
0000
0001
0000
0000
0000
0000
0000
0010
0000
0000
1000
0000
0000
,  // measure 86
0010
0001
0000
1000
0010
0000
0001
0000
0010
0000
1000
0100
0010
0000
0001
0000
,  // measure 87
0010
0001
0000
0100
0010
1000
0100
1000
0001
0100
1000
0100
0002
0000
0000
0000
,  // measure 88
0000
0000
0000
0010
,  // measure 89
0100
0000
0000
2003
,  // measure 90
0000
0000
0000
0010
,  // measure 91
0100
0000
0000
3020
,  // measure 92
0000
0000
0000
1000
,  // measure 93
0100
0000
0000
2030
,  // measure 94
0000
0000
0000
0001
,  // measure 95
0100
0000
0000
3002
,  // measure 96
0000
0000
0000
0000
,  // measure 97
0000
0000
0000
0003
;

//---------------dance-single - ----------------
#NOTES:
     dance-single:
     :
     Hard:
     15:
     0.589543,0.847195,0.186673,0.566686,0.366679,619.000000,591.000000,28.000000,85.000000,0.000000,0.000000,0.589543,0.847195,0.186673,0.566686,0.366679,619.000000,591.000000,28.000000,85.000000,0.000000,0.000000:
0000
0000
0000
0000
,
0000
0000
0000
0000
,
0000
0002
0000
0203
,
0000
0000
0310
0100
0010
0100
0001
0010
,
0001
0001
2000
0000
0000
0000
0000
0000
,
0000
0000
3001
0100
0010
1000
0010
0110
,
0000
0001
0010
0100
1000
0100
0110
0010
,
0001
0000
0100
0000
0010
0000
1000
0000
0100
0000
0010
0000
0001
0010
0001
0000
,
0010
0000
0001
0000
0100
0010
0100
0010
1000
0000
0001
0000
1000
0000
0100
0000
,
0010
0001
0100
0110
0000
1000
0010
0100
,
0001
0000
0100
0000
0010
0000
0100
0010
1000
0000
0100
0000
0010
0000
0001
0000
,
0100
0000
0010
0000
1000
0000
0001
0000
0010
0001
1000
0000
0100
0000
0010
0001
,
1000
0001
0011
0010
0100
0100
1000
0010
,
0100
0001
0100
0010
0010
1000
0100
0010
,
0001
0010
0100
0100
1000
0010
0100
0100
,
0001
0000
0010
0100
0010
0000
0100
0010
0001
0000
0100
0000
0001
0000
0100
0000
,
0010
0000
0010
0100
0001
0000
0010
0000
0100
0000
1000
0000
0100
0000
0010
0000
,
0100
0000
1000
0000
0010
0000
0100
0000
0100
0000
0010
0100
0001
0000
0010
0000
,
0100
0001
0100
1000
0010
0001
0010
1000
,
0001
0000
1002
0000
0103
0001
2000
0000
,
3020
2030
3200
1000
,
0320
0000
0031
0100
0010
0000
0000
0010
,
1000
0000
0000
0000
0100
0010
0100
0000
0010
0000
0001
0000
1000
0000
0001
0000
,
0002
0023
0032
2003
,
0001
0001
0000
0010
3010
0100
0000
0100
,
0010
0010
2000
0001
0000
0001
3002
0000
,
0023
0000
0032
0000
0103
0001
0100
0000
,
0010
1000
0000
0100
0010
0100
0000
0010
,
0001
0000
0000
0000
0100
0000
0010
0000
0100
0000
0010
1000
0001
0000
1000
0000
,
2000
0000
3010
2000
0001
0000
3001
0010
,
1000
0001
0000
1000
0010
0001
0100
1000
,
0100
0010
1000
0100
0000
0010
0000
0001
,
2000
0000
3020
0000
0130
0000
0001
0100
,
0001
1000
0100
1000
0001
0000
0020
0000
,
0031
0100
0000
0100
0020
0000
2030
0000
,
3200
1300
1000
1001
,
0001
0000
0010
0200
0000
1300
0002
0000
,
2003
0000
3001
0000
0100
0020
0000
1030
,
0001
1000
0010
0100
0002
0000
0013
0100
,
0000
1000
0010
1000
0100
0001
0100
0000
,
0000
0110
0000
0000
0011
0000
2002
0000
,
0000
0000
0000
0000
,
0000
0000
0000
0000
,
0000
3003
0001
0001
,
0100
0100
0010
0010
,
1000
0100
1000
0100
0010
0100
0010
0000
,
0011
0000
0000
0000
1001
0000
0000
0000
0001
0000
0100
0000
0010
0100
0010
0000
,
1000
0001
1000
0000
0100
0010
0001
0100
,
0010
0000
0100
0000
0001
0000
0000
0000
0001
0000
0100
0000
0010
0000
0100
0010
,
1000
0000
0001
0000
1000
0000
0100
0000
0010
0000
0100
0010
0001
0000
0100
0000
,
0010
0000
0100
0000
0001
0000
0000
0000
1000
0000
0100
0000
0010
0100
0010
0000
,
0001
1000
0001
0100
0010
0100
1000
0100
,
0010
0000
0100
0000
0001
0000
1000
0000
0100
0000
0010
0000
0001
1000
0001
1000
,
0001
1000
0001
0010
0100
0010
1000
0010
,
0100
0010
0011
0000
0001
0001
0100
2020
,
0000
3030
0110
0000
1000
1000
0100
0220
,
0000
0330
1001
0000
1000
1000
0010
0202
,
0000
0303
0011
0000
0001
0001
0010
2200
,
0000
0000
3300
0000
0101
0000
0000
0000
1000
0000
0001
0000
0101
0000
0000
1000
,
0000
0000
0100
0000
1100
0000
0000
0000
1000
0000
0001
0000
0011
0000
0000
1000
,
0000
0000
0010
0000
1010
0000
1000
0000
0000
0000
0100
0000
0001
0000
0000
0100
,
0000
0010
0011
0000
0001
0100
1000
0000
,
0110
2002
0000
0000
,
0000
0000
3003
2000
,
0000
3020
0230
0302
,
0023
0000
0032
2003
,
0000
3200
0320
0032
0000
0000
0203
0000
0000
0302
0000
0000
,
2003
3200
2300
3020
,
1000
0032
0023
2030
,
3002
0023
0230
2300
,
0010
0000
0000
0000
0000
0000
0000
0000
3002
0000
0000
0000
0000
0000
0000
0000
0010
0000
0000
0000
1000
0000
0000
0000
1003
0000
0010
0000
0000
0100
0000
0000
,
0001
0000
0010
0000
0100
0000
1000
0001
1000
0000
0010
0000
0010
0000
0100
0000
0220
0000
0000
0000
0330
0000
0000
0000
0001
0000
0100
0000
0001
0000
0100
0000
,
0010
0000
0000
1000
0000
0000
0010
0000
0000
1000
0000
0000
0002
0000
0000
0000
0000
0000
0000
0000
0100
0000
0000
0000
0000
0000
0000
0000
1003
0000
0000
0000
0000
0000
0000
0000
1000
0000
0000
0000
0100
0000
0000
0000
1000
0000
0000
0000
,
0001
0000
0000
0000
0010
0000
0000
0000
0010
0000
0000
0000
0001
0000
0000
0000
0000
0000
0100
0000
0000
0000
0000
0000
0000
0000
0000
0000
0000
0000
0010
0000
0000
0000
0000
0000
1000
0000
0000
0100
0000
0000
1000
0000
0000
0100
0000
0000
,
0010
0000
0000
0001
0000
0000
0010
0000
0000
0001
0000
0000
2000
0000
0000
0000
0000
0000
0000
0000
0100
0000
0000
0000
0000
0000
0000
0000
3001
0000
0000
0000
0000
0000
0000
0000
0001
0000
0000
0000
0100
0000
0000
0000
0001
0000
0000
0000
,
1000
0000
0000
0000
0010
0000
0000
0000
0010
0000
0000
0000
1000
0000
0000
0000
0000
0000
0100
0000
0000
0000
0000
0000
0000
0000
0000
0000
0000
0000
0100
0000
0000
0000
0000
0000
1000
0000
0000
0010
0000
0000
0100
0000
0000
0001
0000
0000
,
0100
0000
0000
0010
0000
0000
1000
0000
0000
0001
0000
0000
2000
0000
0000
0000
0000
0000
0000
0000
0010
0000
0000
0000
0000
0000
0000
0000
3001
0000
0000
0000
0000
0000
0000
0000
0001
0000
0000
0000
0010
0000
0000
0000
0001
0000
0000
0000
,
1000
0000
0000
0000
0100
0000
0000
0000
0100
0000
0000
0000
1000
0000
0000
0000
0000
0000
0010
0000
0000
0000
0000
0000
0010
0000
0000
0000
0000
0000
0100
0000
0000
0000
0000
0000
0001
0000
0000
0010
0000
0000
0100
0000
0000
1000
0000
0000
,
0100
0000
0000
0010
0000
0000
0001
0000
0000
1000
0000
0000
0002
0000
0000
0000
0000
0000
0000
0000
0010
0000
0000
0000
0000
0000
0000
0000
1003
0000
0000
0000
0001
0000
0000
0000
0010
0000
0000
0000
0000
0000
0000
0000
0100
0000
0000
0000
,
0000
0000
0000
0000
0010
0000
0000
0000
0100
0000
0000
0000
0001
0000
0000
0000
0100
0000
0000
0000
0010
0000
0000
0000
0001
0000
0000
0000
1000
0000
0000
0000
0010
0000
0000
0000
1000
0000
0000
0000
0000
0000
0010
0000
0000
0100
0000
0000
,
0001
0000
0000
0100
0000
0000
0020
0000
0000
0000
1030
0000
0100
0000
0020
0000
0000
0000
0030
0000
0001
0000
0010
0000
,
0100
0000
0001
0000
0100
0000
0020
0000
0000
0000
0031
0000
0100
0000
0002
0000
0000
0000
1003
0000
0000
0100
0000
0000
,
0010
0000
0000
0001
0000
0000
1000
0000
0000
0000
0000
0000
0200
0000
0000
0000
0000
0000
0000
0000
1300
0000
0000
0000
0010
0000
0000
0000
0200
0000
0000
0000
0000
0000
0000
0000
0300
0000
0000
0000
0001
0000
0000
0000
0100
0000
0000
0000
,
0010
0000
0000
0000
0001
0000
0000
0000
0010
0000
0000
0000
0100
0000
0000
0000
0000
0000
0001
0000
0000
0000
0000
0000
0010
0000
0000
0000
0000
0000
0001
0000
0000
0100
0000
0000
0010
0000
0000
0000
0000
0000
1000
0000
0000
0100
0000
0000
,
0010
0000
0000
0000
0000
0000
0001
0000
0000
0100
0000
0000
0020
0000
0000
0000
0000
0000
0000
0000
1030
0000
0000
0000
0100
0000
0000
0000
0002
0000
0000
0000
0000
0000
0000
0000
0003
0000
0000
0000
0100
0000
0000
0000
0010
0000
0000
0000
,
0001
0000
0000
0000
0100
0000
0000
0000
0010
0000
0000
0000
1000
0000
0000
0000
0010
0000
0000
0000
0100
0000
0000
0000
1000
0000
0000
0000
0100
0000
0000
0000
0010
0000
0000
0000
1000
0000
0000
0000
0000
0000
0100
0000
0000
1000
0000
0000
,
0001
0010
0000
0001
0100
0000
0001
0000
0010
0000
1000
0010
0100
0000
1000
0000
,
0001
0100
0000
0000
0001
0100
1000
0000
0001
0010
1000
0000
0002
0000
0000
0000
,
0000
0000
0000
1000
,
1000
0000
0000
2003
,
0000
0000
0000
0001
,
0001
0000
0000
3002
,
0000
0000
0000
1000
,
1000
0000
0000
2003
,
0000
0000
0000
0001
,
0001
0000
0000
3200
,
0000
0000
0000
0000
,
0000
0000
0000
0300
;

//---------------dance-single - ----------------
#NOTES:
     dance-single:
     :
     Beginner:
     5:
     0.180958,0.318344,0.093336,0.053335,0.000000,190.000000,176.000000,14.000000,8.000000,0.000000,0.000000,0.180958,0.318344,0.093336,0.053335,0.000000,190.000000,176.000000,14.000000,8.000000,0.000000,0.000000:
0000
0000
0000
0000
,
0000
0000
0000
0000
,
0000
1000
0000
0000
,
0000
1000
0000
0000
,
0000
0000
0000
0000
,
0000
0000
1000
0000
0000
1000
0000
0000
,
0000
1000
0000
0000
1000
0000
0000
0000
,
0001
0000
0000
0001
0000
0000
0000
0001
,
0000
0001
0000
1000
,
0000
1000
0000
0000
0000
1000
0000
0000
,
1000
0000
0000
0000
0001
0000
0000
0001
,
0000
0001
0000
0000
0001
0000
0001
0000
,
0001
0000
1000
0000
0000
1000
0000
0000
,
0000
0001
0000
0000
0001
0000
0000
0000
,
0010
0000
0000
0010
0000
0000
0000
0100
,
0000
0100
0000
1000
,
0000
1000
0000
0000
0000
0001
0000
0000
,
0001
0000
0000
0000
0100
0000
0000
0100
,
0000
0010
0000
0000
,
0000
1000
0000
0001
,
0000
1000
0000
0001
,
0000
1000
0000
0000
,
0000
0001
0000
1000
,
0000
0001
0000
1000
,
0000
0001
0000
0000
,
0000
1000
0000
0100
,
0000
0010
0000
0001
,
0000
1000
0000
0000
,
0000
0001
0000
0100
,
0000
0010
0000
1000
,
0000
1000
0000
0000
0001
0000
0000
0001
,
0000
1000
0000
0010
,
0000
0100
0000
0010
,
0000
0000
0000
1000
,
0000
0100
0000
0010
,
0000
0000
0000
0000
,
0001
0000
0000
0100
0000
0000
0010
0000
,
0000
0000
1000
0000
0000
0010
0000
0000
,
0100
0000
0000
0000
0001
0000
0000
0010
,
0000
0100
0000
1000
,
0000
1000
0000
0000
1000
0000
2000
0000
,
0000
0000
0000
0000
,
0000
0000
0000
0000
,
0000
3000
0001
0000
,
1000
0000
0001
0000
,
0001
1000
0001
1000
,
1000
1000
0000
0010
,
0000
1000
0000
0001
,
0000
0010
0000
0001
,
0000
1000
0000
0001
,
0000
1000
0000
0100
,
0000
0010
0000
0001
,
0000
0100
0000
0010
,
0000
1000
0000
0001
,
0000
1001
0000
0000
,
0000
0110
0000
0000
,
0000
1001
0000
0000
,
0000
0110
0000
0000
,
0000
1001
0000
1001
,
0000
0110
0000
0110
,
0000
1001
0000
0110
,
0000
1001
0000
0110
,
0000
2002
0000
0000
,
0000
0000
3003
0001
,
0000
0000
0000
0100
,
0000
0000
0000
0010
,
0000
0000
0000
1000
,
0000
0000
0000
0001
,
0000
0000
0000
0010
,
0000
0000
0000
0100
,
0000
0000
0000
1000
,
0000
0000
0000
1000
,
1000
1000
0000
0001
,
0001
0001
0000
0100
,
0100
0100
0000
0010
,
0010
0010
0000
1000
,
1000
1000
0000
0100
,
0100
0100
0000
0010
,
0010
0010
0000
0001
,
0001
0001
0001
1000
,
1000
1000
0000
0010
,
0010
0010
0000
1000
,
1000
1000
0000
0100
,
0100
0100
0000
0010
,
0000
0010
0000
0001
,
0001
0001
0000
0100
,
0100
0100
0100
0010
,
0010
0010
0010
0220
,
0000
0000
0000
0000
,
0000
0000
0330
2000
,
0000
0000
0000
0000
,
0000
0000
3000
0002
,
0000
0000
0000
0000
,
0000
0000
0003
2000
,
0000
0000
0000
0000
,
0000
0000
3000
0000
;

//---------------dance-single - ----------------
#NOTES:
     dance-single:
     :
     Easy:
     9:
     0.282867,0.414931,0.246675,0.266676,0.006667,297.000000,260.000000,37.000000,40.000000,0.000000,0.000000,0.282867,0.414931,0.246675,0.266676,0.006667,297.000000,260.000000,37.000000,40.000000,0.000000,0.000000:
0000
0000
0000
0000
,
0000
0000
0000
0000
,
0000
2000
0000
3200
,
0000
0310
0010
0001
,
0001
0001
0001
0000
0000
0000
0000
0000
,
0000
0000
1000
0000
0000
0100
0000
1000
,
0000
0001
0000
0000
0100
0000
0001
0000
,
1000
0000
0000
0010
0000
1000
0000
0001
,
0000
0010
0001
1000
,
0000
0010
0000
0100
0000
0001
0000
0000
,
0100
0000
0010
0000
1000
0000
0000
0100
,
0000
0010
0000
0000
0001
0000
0010
0000
,
0100
0000
1000
0000
0000
0010
0000
0100
,
0000
0001
0000
0000
0010
0000
0100
0000
,
1000
0000
0000
0100
0000
0010
0000
0001
,
0000
0100
0010
1000
,
0000
0100
0000
0100
0000
0010
0000
0000
,
0001
0001
0100
0010
,
0100
0110
0000
0000
,
0002
2003
0000
3100
,
0010
0001
0200
0000
,
0310
2000
0001
0000
,
3001
0000
2000
0000
0000
3002
0000
0000
,
0103
0010
1000
0200
,
1000
0000
0310
0000
,
0001
0002
0000
0103
,
0010
1000
0001
0020
,
0000
0130
1000
0100
,
0010
0000
0002
0000
0000
0023
0000
0000
,
0230
0000
0000
2300
0000
0000
3002
0000
,
0000
1000
0000
0000
0203
0000
0000
0320
,
0000
0000
1030
0000
0000
0100
0000
0010
,
0000
0001
0000
0000
0100
0000
0010
0000
,
0100
0001
0010
0010
,
0000
0100
0000
0010
0000
0001
0000
0100
,
0000
0020
0200
0330
,
1001
0000
0000
1000
0000
0000
0100
0000
,
0010
0000
0001
0000
0000
0100
0000
0000
,
0010
0000
1000
0000
0001
0000
0000
0010
,
0000
0100
0010
0001
,
0000
0100
0000
0000
0010
0000
0220
0000
,
0000
0000
0000
0000
,
0000
0000
0000
0000
,
0000
0330
1000
0100
,
1000
0000
0001
0010
,
0001
0001
0100
0010
,
0110
0000
1001
0000
0000
0001
0000
0000
,
0010
0000
0001
0000
0000
0100
0000
0000
,
0001
0000
1000
0000
0000
0100
0000
0000
,
0010
0002
0000
0100
,
0103
0000
0001
0000
0000
1000
0000
0000
,
0010
0010
1000
0100
,
0010
0000
0002
0000
0000
0010
0000
0000
,
0010
0013
0001
1000
,
0001
0000
0101
0000
0000
0000
0000
1001
,
0000
0000
1100
0000
0000
0000
0000
0110
,
0000
0000
0011
0000
0000
0000
0000
1010
,
0000
0000
0110
0000
0000
0000
0000
0101
,
0000
1010
0000
0101
,
0000
0011
0000
1100
,
0000
0110
0000
0011
,
0000
1010
0010
0101
,
0100
2002
0000
0000
,
0000
0000
3003
2000
,
0000
3020
0000
0230
,
0000
0000
0000
0302
,
0000
0023
0000
0230
,
0000
0000
0000
2300
,
0000
3001
0100
0010
,
1000
0100
0010
0002
,
0000
0000
0000
0023
,
0000
0000
0100
0130
,
1000
0101
0000
0100
,
0001
1100
0000
0100
,
1000
0110
0000
0001
,
0100
0110
0000
1000
,
0100
0011
0000
0001
,
0100
1010
0010
1000
,
0001
1100
1000
0010
,
0100
0000
0000
0010
0000
0010
0000
0010
0000
0100
0000
0000
,
0001
0011
0010
0000
,
0001
1001
1000
0100
,
1000
1010
0010
0000
,
1000
0000
1001
0000
0110
0000
0001
1000
,
0001
0101
0100
0000
,
0001
0101
0100
1000
,
0100
0001
0010
1000
,
0010
0000
0001
1000
0001
0000
2002
0000
,
0000
0000
0000
0000
,
0000
0000
3003
2000
,
0000
0000
0000
0100
,
0000
0000
0000
3002
,
0000
0000
0000
0100
,
0000
0000
0000
2003
,
0000
0000
0000
0100
,
0000
0000
0000
3000
;

//---------------dance-single - ----------------
#NOTES:
     dance-single:
     :
     Medium:
     12:
     0.439062,0.651688,0.166672,0.420014,0.150005,461.000000,436.000000,25.000000,63.000000,0.000000,0.000000,0.439062,0.651688,0.166672,0.420014,0.150005,461.000000,436.000000,25.000000,63.000000,0.000000,0.000000:
0000
0000
0000
0000
,
0000
0000
0000
0000
,
0000
2000
0000
3200
,
0000
0000
0310
0000
0001
0000
0100
0010
,
1000
0001
2000
0000
0000
0000
0000
0000
,
0000
0000
3001
0100
0010
0100
0000
0001
,
0000
1000
0100
0010
0100
0000
1000
0000
,
0001
0010
0100
1000
0000
0001
0000
1000
,
0010
0100
0001
0000
1000
0000
0001
1000
,
0010
0100
0000
0001
0000
1000
0001
0010
,
0100
0000
1000
0000
0001
0000
0100
0010
,
0000
0010
0000
1000
1000
0010
1000
0100
,
0010
0001
1000
0010
0100
0010
0000
1000
,
0000
0001
0010
0100
0010
0000
0001
0000
,
1000
0100
0010
0001
0000
1000
0000
0001
,
0100
0010
1000
0000
0001
0000
1000
0001
,
0100
0010
0000
1000
0000
0001
1000
0100
,
0010
0000
0001
0000
1000
0000
0010
0100
,
0000
0100
0020
0000
2030
0000
3200
0000
,
0320
0032
0100
0203
,
0320
2030
3002
0100
,
2003
0000
3200
0000
0310
0000
0000
0100
,
0010
0000
0001
0001
0100
0010
2000
0000
,
3200
0320
0032
0203
,
0001
0000
0301
0000
0100
0010
0000
0010
,
0100
0010
2000
0000
0100
0000
3200
0000
,
0320
0000
0031
0000
0100
0010
0200
0000
,
0301
0000
0000
1000
0200
0000
0320
0000
,
0230
0000
1300
0000
1000
0010
0000
0010
,
0100
0000
0100
0002
0000
0000
2003
0000
,
0100
3200
0000
0010
0320
0000
0001
0032
,
0000
0000
1003
0100
0000
0010
0000
0001
,
0020
0000
0032
0000
0203
0000
0310
1000
,
0010
1000
0000
0100
0010
0000
0001
0100
,
0000
0010
0000
0100
0020
0000
2030
0000
,
3200
0300
2000
0001
,
3001
0000
0100
0010
0000
0010
1000
0000
,
0001
0000
1000
0000
1000
0100
0000
0100
,
0010
0000
0001
0000
1000
0000
0100
0010
,
0000
0001
0100
0000
0010
0000
1000
0000
,
0000
0100
0000
0000
0110
0000
2002
0000
,
0000
0000
0000
0000
,
0000
0000
0000
0000
,
0000
3003
1000
0100
,
1000
0010
1000
0001
,
0100
1000
0100
0010
,
0110
0000
1001
0000
0001
0100
0000
0001
,
0010
0000
0100
0000
1000
0100
0000
1000
,
0010
0000
0100
0000
0001
0010
0000
0100
,
0010
0000
0001
0100
0010
0000
1000
0000
,
0100
0000
1001
0000
1000
0100
0000
1000
,
0010
0000
0100
0010
1000
0000
0100
0010
,
0001
0000
0010
0000
1000
0010
0000
0100
,
0010
0000
0001
0100
0010
0000
1000
0000
,
0100
0000
0011
0000
0001
0000
0100
0110
,
0000
0000
1010
0000
1000
0000
0100
0110
,
0000
0000
1100
0000
0100
0000
0010
0011
,
0000
0000
0101
0000
0100
0000
0010
1010
,
0000
0000
1000
0000
1100
0000
0000
0000
0100
0000
0010
0000
0001
0000
0000
0001
,
0000
0000
1000
0000
1001
0000
0000
0000
0001
0000
0100
0000
0010
0000
0000
0010
,
0000
0000
1000
0000
0011
0000
0010
0000
0000
0000
0100
0000
1000
0000
0000
1000
,
0000
0001
1001
0000
0101
0000
1010
0000
,
0110
2002
0000
0000
,
0000
0000
3003
2000
,
0000
3200
0000
0320
,
0032
0000
0000
0203
,
0000
0320
0000
2030
,
0000
0002
3003
0012
,
0203
0320
1030
2010
,
3200
0320
0031
1002
,
0100
0100
0100
2003
,
3001
0010
0100
1000
1001
0000
0001
0100
,
0010
0000
0000
0100
0000
0000
0001
0000
0000
0000
0100
0000
0000
0000
0010
0000
0000
0000
1000
0000
0000
0000
0100
0000
,
0010
0000
0001
0000
0000
0000
0001
0000
0000
0010
0000
0000
0000
0000
0000
0100
0000
0000
1000
0000
0000
0010
0000
0000
,
0100
0000
0000
0010
0000
0000
1000
0000
0000
0000
0010
0000
0000
0000
0100
0000
0000
0000
0001
0000
0000
0000
0010
0000
,
0100
0000
1000
0000
0000
0000
1000
0000
0000
0010
0000
0000
0000
0000
0000
1000
0000
0000
0001
0000
0000
0010
0000
0000
,
0100
0000
0000
0010
0000
0000
0001
0000
0000
0000
0010
0000
0000
0000
0100
0000
0000
0000
1000
0000
0000
0000
0010
0000
,
0100
0000
0001
0000
0000
0000
0001
0000
0000
0100
0000
0000
0010
0000
0000
0000
0000
0000
1000
0000
0000
0100
0000
0000
,
0010
0000
0000
0100
0000
0000
1000
0000
0000
0000
0100
0000
0000
0000
0010
0000
0000
0000
0001
0000
0000
0000
0100
0000
,
0000
0000
1000
0000
0000
0000
0001
0000
0000
0000
0010
0000
0000
0000
0100
0000
0000
0000
0001
0000
0000
0010
0000
0000
,
0100
0000
0000
1000
0000
0000
0100
0000
0000
0000
0001
0000
0000
0000
0100
0000
0000
0000
0000
0000
1000
0000
0001
0000
,
1000
0000
0001
0000
0000
0000
0100
0000
0000
0000
1000
0000
0100
0000
0001
0000
0000
0000
1000
0000
0000
0010
0000
0000
,
0100
0000
0000
0001
0000
0000
0010
0000
0000
0000
1000
0000
0000
0000
0010
0000
0000
0000
0000
0000
0001
0000
1000
0000
,
0001
0000
1000
0000
0000
0000
0010
0000
0000
0001
0000
0000
0010
0000
0000
1000
0000
0000
0100
0000
0000
0001
0000
0000
,
1000
0000
0000
0010
0000
0000
0001
0000
0000
0000
0100
0000
0010
0000
0100
0000
0000
0000
0000
0000
0001
0000
1000
0000
,
0100
0000
1000
0000
0100
0000
0010
0000
0100
0000
1000
0000
0001
0000
0100
0000
0010
0000
0001
0000
0000
1000
0000
0000
,
0100
0001
1000
0100
0001
1000
0010
0001
,
0100
0000
0010
0000
1000
0100
1000
0000
0001
0100
0001
0000
2000
0000
0000
0000
,
0000
0000
0000
0100
,
0000
0000
0000
3002
,
0000
0000
0000
0100
,
0000
0000
0000
2003
,
0000
0000
0000
0100
,
0000
0000
0000
3002
,
0000
0000
0000
0100
,
0000
0000
0000
0203
,
0000
0000
0000
0000
,
0000
0000
0000
0300
;
