#TITLE:Daisycutter;
#SUBTITLE:;
#ARTIST:ETIA.;
#TITLETRANSLIT:;
#SUBTITLETRANSLIT:;
#ARTISTTRANSLIT:;
#GENRE:;
#CREDIT:;
#MUSIC:Daisycutter.ogg;
#BANNER:;
#BACKGROUND:;
#CDTITLE:;
#SAMPLESTART:20.107;
#SAMPLELENGTH:20.105;
#SELECTABLE:YES;
#OFFSET:-0.002;
#BPMS:0.000=191.000;
#STOPS:;
#BGCHANGES:;
#FGCHANGES:;

//--------------- dance-single - Diet D0omsday ----------------
#NOTES:
     dance-single:
     Diet D0omsday:
     Medium:
     14:
     0,0,0,0,0:
0000
0000
0000
0000
,
0000
0000
0000
0000
,
0000
0000
0000
0000
,
0000
0000
0000
0000
,
1000
0001
1000
0002
0000
0000
0003
0000
,
0010
0100
1000
0010
1000
0001
0010
0000
,
0001
1000
0001
2000
0000
0000
3010
0000
,
0100
0001
0010
0100
1000
0001
0100
0000
,
0001
0001
1000
1000
,
0100
1000
0010
0100
0001
1000
0100
0000
,
0010
0010
0001
0001
,
1000
0000
0010
0000
1000
0000
0100
0000
0010
0000
0001
1000
0001
0000
1000
0000
,
0010
0000
0000
0100
0000
0000
0001
0000
,
0010
0000
0000
0100
0000
0000
1000
0000
,
0001
0001
0010
0010
0100
0100
1000
1000
,
0010
0000
0000
0000
,
0100
0001
1000
0100
0010
0100
1000
0010
,
0200
0000
0000
0302
0000
0000
2003
0000
3100
0000
0000
0000
0010
0000
0000
0000
,
0100
1000
0001
0100
0010
1000
0100
0000
,
0010
0001
1000
0020
0030
0010
0100
0000
,
0001
0010
0001
0100
0010
1000
0100
1000
,
0020
0000
0000
0230
0000
0000
0320
0000
1030
0000
0000
0000
0100
0000
0000
0000
,
0010
0001
0100
0020
0030
0010
1000
0000
,
2002
0000
0000
0000
0003
0001
0001
3001
,
0010
0100
0010
0001
0100
0010
0100
0001
,
0020
0000
0000
0230
0000
0000
2300
0000
3010
0000
0000
0000
1010
0000
0000
0000
,
0010
1000
0001
0010
0100
1000
0010
0000
,
0100
0000
0010
0000
1000
0000
0100
0000
0010
0000
0001
1000
0001
0000
0010
0000
,
0100
1000
0010
0100
0010
1000
0100
0010
,
0200
0000
0000
2300
0000
0000
3020
0000
0130
0000
0000
0000
0001
0000
0000
0000
,
0100
0001
1000
0200
0300
0100
0010
0000
,
0011
0000
0000
0000
,
2002
0000
0000
0000
,
0000
0000
3003
0000
,
0220
0000
0000
0000
,
0000
0000
0330
0000
,
1000
0000
0000
0100
0000
0000
0010
0000
,
0000
1000
0000
0000
0010
0000
0001
0000
,
0100
0000
0000
1000
0000
0000
0100
0000
,
0000
0010
0000
0000
1000
0000
0001
0000
,
0010
0000
0000
0100
0000
0000
0001
0000
,
0000
0100
0000
0000
0010
0000
0001
0000
,
1000
0000
0000
0010
0000
0000
0001
0000
,
0000
0010
0000
0000
0100
0000
0001
0000
,
0010
0100
0010
0200
0000
0000
0300
0000
,
1000
0010
0100
1000
0100
0010
1000
0000
,
0100
0010
0100
0020
0000
0000
0030
0000
,
0001
0000
0100
0001
0100
0000
0002
0000
0000
0000
1000
0000
1000
0000
1003
0000
,
0010
0100
0010
0200
0000
0000
0300
0000
,
0001
0010
0100
0001
0100
0010
0001
0000
,
0100
0010
0100
0020
0000
0000
0030
0000
,
0110
0000
1001
0000
,
1000
0100
0010
0001
,
0100
0010
0100
0001
,
1000
0100
0010
0100
,
1000
0001
0100
0001
,
0010
0100
1000
0010
0100
0001
0010
0000
,
0100
0010
0001
0100
0010
1000
0100
0000
,
0010
0010
0001
0001
1000
1000
0010
0010
,
0000
0000
0000
0000
,
1000
0000
0000
0000
0000
0100
0000
0000
0001
0000
0100
0000
0000
1000
0000
0000
,
0001
0000
0000
0000
0000
0100
0000
0000
0010
0000
0000
0000
1000
0000
0000
0000
,
0001
0000
0000
0000
0000
0010
0000
0000
1000
0000
0010
0000
0000
0001
0000
0000
,
0100
0000
1000
0000
0000
0100
0000
0000
0001
0000
0000
0000
0010
0000
0000
0000
,
0110
0000
0000
0000
0100
0000
0000
0000
1000
0000
0010
0000
0000
0001
0000
0000
,
0010
0000
0000
0000
0000
1000
0000
0000
0100
0000
0000
0000
0010
0000
0000
0000
,
1000
0000
0000
0000
0000
0010
0000
0000
0001
0000
1000
0000
0000
0010
0000
0000
,
0001
0000
0000
0000
,
0110
0000
0000
0000
0100
0001
0000
0000
1000
0000
0100
0000
0010
0100
0000
0000
,
1000
0000
0000
0000
0001
0010
0000
0000
0001
0000
0100
0000
0010
0000
0000
0000
,
1010
0000
0000
0000
0010
0100
0000
0000
0001
0000
1000
0000
0100
0010
0000
0000
,
0001
0000
0100
0000
0010
1000
0000
0000
0100
0000
1000
0001
1000
0000
0100
0000
,
0000
0000
0000
0000
0020
0030
0000
0000
0001
0000
1000
0000
0010
0100
0000
0000
,
0001
0000
0000
0000
1000
0100
0000
0000
1000
0000
0000
0010
0000
0100
0000
0001
,
1000
0000
0000
0000
0100
0010
0000
0000
0001
0000
0100
0000
0001
0010
0000
0000
,
0100
0000
0000
0000
,
2001
0000
0000
0000
0010
0000
0000
0010
0000
0000
3020
0000
0100
0000
0000
0100
,
0000
0000
0230
0000
0001
0000
0000
0001
0000
0000
0302
0000
0020
0000
0000
0000
,
0033
0000
0000
0000
0120
0000
0000
0001
0000
0000
0001
0000
0032
0000
0000
1000
,
0000
0000
1000
0000
1003
0000
0010
0000
1000
0000
0100
0010
0100
0000
1000
0000
,
0000
0000
0000
0000
0012
0000
0000
1000
0000
0000
1000
0000
2003
0000
0000
0010
,
0000
0000
0010
0000
3020
0000
0000
0100
0000
0000
0100
0000
0130
0000
0000
0000
,
0001
0000
0000
0000
1000
0000
0000
0001
0000
1000
0001
0000
1000
0000
0001
1000
,
0000
0000
0000
0000
,
0001
0010
0100
1000
0010
0001
0010
1000
,
0100
0001
0100
1000
0001
0100
0010
0000
,
1000
0100
0010
0001
0100
1000
0100
0001
,
0010
0000
1000
0000
0010
0000
0001
0000
1000
0000
0001
0100
0001
0000
0000
0000
,
1001
0000
0000
0000
0001
0000
0000
0010
0000
0000
0100
0000
1000
0000
0000
0010
,
0000
0000
1000
0000
0100
0000
0000
0010
0000
0000
0001
0000
1000
0000
0000
0000
,
0001
0100
0001
0100
0010
1000
0010
1000
,
0100
0000
0010
0000
,
1001
0000
0000
0000
;

//--------------- dance-single - Difficulty Curve War Crime ----------------
#NOTES:
     dance-single:
     Difficulty Curve War Crime:
     Hard:
     17:
     0,0,0,0,0:
0000
0000
0000
0000
,
0000
0000
0000
0000
,
0000
0000
0000
0000
,
0000
0000
0000
0000
,
0001
0010
0100
2000
0000
0000
3000
0000
,
0001
0000
0010
0001
1000
0000
0001
0000
0100
0001
1000
0000
0001
0000
0001
0000
,
1000
0010
0100
0002
0000
0000
0013
0100
,
1000
0010
1000
0010
1000
0000
0001
0010
0001
0010
0001
0000
0100
0000
0100
0000
,
0001
0010
0001
0100
0010
1000
0100
0000
,
1000
0000
0010
1000
0001
0000
1000
0000
0100
1000
0001
0000
1001
0000
0000
0000
,
0001
0000
0100
0001
1000
0000
0001
0000
0010
0001
1000
0000
0001
0000
0001
0000
,
0100
0000
0010
1000
0000
0001
0010
0000
0001
0100
0010
1000
0100
1000
0010
0000
,
0100
0000
0010
0100
0001
0000
0010
0000
0100
0010
0001
0000
0100
0000
0001
0100
,
0010
0000
0100
0010
1000
0000
0100
0000
0010
0100
1000
0000
0010
0000
0100
0001
,
1000
0100
1000
0100
1000
0000
0001
0100
0001
0100
0001
0000
0010
0000
0010
0000
,
0200
0000
0000
0000
0000
0000
1000
1300
,
0001
0100
0010
2000
0000
3100
0000
0010
,
0100
0000
1000
0010
0000
1000
0100
0000
0020
0000
0000
0000
0031
1000
0001
1000
,
0001
0000
0100
0001
1000
0000
0001
0000
0010
0001
1000
0000
0001
0000
0001
0000
,
1000
0000
0100
1000
0001
0000
2000
0000
3000
0000
1000
0000
1010
0000
0000
0000
,
0010
0100
0001
0020
0000
0130
0000
1000
,
0001
0000
0100
0010
0000
0100
0001
0000
0010
0000
0000
0000
0100
1000
0100
1000
,
0100
0000
0010
0100
1000
0000
0020
0000
0030
0000
0010
0000
0110
0000
0000
0000
,
1001
0000
1000
0001
0010
0000
0001
0100
0010
1000
0010
0000
0010
0000
0010
0000
,
0100
0001
1000
0200
0000
0310
0000
0001
,
1000
0000
0010
0100
0000
0010
1000
0000
0001
0000
0000
0000
0022
0000
0033
0000
,
1000
0000
0100
1000
0001
0000
1000
0000
0010
1000
0001
0000
1000
0000
1000
0000
,
0001
0000
0100
0001
0000
0010
0001
0000
1000
0010
0100
0001
1000
0100
0010
0000
,
0001
0100
0001
0010
0100
1000
0001
0100
,
0001
0000
1000
0000
0100
0000
0010
0000
0001
0000
1000
0000
0010
0100
0010
0100
,
0001
0010
0001
0010
0001
0000
1000
0010
1000
0000
1000
0000
1001
0000
0000
0000
,
0001
0000
0010
0100
0000
1000
0000
0010
,
0220
0000
0000
0000
,
0000
0000
0330
0000
,
2002
0000
0000
0000
,
0000
0000
3003
0000
,
1010
0000
1001
0001
0000
0010
0100
0000
,
1000
0001
0000
0100
0110
0000
1010
0000
,
1100
0000
0110
0010
0000
0100
1000
0000
,
0001
0100
0000
0010
1000
0000
0001
0000
,
0011
0000
1100
1000
0000
0010
1000
0000
,
0001
0100
0000
0010
1010
0000
1001
0000
,
0011
0000
0110
0100
0000
1000
0010
0000
,
0110
0101
0001
0100
,
0001
0010
0100
2000
0000
0000
3000
0000
,
0010
1000
0001
0010
0001
1000
0010
0010
,
1000
0100
0010
0002
0000
0000
0003
0000
,
0010
0000
0010
0100
0010
0000
0020
0000
0030
0000
0010
0000
0010
0000
0010
0000
,
0001
0100
0010
2000
0000
0000
3000
0000
,
0100
1000
0001
0100
0001
1000
0100
0100
,
1000
0010
0100
0002
0000
0000
1003
0001
,
0011
0000
1100
0000
,
0001
0100
0001
0010
,
0100
1000
0010
1000
,
0001
0010
0100
1000
,
0010
1000
0100
0010
,
0001
0100
0010
0100
0001
0010
0100
1000
,
0010
0100
0010
1000
0100
0010
0100
1000
,
0001
0100
0001
0100
0010
1000
0010
1000
0100
0010
0100
0010
0001
0010
0100
1000
,
0000
0000
0000
0000
,
0001
0000
0000
0000
0000
1010
0000
0000
1001
0000
1001
0000
0000
0011
0000
0000
,
0110
0000
0000
0000
0000
1001
0000
0000
0101
0000
0000
0000
0010
0000
0000
0000
,
1100
0000
0000
0000
0000
1001
0000
0000
0101
0000
0101
0000
0000
0110
0000
0000
,
1010
0000
1010
0000
0000
0011
0000
0000
0001
0010
0100
0010
0001
1000
0010
0000
,
0100
0000
0000
0000
0101
0000
0000
0000
0011
0000
0011
0000
0000
0110
0000
0000
,
1001
0000
0000
0000
0000
1010
0000
0000
0110
0000
0000
0000
0001
0000
0000
0000
,
0011
0000
0000
0000
0000
0110
0000
0000
1100
0000
1100
0000
0000
1010
0000
0000
,
1001
0000
0000
0000
0000
0000
0000
0000
0000
0000
1000
0010
0100
0000
0001
0000
,
1000
0000
0001
0100
0000
0001
0010
0000
0110
0000
0110
0000
0100
1000
0000
0010
,
1000
0001
0010
0000
0100
0010
0000
0001
0000
0100
0010
1000
0001
0000
0000
0000
,
0010
0000
0100
1000
0000
0010
0000
0000
1010
0000
1010
0000
1000
0001
0010
0000
,
0001
0000
0100
0000
0000
0001
0000
0010
0100
0010
0001
0100
0010
1000
0001
0000
,
0000
0000
0000
0000
0020
0130
0000
0000
1100
0000
1100
0000
1000
0010
0000
0000
,
0101
0000
0000
0000
0001
0010
0000
0000
0011
0000
0000
0110
0000
0110
0000
0100
,
1000
0000
0000
0000
0001
1000
0000
0000
1010
0000
1010
0000
1000
0001
0000
0010
,
0001
0000
0000
0000
,
1001
0000
0000
0000
1000
0000
0000
0010
0000
0100
0001
0000
0010
0000
0001
0100
,
0000
0010
1000
0000
0001
0000
0010
0100
0000
1000
0001
0000
0101
0000
0000
0000
,
0100
0000
0000
0000
0010
0000
0000
1000
0000
0001
0010
0000
0100
0000
0010
0001
,
0000
1000
0010
0100
0010
0000
1000
0001
0010
0100
0010
0001
0100
0010
1000
0000
,
0000
0000
0000
0000
1001
0000
0000
1100
0000
0100
0010
0000
0001
0000
1000
0010
,
0000
1000
0100
1000
0001
0000
0100
0010
0000
0100
0001
0000
0011
0000
0000
0000
,
0110
0000
0000
0000
1100
0000
0000
1010
0000
0010
0100
0000
0001
0000
1000
0100
,
0000
0000
0000
0000
0000
0000
0000
0000
0000
0000
0000
1000
0001
0000
0100
0000
,
0110
0000
0000
0000
1000
0000
0001
0010
0001
0010
0001
0000
0100
0000
0010
1000
,
0010
1000
0010
0000
0100
0000
0001
0010
0100
1000
0001
0000
1001
0000
0000
0000
,
0011
0000
0000
0000
0001
0000
1000
0010
0100
0010
1000
0000
0001
0000
0010
0100
,
0000
0010
0001
0100
0010
0000
1000
0001
0010
0100
1000
0010
0000
0000
0000
0000
,
1010
0000
0000
0000
0101
0000
0000
0011
0000
0010
0100
0000
0010
0000
0001
1000
,
0010
1000
0100
0000
0010
0000
0100
1000
0000
0001
0100
0000
0010
0000
1000
0000
,
0001
0010
0001
0010
0100
1000
0100
1000
0010
0100
0001
1000
0100
1000
0001
0010
,
0100
0000
1000
0000
,
1001
0000
0000
0000
;

//--------------- dance-single - XO+ DS+ SDVX+ ----------------
#NOTES:
     dance-single:
     XO+ DS+ SDVX+:
     Challenge:
     17:
     0,0,0,0,0:
0000
0000
0000
0000
,
0000
0000
0000
0000
,
0000
0000
0000
0000
,
0000
0000
0000
0000
,
1000
0100
0010
0001
,
2000
0010
3001
2000
0010
3001
1000
1000
,
0001
0010
0100
1000
,
0002
0100
1003
0002
0100
1003
0001
0001
,
0010
0110
0100
1100
,
2000
0100
3001
2000
0010
3001
MMMM
0000
,
0002
0010
1003
0002
0010
1003
0001
0001
,
0001
0000
0010
0001
0000
1000
0010
0000
1000
0100
0010
0001
0000
0100
0010
0000
,
2000
0100
3001
2000
0010
3001
2000
0100
,
3002
0010
1003
0002
0100
1003
0002
0010
,
1003
0100
0010
0000
0001
0000
1000
0010
0100
0000
1000
0000
0100
0010
1000
0000
,
0100
0000
0000
MMMM
,
0001
0010
0100
0010
1000
0010
0100
0010
,
0001
0000
1000
0010
0000
0010
0100
0000
0001
0000
0000
0000
1000
0100
0010
0100
,
2000
0100
3001
2000
0100
3001
1000
1000
,
0002
0100
1003
0001
MMMM
0001
1001
0000
,
1000
0010
0100
0010
0001
0010
0100
0010
,
1000
0000
0100
0010
0000
0010
0001
0000
1000
0000
0000
0000
0001
0100
0010
0100
,
0002
0010
1003
0001
MMMM
0001
1001
0000
,
2000
0000
3020
0032
0000
1000
1000
1003
,
0100
0010
1000
0100
0010
1000
0010
0100
,
1000
0000
0010
0100
0000
0100
1000
0000
0100
0000
0000
0000
0002
0000
0000
0000
,
0023
0100
0031
0020
0100
0031
0010
0010
,
0010
0000
0100
1000
0000
0001
0100
0000
0001
0010
0100
1000
0000
0001
0100
0000
,
0010
0001
0010
0100
0001
0010
0100
0001
,
0100
0000
0010
0001
0000
0001
0100
0000
0010
0000
0000
0000
1000
0001
0010
0001
,
1000
0010
0100
0000
1000
0000
0100
0010
1000
0000
0100
0000
0010
0000
0000
0000
,
0011
0000
0000
0000
,
2002
0000
0000
0000
,
0000
0000
0003
0000
,
0020
0000
3000
0000
,
0130
0000
0100
0010
0000
0010
0100
0100
,
0020
1030
0001
0020
0130
1000
0020
0130
,
0001
0020
0031
1000
0020
0030
0020
0030
,
0200
0301
0010
0200
1300
0001
0200
0310
,
1000
0200
1300
0001
0200
0300
0200
0300
,
0002
0013
0100
0002
0103
0010
0002
0103
,
0010
0002
0013
0100
0002
0003
0002
0003
,
2000
3100
0001
2000
3001
0100
2000
3001
,
0100
2000
3001
0010
2000
3000
2000
3000
,
0001
0010
0100
1000
0010
0100
1000
0100
,
0020
1000
0130
0020
1000
0130
0010
0010
,
1000
0001
0010
0100
0001
0100
1000
0010
,
0100
0000
0001
0010
0100
0000
0002
0000
0000
0000
1000
0000
1000
0000
1003
0000
,
0010
0001
0100
1000
0100
0010
1000
0100
,
0020
0100
0031
0020
0100
0031
0010
0010
,
0100
1000
0010
0100
1000
0100
0001
1000
,
1001
0000
0110
0000
,
0001
0100
0001
0010
,
1000
0010
0100
1000
,
0001
0100
1000
0001
,
0010
0100
0001
0010
,
0200
0010
1300
0200
0010
1300
0200
0010
,
2300
0010
3001
2000
0010
3001
2000
0010
,
3001
0010
0100
1000
0002
0000
0100
0000
1003
0010
0100
0001
2000
0000
3010
0000
,
MMMM
0000
0000
0000
,
1200
0000
0000
0000
0000
0001
0000
0000
0010
0000
0302
0000
0000
1000
0000
0000
,
0203
0000
0000
0000
0000
0010
0000
0000
1300
0000
0000
0000
0010
0000
0000
0000
,
0201
0000
0000
0000
0000
1000
0000
0000
0010
0000
2300
0000
0000
0001
0000
0000
,
3200
0000
0010
0000
0000
1000
0000
0000
0310
0000
0000
0000
0000
0000
0000
0000
,
MMMM
0000
0000
0000
1020
0000
0000
0000
0100
0000
0032
0000
0000
1000
0000
0000
,
0023
0000
0000
0000
0000
0100
0000
0000
1030
0000
0000
0000
0001
0000
0000
0000
,
0021
0000
0000
0000
0000
1000
0000
0000
0100
0000
2030
0000
0000
0001
0000
0000
,
3010
0000
0000
0000
0000
0001
0000
0000
1000
0000
0010
1000
0001
0000
0100
0000
,
0010
0000
0000
0000
1000
0020
0000
0000
0100
0000
0031
0000
2000
0001
0000
0000
,
3100
0000
0000
0000
0010
0100
0000
0000
0001
0000
0010
0000
0100
0000
0000
0000
,
0010
0000
0000
0000
0001
0020
0000
0000
0100
0000
1030
0000
0002
1000
0000
0000
,
0203
0000
0010
0000
1300
0010
0000
0000
0100
0000
0001
1000
0100
0010
0001
0000
,
MMMM
0000
0000
0000
1020
0000
0000
0000
0100
0000
0031
0000
1000
0100
0000
0000
,
0110
0000
0000
0000
1000
0100
0000
0000
0020
0000
0000
1000
0000
0100
0000
0031
,
1000
0000
0000
0000
0001
0100
0000
0000
0010
0000
0001
0000
0020
0100
0000
1030
,
0001
0000
0000
0110
,
MMMM
0000
0000
0000
0021
0000
0000
1000
0000
0000
0100
0000
0032
0000
0000
0010
,
0000
0000
1000
0000
0203
0000
0000
0001
0000
0000
0010
0000
1300
0000
0000
0000
,
MMMM
0000
0000
0000
0021
0000
0000
1000
0000
0000
0100
0000
0031
0000
0000
1000
,
0000
0000
0100
0010
1000
0000
0100
0010
0001
0000
0010
0100
1000
0100
0010
0000
,
MMMM
0000
0000
0000
0012
0000
0000
1000
0000
0000
0010
0000
0203
0000
0000
0001
,
0000
0000
0010
0000
2300
0000
0000
0100
0000
0000
0001
0000
3100
0000
0000
0000
,
1000
0000
0000
0000
0200
0000
0000
0010
0000
0301
0020
0000
1000
0000
0130
1000
,
0000
0000
0000
0000
,
1001
0000
0000
0000
0001
0000
0100
0010
0000
0001
0010
0000
1000
0000
0100
0010
,
0000
1000
0010
0000
0001
0000
0100
1000
0000
0001
0010
0000
1000
0000
0000
0000
,
1100
0000
0000
0000
1000
0000
0001
0010
0000
1000
0010
0000
0001
0000
0100
1000
,
0000
0100
0010
0100
0001
0000
1000
0100
1000
0000
0001
0100
0010
0000
0000
0000
,
1020
0000
0000
0000
0100
0000
0000
0001
0000
0000
0100
0000
1030
0000
0001
0020
,
0001
0000
0100
0000
1030
0000
0002
1000
0000
0000
0103
0000
0010
0000
0000
0000
,
0001
0100
1000
0001
0100
0001
1000
0100
,
0001
0000
1000
0000
,
0110
0000
0000
0000
;
