#VERSION:0.83;
#TITLE:DUAL BREAKER XX;
#SUBTITLE:;
#ARTIST:Srav3R vs Getty;
#TITLETRANSLIT:;
#SUBTITLETRANSLIT:;
#ARTISTTRANSLIT:;
#GENRE:;
#CREDIT:;
#MUSIC:DUAL BREAKER XX.ogg;
#BANNER:DUAL BREAKER XX.png;
#BACKGROUND:DUAL BREAKER XX-bg.png;
#CDTITLE:;
#SAMPLESTART:93.300;
#SAMPLELENGTH:15.000;
#SELECTABLE:YES;
#OFFSET:1.200;
#BPMS:0.000=200.000;
#STOPS:;
#BGCHANGES:;
#FGCHANGES:;

//--------------- dance-single - chrononical ----------------
#NOTEDATA:;
#STEPSTYPE:dance-single;
#DESCRIPTION:chrononical;
#DIFFICULTY:Beginner;
#METER:6;
#RADARVALUES:0,0,0,0,0;
#NOTES:
0000
0000
0000
0000
,
0000
0000
0000
0000
,
0000
0000
0000
0000
,
0000
0000
0000
0000
,
0000
0000
0000
0000
,
0000
0000
0000
0000
,
1000
0010
0000
0010
,
0000
0100
0000
0001
,
1000
0001
1000
0100
,
0020
0000
0000
0030
,
0001
0000
0000
1000
0000
0000
0010
0000
,
1000
0000
0000
0001
0000
0000
0010
0000
,
0001
0000
0000
1000
0000
0000
0100
0000
,
1000
0000
0001
0100
,
0001
0000
0010
0000
,
1000
0000
0010
0000
,
0001
0000
0100
0000
,
0020
0000
0000
0030
,
1000
0001
1000
0000
,
0100
0010
0001
1000
,
0001
0000
0100
0000
,
0010
0010
0010
0000
,
1000
0100
0010
0000
,
0010
0100
1000
0000
,
0002
0000
0000
0000
,
0000
0000
0000
0003
,
2000
0000
3010
0000
,
0100
0000
0001
1000
,
0001
0001
0010
0000
,
0100
0000
0000
1000
0000
0000
0001
0000
,
1000
0010
0100
0000
,
0100
0010
1000
0000
,
0001
1000
0001
0000
,
2000
3000
0000
0000
0200
0300
0000
0000
0020
0030
0000
0000
0001
0000
0000
0000
,
2000
0000
0000
0000
,
0000
0000
3000
0000
,
0001
0010
0100
0000
,
0100
1000
0001
0000
,
0001
0000
0100
0000
0010
0000
0000
1000
,
0000
0001
1000
0000
,
1001
0000
0000
1000
0000
0000
0100
0000
,
0000
0010
0000
0000
0001
0000
0000
0000
,
2002
0000
3003
0220
,
0000
0000
0330
0000
,
2000
0000
0000
0000
,
3000
0000
0000
0000
,
0001
0010
0100
0000
,
0100
0010
0001
0000
,
1000
0010
0100
0000
,
0100
0010
1000
0000
,
0001
0010
0100
0010
,
0001
0000
1000
0000
,
0010
0100
0010
0000
,
1000
1000
2000
3000
,
0001
0000
0000
0000
,
0010
0000
0000
0000
,
0100
0000
0000
0000
,
1000
0000
0000
0000
,
0001
0100
0000
0100
,
0000
0100
0000
0100
,
0001
0000
1000
0000
,
0001
0001
1000
1000
,
0001
0000
0001
0000
0000
0000
0000
0010
,
0000
0010
0000
0000
0000
0000
0000
0100
,
0000
0100
0000
0000
0000
0000
0000
0000
,
1000
0000
0000
0001
0000
0000
1000
0000
,
0001
0000
0010
0000
,
1000
0000
0010
0000
,
0001
1000
0001
0000
,
2000
0000
0000
3000
,
0001
0000
0200
0000
0000
0000
0300
0001
,
0000
0020
0000
0130
,
1000
0000
0000
0001
,
0000
0000
1000
0000
,
0001
0000
0000
0000
,
0010
0000
0000
0000
,
0100
0000
0000
0000
,
2000
3000
0000
0000
0200
0300
0000
0000
2000
3000
0000
0000
0200
0300
0000
0000
,
2000
3000
0000
0000
0200
0300
0000
0000
0020
0030
0000
0000
0001
0000
0000
0000
,
1000
0010
0100
0010
,
1000
0001
1000
0000
,
0001
0010
0100
0010
,
0001
0000
0000
1000
0000
0000
0001
0000
,
1000
0100
0010
0100
,
1000
0000
0001
0000
,
0100
0000
0010
0000
,
1000
0001
1000
0000
,
0001
0010
0100
0010
,
0001
1000
0001
0000
,
1000
0010
0100
0010
,
1000
0000
0000
0001
0000
0000
1000
0000
,
0001
0010
0100
0000
,
0100
0010
0001
0000
,
1000
0001
1000
0000
,
0020
0000
0000
0030
,
1000
0000
0000
0000
,
0100
0000
0000
0000
,
0010
0000
0000
0000
,
0001
0000
0000
0000
,
1000
0010
0000
0010
,
0000
0100
0000
0001
,
1000
0000
0000
0000
,
0002
0000
0000
0003
,
1000
0010
0100
0010
,
1000
0001
1000
0000
,
0001
0000
0010
0000
,
0100
0000
1000
0000
,
0001
0100
0010
0000
,
0010
0100
0001
0000
,
1000
0000
1000
0000
,
0002
0000
0000
0003
,
1000
0001
1000
0000
,
0010
0100
0001
1000
,
0001
0000
0010
0000
,
0100
0100
0100
0000
,
1000
0000
0000
0010
0000
0000
1000
0000
,
0001
0000
0000
0100
0000
0000
0001
0000
,
1000
0000
0000
0010
0000
0000
1000
0000
,
2000
3000
0000
0000
0200
0300
0000
0000
0020
0030
0000
0000
0001
0000
0000
0000
,
0100
0000
0000
0000
;

//--------------- dance-single - chrononical ----------------
#NOTEDATA:;
#STEPSTYPE:dance-single;
#DESCRIPTION:chrononical;
#DIFFICULTY:Easy;
#METER:9;
#RADARVALUES:0,0,0,0,0;
#NOTES:
0000
0000
0000
0000
,
0000
0000
0000
0000
,
0000
0000
0000
0000
,
0000
0000
0000
0000
,
0000
0000
0000
0000
,
0000
0000
0000
0000
,
0001
0000
0010
0000
0000
0100
0010
0000
,
0000
0100
1000
0000
0000
0001
1000
0000
,
0001
0100
0010
0100
,
0002
0000
0000
0003
,
1000
0100
0000
0010
0000
0001
0000
0000
,
1000
0010
0000
0100
0000
0001
0000
0000
,
0001
0100
0000
0010
0000
1000
0000
0000
,
0001
0010
0000
0100
1000
0000
0010
0000
,
1000
0010
0001
0010
,
1000
0100
0001
0100
,
1000
0000
1001
0000
,
2000
0000
3000
1001
,
0001
0100
0010
0100
,
0001
0010
0100
1000
,
0001
1000
0001
1000
,
0010
0000
0010
0000
0010
0100
0010
0000
,
1000
0100
0001
0100
,
1000
0010
0100
1000
,
0200
0000
0000
0000
,
0301
1000
0001
1001
,
2000
0000
0000
0000
3100
0010
0100
0000
,
1000
0001
1000
0000
0010
0100
0010
0000
,
1000
0000
0001
0000
0010
0100
0010
0000
,
0001
0000
1000
0010
0000
0010
0100
0000
,
0001
0100
0010
1000
,
0001
0010
0100
1000
,
0001
1000
0001
0000
0100
0010
1000
0000
,
2000
3000
0000
0000
0200
0300
0000
0000
0020
0030
0000
0000
0001
0000
0000
0000
,
1000
0001
1000
0000
0020
0000
0000
0000
,
0000
0000
0030
0000
,
1000
0100
0001
1000
,
0010
0001
0100
0010
,
1000
0000
0001
0000
0101
0000
0000
1001
,
0000
1001
1000
0010
,
1000
0001
0000
0010
0000
0000
0100
0000
,
0000
1000
0001
1000
0001
0000
0000
0000
,
0200
0000
1300
0200
,
0000
0010
0000
0000
0301
0000
2000
0000
,
3001
0000
0000
0010
0000
0000
0000
0100
0000
0000
0000
2000
,
0000
0000
0000
0000
,
3001
0100
1000
0100
,
0001
0010
0100
0001
,
0100
1000
0010
0100
,
0001
1000
0002
1003
,
0100
0001
0100
1000
,
0010
0001
1000
0100
,
0001
0000
1000
0001
0000
0001
1000
0000
,
0001
0010
0100
1000
,
0002
0000
0000
0000
,
0203
0000
0000
0000
,
0320
0000
0000
0000
,
1030
0001
1000
0001
,
1000
0100
0000
0100
,
0010
0001
0000
0001
,
1000
0010
0100
0001
,
1000
1000
0001
0001
,
1001
0000
1000
0000
0000
0000
0000
1100
,
0000
0100
0000
0000
0000
0000
0000
0110
,
0000
0010
0000
0000
0000
0000
0000
0000
,
0011
0000
0000
1001
0000
1000
0000
0000
,
0001
0100
1000
0100
,
0001
0010
1000
0010
,
0001
0100
0010
1000
,
0002
0000
0000
0003
,
1000
0000
0100
0010
0001
0000
0000
1000
,
0000
1000
0010
0100
0001
0000
1000
0000
,
0001
0000
0000
1000
0000
0000
0100
0000
,
0000
0010
0000
0000
0001
0000
1000
0000
,
0001
0000
0000
0100
0000
0000
0010
0000
,
1000
0000
0000
0001
0000
0000
0010
0000
,
0100
0000
0000
0000
,
2000
3000
0000
0000
0200
0300
0000
0000
2000
3000
0000
0000
0200
0300
0000
0000
,
2000
3000
0000
0000
0200
0300
0000
0000
0020
0030
0000
0000
0001
0000
0000
0000
,
0100
1000
0100
0001
,
0010
1000
0010
0001
,
0100
1000
0001
0010
,
1000
0000
0000
0100
0000
0000
0010
0000
,
0100
0001
0100
1000
,
0010
0001
1000
0100
,
0020
1030
0020
0130
,
0010
1000
0001
1000
,
0010
0001
0010
1000
,
0100
0001
0100
1000
,
0010
0001
1000
0100
,
0001
0000
0000
0010
0000
0000
0100
0000
,
1000
0010
0100
0001
,
1000
0100
0010
0001
,
1000
1000
0020
0230
,
0302
0000
0000
0000
,
2003
0000
0000
0000
,
3200
0000
0000
0000
,
0320
0000
0000
0000
,
0032
0000
0000
0000
,
1003
0000
0010
0000
0000
0100
0010
0000
,
0000
0100
0001
0000
0000
1000
0001
0000
,
2000
0000
0000
0000
,
3001
0000
0000
0010
0000
0000
0100
0000
,
0001
1000
0010
0001
,
0100
1000
0001
0010
,
1000
0100
0001
1000
,
0010
0001
0100
0010
,
1000
0100
0010
0001
,
1000
0010
0100
0001
,
1000
0100
1000
1000
,
0002
0000
0000
0003
,
1000
0010
0100
0010
,
1000
0100
0010
0001
,
1000
0001
1000
0001
,
0100
0000
0100
0000
0100
0010
0100
0000
,
0001
0000
0000
0010
0000
0000
0100
0000
,
1000
0000
0000
0010
0000
0000
0100
0000
,
0001
1000
0001
1000
,
2000
3000
0000
0000
0200
0300
0000
0000
0020
0030
0000
0000
0001
0000
0000
0000
,
0100
0000
0000
0000
;

//--------------- dance-single - chrononical ----------------
#NOTEDATA:;
#STEPSTYPE:dance-single;
#DESCRIPTION:chrononical;
#DIFFICULTY:Medium;
#METER:13;
#RADARVALUES:0,0,0,0,0;
#NOTES:
0000
0000
0000
0000
,
0000
0000
0000
0000
,
0000
0000
0000
0000
,
0000
0000
0000
0000
,
0000
0000
0000
0000
,
0000
0000
0000
0000
,
1000
0000
0010
0000
0000
0100
0001
1000
,
0000
1000
0100
0000
0010
0001
1000
0000
,
0001
0100
0010
0100
0001
1000
1000
0100
,
2000
0000
0000
3001
,
2000
0001
0000
0010
0000
3100
1000
0000
,
0002
1000
0000
0100
0000
0013
0001
0000
,
2000
0001
0000
0100
0000
3010
1000
0000
,
0002
1000
0000
0103
0001
0000
1001
0000
,
1000
0000
0000
0100
0000
0000
0010
0000
1000
0000
0000
0010
0000
0000
0001
0000
,
1000
0000
0000
0010
0000
0000
0100
0000
1000
0000
0000
0100
0000
0000
0001
0000
,
1000
0000
0000
1000
0000
0000
0010
0000
0100
0000
0000
0100
0000
0000
0001
0000
,
2000
0000
3000
1001
,
0001
0010
0100
0010
0001
1000
0001
0100
,
0020
0001
0000
0100
0000
0100
0000
1030
,
0001
0010
0100
1000
0200
0010
0000
1300
,
1100
0000
1001
0000
1000
0010
0100
0001
,
1000
0100
1000
0000
0100
0010
0001
1000
,
0001
0100
0010
0000
0100
0010
1000
0001
,
2000
0001
0001
0001
,
3001
0000
0010
0100
1000
0000
1001
0000
,
1020
0000
0000
0000
0130
0001
0010
0100
,
0010
0001
0100
0010
1000
0001
1000
0000
,
1010
0000
2001
0000
3100
1000
0010
0100
,
0001
1000
0000
1000
0000
0100
0010
0001
,
1000
1010
0110
1001
,
1000
0100
0010
0100
1000
0010
0100
0010
,
1000
0001
1000
0001
0100
0010
1000
0001
,
2000
3000
0000
0000
0200
0300
0000
0000
0020
0030
0000
0000
1001
0000
0000
0000
,
1000
0020
0230
0302
1003
0001
1000
0100
,
1000
0010
1000
0001
0200
0000
0300
0000
,
2001
0010
3100
0100
,
0110
1001
0110
1001
,
1010
0000
0120
0000
0100
0000
0000
0001
,
0000
1000
0130
1001
,
1000
0000
1000
0000
0000
0000
0100
0000
0000
0100
0000
0000
0010
0000
0000
0010
,
0000
0001
1000
0010
0100
0000
0000
0000
,
0001
0000
0000
0010
0000
0000
0100
0000
0210
0000
0000
0000
1300
0000
0000
0010
,
0000
0000
0100
0000
0000
0010
0000
0000
0210
0000
0000
0000
0302
0000
0000
0000
,
1003
0000
0000
0100
0000
0000
0000
0010
0000
0001
0000
1000
,
0002
0000
0000
0000
,
1003
0100
0010
0100
1000
0001
1000
0000
,
0001
0100
0010
0000
0010
0100
0001
0000
,
1000
0000
0010
1000
0100
0000
0010
0001
,
0100
0010
1000
0001
0100
0000
0010
0000
,
1010
0000
1001
0000
1000
0100
0020
0001
,
0000
0100
0000
1030
0010
0001
1000
0010
,
1000
0001
0100
0010
0100
0010
1000
0000
,
0001
0010
0100
1000
0001
1000
1001
0000
,
2000
0000
0000
0000
,
3020
0000
0000
0000
,
0230
0000
0000
0001
,
0302
1000
1000
1000
,
2003
0100
0000
0100
,
3002
0100
0000
0100
,
1003
0000
0100
0000
0010
0000
0001
1000
,
0001
0100
0010
0100
0001
0000
1001
0000
,
1100
0000
1001
0000
0000
0000
0000
1010
,
0000
1001
0000
0000
0000
0000
0000
0011
,
0000
1001
0000
0000
0000
0000
0000
0000
,
0101
0000
0000
1001
0000
1010
0000
0000
,
1000
0000
0000
0010
0000
0000
0100
0000
1000
0000
0000
0100
0000
0000
0001
0000
,
1000
0000
0000
0100
0000
0000
0010
0000
1000
0000
0000
0010
0000
0000
0001
0000
,
1000
0010
0100
0010
0100
0001
1000
0001
,
2000
0000
0100
3001
,
2000
0000
3010
0100
0001
0010
0100
1000
,
0000
1000
0100
0010
0001
0100
0010
0000
,
1001
0000
0000
1000
0000
0000
0100
0000
0000
0010
0000
0000
1001
0000
0000
0001
,
0000
0000
0100
0000
0000
0010
0000
0000
1000
0000
0000
0000
1001
0000
0000
0000
,
0001
0000
0010
0100
0000
0000
1000
0000
,
0001
0000
0100
0010
0000
0000
1000
0000
,
1001
0000
0000
0000
,
2001
3000
0000
0000
1200
0300
0000
0000
2001
3000
0000
0000
1200
0300
0000
0000
,
2001
3000
0000
0000
1200
0300
0000
0000
0120
0030
0000
0000
0100
0000
1000
0000
,
1010
0000
1001
0000
0001
0100
0010
1010
,
0000
1001
0000
0001
0010
0100
0010
0011
,
0000
1001
0000
1000
0010
0100
1000
0100
,
0002
0000
1003
0020
0000
0130
0010
1000
,
1100
0000
1001
0000
0001
0010
0200
1000
,
0000
0010
0000
0301
0100
1000
0001
0100
,
0001
0110
1000
0110
,
1001
0000
1000
0100
0010
0000
0010
0001
,
0101
0000
1001
0000
1000
0010
0100
0101
,
0000
1001
0000
1000
0100
0010
0100
1100
,
0000
1001
0000
0001
0100
0010
0001
0010
,
2000
0000
3001
0020
0000
0130
1000
0001
,
1000
1100
0110
1001
,
1000
0010
0100
0010
1000
0100
0010
0100
,
1000
0001
1000
0001
0200
0000
0320
0000
,
1030
0001
1000
0010
1000
0100
1000
0000
,
0002
0000
0000
0000
,
0203
0000
0000
0000
,
0320
0000
0000
0000
,
2030
0000
0000
0000
,
3001
0000
0010
0000
0000
0100
1000
0001
,
0000
0001
0100
0000
0010
1000
0001
0000
,
2000
0000
0000
0000
,
3002
1000
0000
1000
0000
1003
0010
1000
,
1100
0000
1001
0000
0001
0010
0100
1100
,
0000
1001
0000
0001
0100
0010
0100
0101
,
0000
1001
0000
1000
0100
0010
0100
0002
,
0000
0103
1000
0001
1000
0010
0100
0002
,
0000
0023
0000
0000
0000
0130
1000
0020
,
0000
0000
0000
0130
0001
1000
0100
0010
,
0001
0000
0000
0100
0000
0000
0010
0000
1000
0000
0000
1000
0000
0000
1000
0000
,
0002
0000
0000
0003
,
1000
0100
0010
0100
1000
0001
1000
0010
,
0200
1000
0000
0010
0000
0010
0000
0301
,
1000
0100
0010
0001
0020
0100
0000
0031
,
0011
0000
1001
0000
0001
0100
0010
1000
,
0001
0000
0001
0010
0000
0010
0100
0000
,
1000
0000
1000
0010
0000
0010
0100
0000
,
0002
0203
0320
1030
,
2000
3000
0000
0000
0200
0300
0000
0000
0020
0030
0000
0000
1002
0000
0000
0000
,
0103
0000
0000
0000
;

//--------------- dance-single - chrononical ----------------
#NOTEDATA:;
#STEPSTYPE:dance-single;
#DESCRIPTION:chrononical;
#DIFFICULTY:Hard;
#METER:16;
#RADARVALUES:0,0,0,0,0;
#NOTES:
0000
0000
0000
0000
,
0000
0000
0000
0000
,
0000
0000
0000
0000
,
0000
0000
0000
0000
,
0000
0000
0000
0000
,
0000
0000
0000
0000
,
0001
0000
0011
0000
0000
0010
0100
1000
,
0000
0001
0101
0000
0100
0010
1010
0000
,
1000
0010
1000
0000
0010
0000
0100
0000
0010
0000
0001
0000
0001
0000
0010
0000
,
2000
0000
3000
1001
,
0001
2000
0000
0001
0000
0010
0000
3100
,
1000
0002
0000
1000
0000
0100
0000
0013
,
0001
0020
0000
1000
0000
0100
0000
0031
,
1000
0020
0000
0001
0130
0000
0110
0000
,
1001
0000
1000
0100
0000
0000
0010
0000
1000
0000
0010
0100
0000
0000
1000
0000
,
1001
0000
0001
0100
0000
0000
0010
0000
0001
0000
0010
0100
0000
0000
0001
0000
,
1001
0000
0000
1100
0000
0000
1000
0100
0010
0001
0000
0101
0000
0000
0100
0010
,
2000
0000
3000
1001
,
0001
0000
0100
0000
0010
0000
0100
0000
0001
0000
0010
0100
1000
0000
0001
0000
,
2000
0010
3002
0010
2003
0100
3002
0100
,
1003
0000
0010
0100
0001
0000
0010
0000
0100
0000
0010
0000
0002
0000
0100
0000
,
1003
0000
1020
0000
0130
0010
0001
0010
,
1000
0000
1000
0000
1000
0000
0100
0000
0001
0000
0100
0010
0100
0000
1000
0000
,
0001
0100
0010
0100
1000
0001
0010
0100
,
0002
1000
1000
1000
,
1003
0000
0100
0010
0001
1000
1001
0000
,
0201
0000
0000
0000
1300
0100
0010
0010
,
1000
0000
0100
0000
0010
0000
0010
0000
0100
0000
1000
0000
0001
0100
0010
1000
,
0010
0000
1020
0000
0031
0010
0100
0100
,
0001
0000
0001
0000
0010
0000
0100
0000
0000
0000
0100
0000
0010
0000
0001
1000
,
0001
0100
0010
0100
0001
0010
0100
0000
,
1000
0100
0001
0100
1000
0010
0001
0010
,
0100
0000
0100
0000
0001
0000
0001
0000
1000
0010
0100
0001
1000
0010
0100
0001
,
2000
3000
0000
0000
0200
0300
0000
0000
0020
0030
0000
0000
1001
0000
0000
0000
,
0001
0200
2300
3200
0310
1000
0001
0010
,
0001
1000
0100
1000
0020
0000
0030
0000
,
2001
0100
3010
0010
,
1001
0110
1001
1200
,
0301
0100
1000
0000
1020
0000
0100
0100
,
0000
0001
0001
0000
0130
0001
1001
0000
,
1100
0000
1100
0000
0000
0000
0110
0000
0000
0011
0000
0000
1001
0000
0000
0101
,
0000
0110
0010
1000
0100
0000
0000
0000
,
1100
0000
0000
1001
0000
0000
1020
0000
0130
0000
0000
0000
1010
0000
0000
1001
,
0000
0000
1100
0000
0000
0120
0000
0000
1030
0000
0010
0000
0100
0010
0100
1000
,
0001
1000
0100
1000
0001
0100
0001
1000
0010
1000
0001
0010
,
0200
0000
0000
0000
,
1300
0000
0010
0000
0100
0000
0010
0000
0001
0010
0100
0000
0001
0000
1000
0000
,
0001
0010
0100
0000
0010
0000
0100
0000
1000
0000
0100
0000
0001
0000
0100
0000
,
0020
0000
0001
0000
0230
0000
1000
0000
0310
0001
1000
0000
0010
0000
0100
0000
,
1000
0100
0010
0000
0100
0000
0001
0000
1000
0100
0010
0000
0100
0010
0001
0000
,
0201
0000
1300
0100
0010
0100
0001
0021
,
0000
0130
1000
0001
0100
0010
0100
0001
,
1000
1000
0002
0100
2003
0100
3001
0000
,
0010
0000
0010
0000
0100
1000
0100
0000
1000
0010
0100
0001
0010
0000
0000
0000
,
2001
0000
0000
0000
,
3020
0000
0000
0000
,
0230
0000
0000
0010
,
0302
0010
2003
0100
,
3002
0010
0010
0010
,
2003
0010
0010
0010
,
3001
0000
0100
0000
0010
0000
0100
0000
0001
0000
1000
0000
0100
0010
0001
1000
,
0001
0000
0100
0000
0010
0100
0010
0000
1000
0000
0001
1000
0001
0000
0010
0000
,
0110
0000
1100
0000
0100
1000
1100
0110
,
0000
0011
0000
0001
0100
0010
0100
0101
,
0000
0110
0000
0010
0100
0001
0010
0100
,
1100
0000
0110
0011
0000
0101
0001
1000
,
1001
0000
0001
0100
0000
0000
0010
0000
0001
0000
0010
0100
0000
0000
0001
0000
,
1001
0000
1000
0100
0000
0000
0010
0000
1000
0000
0010
0100
0000
0000
1000
0000
,
0001
0000
0100
0000
0010
0000
1000
0000
0001
0010
0100
1000
0001
0010
0100
1000
,
0002
0000
1003
0101
,
2001
0000
0001
0100
3100
0010
0001
1001
,
0000
2001
0010
3010
0100
0010
1001
0000
,
1010
0000
0000
1100
0000
0000
0110
0000
0000
0011
0000
0000
0101
0000
0000
0011
,
0000
0000
0000
0000
0000
0000
0110
0000
0000
0000
0000
0000
0000
0000
0000
2100
0000
0000
0000
0000
0000
0000
0000
0000
3010
0000
0000
0000
0100
0000
0000
0000
0001
0000
0000
0000
1000
0000
0000
0000
0000
0000
0000
0000
0000
0000
0000
0000
,
0100
0010
0001
1000
0010
0000
0100
0010
1000
0001
0010
0000
0100
0010
0001
1000
,
0010
0100
0001
1000
0100
0000
0010
0100
1000
0001
0100
0000
0010
0100
0001
1000
,
0100
0000
0000
0000
,
2001
3000
0001
0000
1200
0300
0000
0000
2001
3000
0001
0000
1200
0300
0000
0000
,
2001
3000
0000
0000
1200
0300
0000
0000
0120
0030
0000
0000
0100
1000
0001
0100
,
0010
0100
1000
0100
0010
0010
1000
0100
,
0010
1000
0010
0100
0100
1000
0010
0001
,
0010
0100
0001
1000
1000
0100
0001
0100
,
2000
0000
0000
0000
3010
0000
0200
0000
0000
0000
0301
0000
0100
0001
1000
0100
,
0010
0100
0001
0100
0010
0010
0001
0200
,
0001
0320
1000
0130
0010
0100
0001
1000
,
2100
0000
3010
0000
0102
0000
0013
0110
,
0100
1000
0010
0110
0100
0000
1001
0001
,
0100
0010
0001
0010
0100
0100
0001
0010
,
0100
0001
0100
0010
0010
0001
0100
1000
,
0100
0010
0100
0001
0001
0010
1000
0010
,
0012
0000
0000
0000
1003
0000
0102
0000
0000
0000
1003
0000
0010
1000
0001
0100
,
0001
0010
0100
0010
0001
0100
0010
0010
,
1000
0010
0001
0010
1000
0100
0001
0100
,
1100
0000
1001
0000
1020
0000
0031
0010
,
0100
0001
1000
0100
1000
0001
0010
0001
,
0200
0000
0000
1000
0000
0000
0301
0000
,
0020
0000
0000
1000
0000
0000
0031
0000
,
2000
0010
3002
0100
,
2003
0000
0000
3000
,
0001
0000
0101
0000
0000
0100
0010
1000
,
0000
0001
0011
0000
0010
0100
1100
0000
,
2002
0000
0000
3003
,
0101
0000
0101
0000
0000
0000
0110
0000
0000
0000
1010
0000
0010
0100
0001
1000
,
0100
0010
1000
0001
0100
0100
1000
0010
,
0100
1000
0001
0010
0010
1000
0100
0001
,
1000
0010
0110
0100
1000
0010
0110
0200
,
0000
0000
1300
0100
0010
0000
1000
0000
0001
0000
0010
0000
1000
0000
0010
0000
,
0001
0100
0010
1000
0100
0010
0100
0001
,
0100
0000
1000
0000
0001
0000
0100
0000
0001
0000
1000
0000
0010
1000
0010
0000
,
1010
0000
0000
0010
0100
0000
0010
0000
1010
0000
0000
1100
0000
0000
0110
0000
,
2002
0000
0000
3003
,
1000
0000
0100
0000
0010
0000
0100
0000
1000
0000
0010
0100
0001
0000
1000
0000
,
0002
0010
2003
0010
3002
0100
2003
0100
,
3001
0000
0010
0100
1000
0000
0010
0000
0100
0000
0010
0000
2000
0000
0100
0000
,
3001
0000
0021
0000
0130
0010
1001
0000
,
0001
0000
0100
0000
0100
0000
0010
0000
0100
0000
0100
0000
1000
0000
0100
0001
,
1000
0000
0100
0000
0100
0000
0010
0000
0100
0000
0100
0000
0001
0000
0100
0010
,
0001
0010
0100
0010
0001
1000
0001
0100
0010
0100
0001
1000
0001
1000
0001
0000
,
2001
3000
0000
0000
0200
0300
0000
0000
0020
0030
0000
0000
1002
0000
0000
0000
,
0103
0000
0000
0000
;
