#TITLE:DIAVOLO;
#SUBTITLE:;
#ARTIST:度胸兄弟;
#TITLETRANSLIT:;
#SUBTITLETRANSLIT:;
#ARTISTTRANSLIT:;
#GENRE:;
#CREDIT:;
#MUSIC:DIAVOLO.ogg;
#BANNER:DIAVOLO.png;
#BACKGROUND:DIAVOLO-bg.png;
#CDTITLE:;
#SAMPLESTART:18.340;
#SAMPLELENGTH:12.000;
#SELECTABLE:YES;
#OFFSET:-0.346;
#BPMS:0.000=160.000;
#STOPS:;
#BGCHANGES:;
#FGCHANGES:;

//--------------- dance-single - ----------------
#NOTES:
     dance-single:
     :
     Beginner:
     7:
     0,0,0,0,0:
0000
0000
0000
0000
,
0000
0000
0000
0000
,
0000
0000
0000
0000
,
0000
0000
0000
0000
,
2000
0000
3200
0000
,
0320
0000
0032
0000
,
2003
0000
3002
0000
,
0023
0000
0230
0000
,
1300
0001
0100
0001
,
1000
0100
0010
0000
,
0001
1000
0010
1000
,
0001
0010
0100
0000
,
2000
0000
3020
0000
,
0230
0000
0302
0000
,
2003
0000
3002
0000
,
0203
0000
0320
0000
,
1030
0100
1000
0100
,
0010
0001
0010
0001
,
1000
0010
1000
0010
,
0100
0001
0100
0001
,
2000
0000
3200
0000
,
0302
0000
0203
0000
,
2300
0000
3020
0000
,
0032
0000
0023
0000
,
2030
0000
3002
0000
,
0023
0000
0230
0000
,
2300
0000
3002
0000
,
0203
0000
0300
0000
,
0010
1000
0001
0010
,
1000
0010
0002
0000
,
1003
0010
0001
0010
,
0100
0010
2000
0000
,
3001
0010
0001
0010
,
0100
1000
0100
1000
,
0001
0100
0010
1000
,
0100
0010
0002
0000
,
1003
0100
1000
0010
,
0100
0001
0010
0001
,
2000
0000
3020
0000
,
0032
0000
0000
0000
0013
0000
1000
0001
,
1000
0100
0010
0100
,
1000
0010
0100
0010
,
2000
0000
3001
0010
,
0200
0000
0300
0000
0001
0100
1000
0001
,
2000
0000
0010
0000
,
3002
0000
0010
0000
,
2003
0000
0100
0000
,
0010
0000
3200
0320
,
0032
0000
0100
0000
,
2003
0000
0100
0000
,
3002
0000
0100
0000
,
0010
0000
1003
0100
,
0010
0001
1000
0010
,
0100
0001
1000
1000
,
0001
0001
1000
1000
,
0001
0000
0001
0000
1000
0100
0010
0000
,
0200
0000
0300
0000
1000
0010
0100
0000
,
0020
0000
0000
0000
1030
0001
0010
0000
,
0200
0000
0300
0000
1000
0001
0100
0000
,
0020
0000
1030
0001
,
0010
0000
1000
0010
,
0001
0000
1000
1000
,
0010
0010
0100
0100
,
0001
0000
0001
0000
1000
0100
1000
0000
,
0010
0100
0010
0000
1000
0100
1000
0000
,
0001
0000
0000
0000
0100
0010
0100
0000
,
0001
0010
0001
0000
0100
0010
0100
0000
,
0001
0000
0000
0000
1000
0100
0010
0000
,
0001
0100
0010
0000
1000
0010
0100
0000
,
0001
0000
0010
0100
,
0010
0100
1000
2002
,
0000
0000
3003
0000
;

//--------------- dance-single - ----------------
#NOTES:
     dance-single:
     :
     Easy:
     11:
     0,0,0,0,0:
0000
0000
0000
0000
,
0000
0000
0000
0000
,
0000
0000
0000
0000
,
0000
0000
0000
0000
,
2000
0000
3100
1000
0002
0000
0103
0001
,
2000
0000
3010
1000
0002
0000
0013
0001
,
2000
0000
3100
0010
0002
0000
1003
0010
,
0200
0302
2003
0000
,
3001
0000
0010
0000
1000
0000
0010
0002
,
1003
0010
0001
0010
,
1000
0000
0100
0000
0001
0000
0100
2000
,
3001
0100
1000
0100
,
0002
0000
0103
0001
2000
0000
3100
1000
,
0002
0000
0013
0001
2000
0000
3010
1000
,
0002
0000
0013
0100
2000
0000
3001
0100
,
0020
2030
3002
0000
,
1003
0100
0010
0100
,
1000
0010
0100
0010
,
1000
0100
1000
0100
0010
0001
0010
0001
,
1000
0010
1000
0010
0100
0001
0100
0001
,
2000
0000
3200
0302
,
2003
0000
3020
0032
,
2003
0000
3020
0032
,
2003
0000
3200
0302
,
2003
0000
0000
0000
3200
0320
0032
2003
,
3002
0000
0000
0000
0023
0230
2300
3002
,
2003
0000
3020
0000
,
0230
0302
0000
0000
,
1003
0000
1000
0100
0000
0000
0010
0000
0010
0001
0000
0000
,
1000
0000
1000
0010
0000
0000
0200
0000
0000
0000
0000
0000
,
0301
0000
0001
0010
0000
0000
0100
0000
0100
1000
0000
0000
,
0001
0000
0001
0100
0000
0000
0020
0000
0000
0000
0000
0000
,
1030
0000
1000
0100
0000
0100
0001
0000
0001
0100
0000
0100
,
1000
0000
1000
0010
0000
0010
0001
0000
0001
0010
0000
0010
,
1000
0000
1000
0100
0000
0100
0010
0000
0010
0001
0000
0001
,
0100
0000
0100
0010
0000
0010
2000
0000
0000
0000
0000
0000
,
3001
0100
0001
1000
0100
1000
0010
0100
,
0001
0010
0001
1000
0010
1000
0100
0010
,
0002
0000
1003
0010
0002
0000
1003
0100
,
0002
0000
1003
0100
0001
0100
1000
0100
,
0010
0000
0001
1000
0010
0001
0010
1000
,
0001
0000
0010
0100
0001
0100
1000
0010
,
0200
0000
0000
1300
0100
0001
1000
0100
,
0020
0000
0030
0001
1000
0010
0100
0001
,
2000
0100
0010
0100
,
3002
0100
0010
0100
,
2003
0100
0010
0001
,
0010
0100
3020
0230
,
0302
0010
0100
0010
,
2003
0010
0100
0010
,
3002
0010
0100
1000
,
0100
0000
0010
0000
1003
0100
1000
0000
,
0001
0100
0001
0000
1000
0010
1000
0000
,
0001
0010
0001
0000
1000
0000
0010
0000
,
0100
0001
0100
0010
,
1000
0000
0001
0000
1000
0100
1000
0000
,
0010
0000
0100
0000
0001
0010
0001
0000
,
1000
0010
0100
0001
1000
0010
1000
0000
,
0100
0000
0010
0000
0001
0100
0001
0000
,
1000
0100
0010
0001
1000
0000
0010
0001
,
0010
0000
1000
0000
0001
0000
0010
1000
,
0010
0001
1010
0101
,
1100
0011
0110
1001
,
0110
0000
1001
0000
1000
0100
0010
0100
,
1000
0100
0010
0100
1000
0100
0010
0100
,
1000
0001
1000
0000
0001
0100
0010
0100
,
0001
0100
0010
0100
0001
0100
0010
0100
,
0001
1000
0001
0000
1000
0100
0001
0100
,
1000
0010
0001
0010
1000
0100
0001
0100
,
1000
0001
0100
0100
,
0100
0100
0100
2002
,
0000
0000
3003
0000
;

//--------------- dance-single - ----------------
#NOTES:
     dance-single:
     :
     Medium:
     14:
     0,0,0,0,0:
0000
0000
0000
0000
,
0000
0000
0000
0000
,
0000
0000
0000
0000
,
0000
0000
0000
0000
,
2000
0000
3002
0203
2300
0000
3002
0023
,
2030
0000
3002
0023
2030
0000
3002
0203
,
2300
0000
3002
0023
0230
0000
2300
3002
,
0023
0000
0230
2300
3002
0000
0000
0000
,
0003
0000
1000
0000
0010
0000
0001
0000
0010
0000
1000
0000
0001
0000
0020
0030
,
0020
0000
0031
0000
1000
0000
0010
0000
0001
0000
0020
0030
2000
3000
0000
0000
,
0000
0000
0001
0000
0010
0000
1000
0000
0010
0000
0001
0000
1000
0000
0020
0030
,
0020
0000
1030
0000
0001
0000
0010
0000
1000
0000
0020
0030
0002
0003
0000
0000
,
2000
0000
3020
0230
2300
0000
3200
0302
,
2003
0000
3200
0320
2030
0000
3020
0032
,
2003
0000
3002
0203
0320
0000
2030
3002
,
0023
0000
0230
2300
3002
0000
0000
0000
,
1003
0010
0100
0010
1000
0001
0010
0100
,
0010
0001
0100
0010
1000
0100
1000
0001
,
1000
0100
0001
0100
1000
0010
0001
0010
,
1000
0100
0001
1000
0010
0001
0100
0010
,
2000
0000
0000
3200
0320
0230
2300
0000
,
3002
0000
0000
0203
0320
0230
0302
2003
,
3200
0000
0000
0320
0032
0203
0320
0000
,
0230
0000
0000
0302
2003
3200
0320
0032
,
2003
0000
0000
3020
0032
0023
2030
3002
,
0023
0000
0000
2030
3020
0032
0203
0320
,
0032
0000
0000
0023
2030
0000
0000
3002
,
0023
0230
2300
3002
0000
0000
0000
0000
,
1003
0000
1000
0100
0000
0001
0100
0000
1000
0010
0000
0001
,
0010
0000
0000
0000
1000
0000
0100
0000
0000
0000
0010
0000
0002
0000
0000
0000
0000
0000
0000
0000
0000
0003
0000
0000
,
0001
0000
0001
0100
0000
1000
0100
0000
0001
0010
0000
1000
,
0010
0001
1000
0010
0100
0001
2000
0000
0000
3000
0000
0000
,
0001
0100
0010
0001
0000
0010
1000
0000
0001
0010
0000
0100
,
1000
0010
0001
0010
0000
0100
0001
0000
0010
0100
0000
1000
,
0001
0100
0001
1000
0010
1000
0001
0010
0001
1000
0100
1000
,
0001
0100
0010
1000
0100
0010
0002
0000
0000
0000
0000
0000
,
1003
0200
1300
0020
0130
0002
0013
0002
,
1003
0000
0010
1000
0100
0000
0010
0001
0100
0000
0001
0010
0100
0000
1000
0010
,
0200
0000
0302
0023
2030
0000
3002
0203
,
2300
0000
3020
0230
2300
3002
0023
0230
,
0301
0010
0001
0000
1000
0000
0010
0100
0010
0000
1000
0001
0010
0100
0010
0000
,
0001
0100
0001
0000
1000
0000
0100
0010
0100
0000
1000
0010
0100
0001
1000
0000
,
0100
0010
0100
0000
0000
0000
1000
0001
1000
0000
0010
0100
0001
1000
0001
0000
,
0010
0100
0010
0000
0000
0000
0001
1000
0010
0000
0100
0000
0001
0000
1000
0100
,
2000
0000
3001
0100
1000
0100
0001
0100
,
2000
0000
3100
0001
1000
0100
0010
0001
,
2000
0000
3010
1000
0100
0010
0001
0100
,
0001
0010
0100
1000
0020
0000
0230
0000
,
0302
0000
1003
0100
0001
0100
1000
0100
,
0002
0000
0103
1000
0001
0100
0010
1000
,
0002
0000
0013
0001
0100
0010
1000
0100
,
1000
0010
0100
0001
1000
0100
1000
0100
,
1000
0010
1000
0010
0100
0001
0100
0001
,
0010
0001
0010
0001
1000
0000
0010
0000
,
0100
0001
1000
0100
,
0010
0000
0000
0000
0001
0000
0000
0000
1000
0000
0100
0000
0010
0100
1000
0000
,
0001
0000
0100
0000
0001
0000
0100
0000
0001
0000
0010
0000
0100
0010
0001
0000
,
1000
0100
0010
0000
0100
0010
0001
0000
1000
0000
0010
0000
0100
0010
1000
0000
,
0001
0000
0010
0000
0001
0000
0010
0000
0001
0000
0100
0000
0010
0100
0001
0000
,
1000
0010
0100
0000
0010
0100
0001
0000
1000
0000
0100
0000
0010
0000
0100
0000
,
0001
0100
0010
0100
1000
0010
0100
0010
,
0001
0010
0100
0010
1000
1000
0001
0001
,
0010
0010
0100
0100
1000
1000
0001
0001
,
0100
0000
0100
0000
0010
0000
0010
0000
1000
0000
0100
0000
1000
0010
0100
0000
,
0001
0000
0010
0000
0001
0100
0010
0000
1000
0000
0100
0000
1000
0001
1000
0000
,
0100
0000
0001
0000
0100
0000
1000
0000
0001
0000
0100
0000
0001
0010
0100
0000
,
1000
0000
0010
0000
1000
0100
0010
0000
0001
0000
0100
0000
0001
1000
0001
0000
,
0010
0000
1000
0000
0010
0000
0001
0000
1000
0010
1000
0000
0001
0010
0001
0000
,
1000
0100
1000
0000
0001
0100
0001
0000
1000
0100
0010
0000
0001
0100
0010
0000
,
1000
0000
0001
0000
0100
0010
0100
0010
,
0100
0010
0100
0010
0100
0000
2002
0000
,
0000
0000
3003
0000
;

//--------------- dance-single - ----------------
#NOTES:
     dance-single:
     :
     Hard:
     18:
     0,0,0,0,0:
0000
0000
0000
0000
,
0000
0000
0000
0000
,
0000
0000
0000
0000
,
0000
0000
0000
0000
,
2000
0000
0000
0000
3100
1000
0100
1000
0002
0000
0000
0000
0103
0001
0100
0001
,
0020
0000
0000
0000
0130
1000
0100
1000
0020
0000
0000
0000
0130
0001
0100
0001
,
2000
0000
0000
0000
3001
0010
0001
0010
0200
0000
0000
0000
1300
0001
1000
0001
,
0020
0000
0230
0320
0032
0000
0000
0000
,
1003
0000
0100
0000
0001
0000
0100
0000
0010
0000
0100
0000
1000
0000
0002
0003
,
0002
0003
0100
0000
1000
0000
0100
0000
0010
0000
0100
0000
0000
0000
0000
0000
,
0001
0000
0010
0000
1000
0000
0010
0000
0100
0000
0010
0000
0001
0000
2000
3000
,
2000
3000
0010
0000
0100
0000
0010
0000
0001
0000
0010
0000
0000
0000
0000
0000
,
2000
0000
0000
0000
3100
0010
0100
1000
0002
0000
0000
0000
0103
0010
0100
0001
,
2000
0000
0000
0000
3100
0010
0001
0010
0200
0000
0000
0000
1300
0001
0100
0010
,
0200
0000
0000
0000
0301
1000
0100
0010
0200
0000
0000
0000
1300
0001
0010
0100
,
2000
0000
3020
0230
0302
0000
0000
0000
,
1003
0100
1100
1000
0001
0100
0101
0001
,
1000
0010
1010
1000
0001
0010
0011
0001
,
1000
0010
0101
1000
0001
0010
1100
0001
,
1010
1000
0011
0001
0110
0100
1001
0001
,
2000
0000
0000
3200
0302
0203
2300
0000
,
3002
0000
0000
0203
2300
3200
0302
2003
,
3200
0000
0000
0302
0203
0320
0032
0000
,
0203
0000
0000
0320
0032
0023
2030
3002
,
0023
0000
0000
2030
3002
0203
2300
3200
,
0320
0000
0000
2030
3020
0032
2003
3200
,
0302
0000
0000
0203
0320
0000
0000
0032
,
2003
3020
0230
0302
0000
0000
0000
0000
,
1003
0100
0010
0100
1000
0001
0100
0010
1000
0001
0010
0100
,
0010
0001
1000
0010
0100
0001
2000
0000
0000
0000
0000
0000
,
3001
0010
0100
0010
0001
1000
0010
0100
0001
1000
0100
0010
,
0100
1000
0100
0010
0001
0010
0002
0000
0000
0003
0000
0000
,
1000
0010
0001
0010
1000
0001
0010
1000
0010
0100
0010
0001
,
1000
0100
0001
0100
1000
0001
0100
1000
0100
0010
0100
0001
,
1000
0100
0001
1000
0010
0100
1000
0010
0001
1000
0100
0010
,
1000
0001
0010
1000
0010
0001
2000
0000
0000
0000
0000
0000
,
3001
0000
0200
0000
0310
0000
1000
0001
1000
0000
0001
0010
0001
0000
1000
0010
,
1000
0000
0000
0000
0000
0000
0001
0000
0000
0100
0000
0000
0001
0000
0000
0000
0000
0000
1000
0000
0000
0100
0000
0000
1000
0000
0000
0000
0000
0000
0010
0000
0100
0000
0010
0000
0100
0000
0000
0000
0000
0000
0001
0000
1000
0000
0001
0000
,
2000
0000
0000
0000
3100
0001
0100
1000
0002
0000
0000
0000
0103
1000
0100
0001
,
2000
0000
0000
0000
3100
1000
0010
0100
1000
0100
0001
1000
0100
0010
0001
0010
,
0100
0000
1000
0000
0100
0000
2000
0000
0000
0000
0000
0000
3020
0000
0000
0000
0000
0000
0130
0000
0000
1000
0000
0000
0002
0000
0000
0000
0000
0000
0013
0000
0000
0100
0000
0000
0001
0000
0000
1000
0000
0000
0200
0000
0000
0000
0000
0000
,
0310
0000
0001
0000
0010
0000
0002
0000
0000
0000
0000
0000
0023
0000
0000
0000
0000
0000
0130
0000
0000
0001
0000
0000
2000
0000
0000
0000
0000
0000
3010
0000
0000
0100
0000
0000
1000
0000
0000
0001
0000
0000
0100
0000
0000
0010
0000
0000
,
1000
0000
0010
0000
1000
0000
0020
0000
0000
0000
0000
0000
0000
0000
0000
0000
0000
0000
0031
0000
0000
0010
0000
0000
2000
0000
0000
0000
0000
0000
3001
0000
0000
0010
0000
0000
0100
0000
0000
1000
0000
0000
0001
0000
0000
0000
0000
0000
,
0100
0000
0001
0000
0100
0000
0002
0000
0000
0000
0000
0000
0000
0000
0000
0003
0000
0000
1000
0000
0000
0100
0000
0000
1000
0000
0000
0010
0000
0000
0100
0000
0000
0001
0000
0000
0010
0000
0000
0001
0000
0000
1000
0000
0000
0001
0000
0000
,
0020
0000
0000
0000
1030
0010
0001
0010
1000
0010
0001
0010
1000
0010
0001
1000
,
0020
0000
0000
0000
0031
0010
1000
0010
0001
0010
1000
0010
0001
0010
1000
0001
,
0020
0000
0000
0000
1030
0010
0100
0010
0001
0010
0100
0010
0001
1000
0010
0100
,
0001
1000
0001
1000
0100
0010
0100
0010
0002
0000
0000
0000
2003
0000
0000
0000
,
3200
0000
0000
0000
0301
0100
1000
0100
0001
0100
1000
0100
0001
0100
1000
0001
,
0200
0000
0000
0000
1300
0100
0001
0100
1000
0100
0001
0100
1000
0100
0001
1000
,
0200
0000
0000
0000
0301
0100
0010
0100
1000
0100
0010
0100
1000
0001
0100
0010
,
1000
0001
1000
0000
0010
0100
0010
0000
1000
0000
0001
0000
0010
0000
1000
0000
,
0001
0100
1000
0001
0100
1000
0001
0010
,
1000
0001
0010
0100
1000
0001
0001
0100
,
0100
0010
0010
1000
1000
0001
0001
0010
,
0010
0000
0100
0000
0100
0000
1000
0000
1000
0010
0100
0010
0001
0010
0100
0000
,
0001
0010
0000
0100
1000
0100
0010
0000
0001
0100
0010
0100
1000
0100
0010
0000
,
1000
0100
0010
0001
1000
0010
0100
0001
1000
0100
0010
0100
0001
0100
0010
0000
,
0001
0100
0000
0010
1000
0010
0100
0000
0001
0010
0100
0010
1000
0010
0100
0000
,
0001
0010
0100
1000
0001
0100
0010
1000
0001
0000
0010
1000
0010
0000
0001
0000
,
1000
0000
0100
0000
0010
0000
0001
0000
1000
0000
0010
0001
0010
0000
1000
0000
,
0001
0010
0100
1000
0101
0001
1100
1000
,
0011
0001
1010
1000
0110
0010
1001
1000
,
0110
0000
0100
0000
1001
0000
0001
0000
1000
0100
0010
0100
1000
0100
0001
0100
,
1000
0010
0100
0010
1000
0010
0001
0010
1000
0100
0001
0100
0010
0001
1000
0000
,
0001
0100
0001
0100
0010
1000
0010
1000
0001
0010
0100
0010
0001
0010
1000
0010
,
0001
0100
0010
0100
0001
0100
1000
0100
0001
0010
1000
0010
0100
1000
0001
0000
,
1000
0000
0000
0010
0000
0000
1000
0000
0000
0010
0000
0000
0100
0000
0000
0001
0000
0000
0100
0000
0000
0000
0000
0000
0001
0000
0000
0010
0000
0000
0100
0000
1000
0000
0100
0000
0010
0000
0001
0000
0010
0000
0100
0000
0000
0000
0000
0000
,
1000
0000
0000
0010
0000
0000
0100
0000
0001
0000
0100
0000
0010
0000
1000
0000
0010
0000
0100
0000
0000
0000
0000
0000
0001
0000
0000
0010
0000
0000
0100
0000
1000
0000
0001
0000
1000
0000
0010
0000
0100
0000
0001
0000
1000
0000
0001
0000
,
1000
0000
0100
0000
0001
0000
0100
0000
1000
0001
1000
0001
1000
0001
1000
0001
,
0100
0010
0100
0010
0100
0010
0100
0010
1000
0000
0000
0000
2002
0000
0000
0000
,
0000
0000
3003
0000
;

//--------------- dance-single - ----------------
#NOTES:
     dance-single:
     :
     Challenge:
     20:
     0,0,0,0,0:
0000
0000
0000
0000
,
0000
0000
0000
0000
,
0000
0000
0000
0000
,
0000
0000
0000
0000
,
0002
0000
0000
0000
0013
0100
1000
0100
0020
0000
0000
0031
0100
0010
1000
0100
,
2000
0000
0000
0000
3010
0100
0010
1000
0200
0000
0000
0310
0100
1000
0010
1000
,
0002
0000
0000
0013
1000
0010
0100
1000
0020
0000
0000
0130
1000
0100
0001
1000
,
0200
0000
0000
0310
0002
0000
0103
0010
2000
0000
0000
0000
0000
0000
0000
0000
,
3001
1100
1100
1001
1001
0101
0101
0200
,
0320
0030
1010
0000
1010
0000
0110
0000
0110
0000
2000
0000
3002
0000
0003
0000
,
2000
3000
0011
0000
0011
0000
1001
0000
1001
0000
1010
0000
1010
0000
0020
0000
,
0230
0300
0101
0000
0101
0000
0110
0000
0110
0000
0002
0000
2003
0000
3000
0000
,
0002
0000
0000
0000
0103
0010
1000
0010
0200
0000
0000
0301
0010
0100
1000
0010
,
2000
0000
0000
0000
3100
0010
0100
1000
0020
0000
0000
0130
0010
1000
0100
1000
,
0002
0000
0000
0103
0010
0001
0010
1000
0200
0000
0000
0310
1000
0010
0001
1000
,
0020
0000
0000
0130
0002
0000
0013
0100
2000
0000
0000
0000
0000
0000
0000
0000
,
3001
0100
0001
0100
0001
1000
0001
1000
0100
1000
0100
1000
0010
0100
0010
0100
,
0001
0010
0001
0010
0001
1000
0001
1000
0010
1000
0010
1000
0100
0010
0100
0010
,
0001
1000
0010
1000
0001
0010
0100
0010
0001
1000
0100
1000
0001
0100
0010
0100
,
0001
0000
0000
1000
0000
0000
1100
0000
0000
0010
0000
0000
0011
0000
0000
0001
0000
0000
1001
0000
0000
1000
0001
1000
,
0002
0000
0000
0023
2030
3002
0203
0000
,
2300
0000
0000
3020
0032
2003
3200
0302
,
1003
0100
1000
0100
1000
0100
0010
0001
0010
0100
1000
0001
0010
0100
1000
0000
,
0001
0000
0000
0100
0000
0000
0001
0000
0000
0100
0000
0000
0001
0000
0000
0100
0000
0000
0010
0000
0000
1000
0000
0000
0010
0000
0000
0100
0000
0000
0001
0000
0000
1000
0000
0000
0001
0000
1000
0000
0001
0000
1000
0000
0001
0000
1000
0000
,
0001
0010
0100
0010
0001
0010
0100
1000
0100
0010
0100
0010
0001
1000
0001
0000
,
1000
0010
0100
0010
1000
0010
0100
0001
0100
0010
0000
0000
0100
0000
0010
0000
,
1000
0100
0010
0100
1000
0100
0010
0001
1000
0010
0100
0010
1000
0010
0100
0001
,
1000
0000
0000
0100
0000
0000
0010
0000
0000
0001
0000
0000
0010
0000
0000
0100
0000
0000
0010
0000
0000
0001
0000
0000
1000
0000
0000
0000
0000
0000
0000
0000
0010
0000
0000
0000
1000
0000
0000
0000
0100
0000
0000
0000
0010
0000
0000
0000
,
0001
1000
0001
0000
0100
0000
1000
0000
0100
0000
0001
0000
1000
0000
0100
0000
0001
0000
0100
0000
0010
0000
0001
0000
,
1000
0010
1000
0000
0001
0000
0010
0000
1000
0000
0010
0000
0002
0000
0000
0000
0000
0000
0000
0000
0000
0000
0000
0000
,
1003
0001
1000
0000
0100
0000
0001
0000
0100
0000
1000
0000
0001
0000
0100
0000
1000
0000
0100
0000
0010
0000
1000
0000
,
0001
0010
1000
0001
0100
1000
0002
0003
0002
0003
0002
0003
,
1000
0010
0100
0001
1000
0000
0100
0000
0001
0000
0100
0000
1000
0000
0001
0000
0100
0000
0001
0000
1000
0000
0100
0000
,
0010
0001
0010
0100
1000
0000
0001
0000
0100
0000
1000
0000
0100
0000
0001
0000
1000
0000
0100
0000
0010
0000
0001
0000
,
1000
0010
0100
0001
0100
0000
0010
0000
1000
0000
0001
0000
1000
0100
0010
0001
0010
0000
0100
0000
1000
0000
0001
0000
,
0100
0010
1000
0001
0010
0000
0100
0000
1000
0000
0001
0000
0200
0000
0000
0000
0000
0000
0301
1000
0001
1000
0001
1000
,
0001
0000
0000
0000
0000
0000
0000
0000
0000
0000
0000
0000
1000
0000
0000
0000
0100
0000
0000
0000
1000
0000
0000
0000
0100
0000
0000
0000
0000
0000
0000
0000
0000
0000
0000
0000
0010
0000
0000
0000
0001
0000
0000
0000
0010
0000
0000
0000
0002
0000
0000
0003
0000
0000
0000
0000
0000
0000
0000
0000
1000
0000
0000
0000
0010
0000
0000
0000
1000
0000
0000
0000
0002
0000
0000
0000
0003
0000
0000
0000
0000
0000
0000
0000
0010
0000
0000
0000
0100
0000
0000
0000
0010
0000
0000
0000
,
0002
0000
0000
0003
0000
0000
1000
0000
0010
0000
0100
0000
0002
0000
0000
0000
0003
0000
1000
0000
0100
0000
0010
0000
0002
0000
0000
0000
0000
0000
0013
0000
0100
0000
1000
0000
0002
0000
0000
0000
0000
0000
0103
0000
0010
0000
1000
0000
,
0002
0000
0000
0000
0000
0000
0103
0010
1000
0001
0010
0100
0020
0000
0000
0000
0000
0000
0031
1000
0010
0100
0001
1000
,
0200
0000
0000
0000
0000
0000
1300
0001
0100
0010
0100
0001
1000
0100
0010
0100
0010
0001
1000
0001
0010
0100
1000
0001
,
0100
0001
0100
0001
0000
0000
1000
0100
1000
0001
0100
0010
1000
0000
0000
0001
0010
0001
1000
0010
0100
0001
0000
0000
,
0010
0001
0010
0001
0000
0000
1000
0010
1000
0001
0010
0100
1000
0000
0000
0001
0100
0001
1000
0100
0010
0100
0010
0001
,
1000
0010
0100
0020
0000
0000
0000
0000
0000
1030
0001
0010
0100
0000
0000
0010
0001
1000
0010
0100
0001
1000
0000
0000
,
0001
0010
0100
0020
0000
0000
0000
0030
0000
0001
1000
0010
0100
0010
1000
0010
0100
0001
1000
0100
0010
0100
0010
0001
,
2000
0000
0000
0000
3001
0010
0001
0010
0001
0100
0010
0100
0001
1000
0100
1000
,
0002
0000
0000
0000
1003
0010
1000
0010
1000
0100
0010
0100
1000
0001
0100
0001
,
2000
0000
0000
0000
3001
0010
0001
0100
0010
1000
0100
1000
0001
1000
0100
1000
,
0010
0000
0000
0100
0000
0000
0001
0000
0000
0010
0000
0000
0001
0000
0000
1000
0000
0000
0010
0000
0000
0000
0000
0000
0100
0000
0001
0000
0100
0000
0001
0000
0100
0000
0001
0000
1000
0000
0010
0000
1000
0000
0010
0000
1000
0000
0010
0000
,
2000
0000
0000
0000
3001
0010
0001
0100
0010
1000
0100
1000
0001
0100
0010
1000
,
0002
0000
0000
0000
1003
0010
1000
0100
0010
0001
0100
0001
1000
0100
0010
0001
,
2000
0000
0000
0000
3001
0010
0100
1000
0001
0100
0010
1000
0100
0010
0100
0010
,
0001
1000
0001
0000
0100
0010
0100
0000
0001
1000
0010
1000
0100
1000
0001
1000
,
0010
1000
0100
1000
0001
1000
0010
1000
0001
0010
0001
0100
0010
1000
0100
1000
,
0001
0100
0001
0010
0100
1000
0010
1000
0001
0000
1100
0000
1100
0000
1010
0000
,
1010
0110
0110
0101
0101
0011
0011
1001
,
1001
0000
0000
0001
0000
0000
0010
0000
0000
0100
0000
0000
1000
0100
0010
0100
1000
0100
0010
0001
0010
0100
0000
0000
,
1000
0000
0000
0010
0000
0000
1000
0000
0000
0010
0000
0000
0100
0000
0001
0000
0100
0000
0001
0000
0000
1000
0000
0000
0001
0000
0010
0000
0100
0000
0010
0000
0001
0000
0010
0000
0100
0000
1000
0000
0100
0000
0010
0000
0000
0000
0000
0000
,
0100
1000
0001
0100
0010
0100
0010
1000
0001
0010
0100
1000
0001
0100
0010
0100
0001
0100
0010
1000
0010
0100
0000
0000
,
0001
0000
0000
0010
0000
0000
0001
0000
0000
0010
0000
0000
0100
0000
1000
0000
0100
0000
1000
0000
0000
0001
0000
0000
1000
0000
0010
0000
0100
0000
0010
0000
1000
0000
0010
0000
0100
0000
0001
0000
0100
0000
0010
0000
0000
0000
0000
0000
,
0100
0000
0001
0000
1000
0000
0100
0000
0010
0000
0100
0000
0010
0000
0001
0000
1000
0000
0010
0000
0100
0000
0001
0000
1000
0000
0000
0000
0000
0000
0100
0000
0000
0001
0000
0000
0100
0000
0000
0000
0000
0000
1000
0000
0000
0000
0000
0000
,
0101
0000
1000
0000
0100
0000
1000
0000
0001
0000
0100
1000
0100
0000
0001
0000
,
1010
0001
0010
0001
1100
1001
0101
1001
,
1010
1001
0011
1001
0110
1001
0110
1001
,
1000
0001
1000
0001
1000
0001
1000
0001
1000
0001
1000
0001
1000
0100
0010
0100
1000
0100
0010
0001
0010
0100
1000
0001
,
1000
0010
0100
0010
1000
0010
0100
0001
0100
0010
1000
0001
1000
0100
0010
0100
1000
0010
0100
0001
0010
0100
1000
0001
,
0100
0000
0000
1000
0000
0000
0100
0000
0000
0001
0000
0000
1000
0000
0000
0100
0000
0000
0010
0000
0000
0000
0000
0000
0001
0000
0010
0000
0100
0000
0010
0000
0001
0000
0010
0000
0100
0000
1000
0000
0100
0000
0010
0000
0001
0000
1000
0000
,
0001
0100
0010
0100
0001
0100
0010
1000
0010
0100
0001
1000
0001
0010
0100
0010
0001
0100
0010
1000
0100
0010
0001
1000
,
0010
0000
0000
0001
0000
0000
0010
0000
0000
1000
0000
0000
0001
0000
0000
0010
0000
0000
0100
0000
0000
0000
0000
0000
0010
0000
0001
0000
1000
0000
0010
0000
0100
0000
0010
0000
0100
0000
0001
0000
0100
0000
0010
0000
1000
0000
0001
0000
,
0100
0001
1000
0100
0010
0100
0010
0001
0010
0100
1000
0001
0010
0001
1000
0010
0100
0001
0010
0100
0010
0001
1000
0001
,
1000
0000
0000
0000
0000
0000
0001
0000
0000
0000
0000
0000
1000
0010
1000
0001
0100
0001
1000
0100
1000
0001
0010
0001
,
1000
0100
0010
0001
0100
0010
1000
0010
0100
0001
0010
0100
1000
0000
0000
0000
0000
0000
2002
0000
0000
0000
0000
0000
,
0000
0000
3003
0000
;

//--------------- dance-single - 32nds Overchart ----------------
#NOTES:
     dance-single:
     32nds Overchart:
     Edit:
     99:
     0,0,0,0,0:
0000
0000
0000
0000
,
0000
0000
0000
0000
,
0000
0000
0000
0000
,
0000
0000
0000
0000
,
0002
0000
0000
0000
0013
0100
1000
0100
0020
0000
0000
0031
0100
0010
1000
0100
,
2000
0000
0000
0000
3010
0100
0010
1000
0200
0000
0000
0310
0100
1000
0010
1000
,
0002
0000
0000
0013
1000
0010
0100
1000
0020
0000
0000
0130
1000
0100
0001
1000
,
0200
0000
0000
0000
0000
0000
0000
0000
0000
0310
0000
0000
0002
0000
0000
0000
0000
0000
0103
0000
0000
0010
0000
0000
2000
0000
0000
0000
0000
0000
3100
0000
0010
0000
0001
0000
2000
0000
0000
0000
0000
0000
3010
0000
0100
0000
0001
0000
,
1000
1100
1100
1001
1001
0101
0101
0200
,
0320
0030
1010
0000
1010
0000
0110
0000
0110
0000
2000
0000
3002
0000
0003
0000
,
2000
3000
0011
0000
0011
0000
1001
0000
1001
0000
1010
0000
1010
0000
0020
0000
,
0230
0300
0101
0000
0101
0000
0110
0000
0110
0000
0002
0000
2003
0000
3000
0000
,
0002
0000
0000
0000
0103
0010
1000
0010
0200
0000
0000
0301
0010
0100
1000
0010
,
2000
0000
0000
0000
3100
0010
0100
1000
0020
0000
0000
0130
0010
1000
0100
1000
,
0002
0000
0000
0103
0010
0001
0010
1000
0200
0000
0000
0310
1000
0010
0001
1000
,
0020
0000
0000
0130
0002
0000
0013
0100
2000
0000
3000
0000
1001
0000
1001
0000
,
0001
0100
0010
0100
0001
0100
1000
0100
0001
0100
0010
0100
0001
0010
0100
1000
,
0001
0010
0100
0010
0001
0010
1000
0010
0001
0010
0100
0010
0001
0100
0010
1000
,
0001
0010
1000
0010
0001
0010
0100
0010
0001
0100
1000
0100
0001
0100
0010
0100
,
0001
0000
0000
1000
0000
0000
0100
0000
0000
1000
0000
0000
0001
0000
0000
1000
0000
0000
0010
0000
0000
1000
0000
0000
0001
0000
0000
0010
0000
0000
0100
0000
0000
1000
0000
0000
0010
0000
0000
0100
0000
0000
0001
0000
1000
0000
0001
0000
,
2000
0000
0000
3200
0302
2003
3020
0000
,
0032
0000
0000
0203
2300
3002
0023
2030
,
3001
0010
0001
0010
0001
0010
0100
1000
0100
0010
0001
1000
0100
0010
0001
1000
,
0001
0000
0000
0100
0000
0000
0001
0000
0000
0100
0000
0000
0001
0000
0000
0100
0000
0000
0010
0000
0000
1000
0000
0000
0010
0000
0000
0100
0000
0000
0001
0000
0000
1000
0000
0000
0001
0000
1000
0000
0001
0000
1000
0000
0001
0000
1000
0000
,
0001
0010
0100
0010
0001
0010
0100
1000
0100
0010
0100
0010
0001
1000
0001
0000
,
1000
0010
0100
0010
1000
0010
0100
0001
0100
0010
0100
0010
1000
0000
0001
0000
,
1000
0100
0010
0100
1000
0100
0010
0001
1000
0010
0100
0010
1000
0010
0100
0001
,
1000
0000
0000
0100
0000
0000
0010
0000
0000
0001
0000
0000
0010
0000
0000
0100
0000
0000
0010
0000
0000
0001
0000
0000
1000
0000
0000
0000
0000
0000
0000
0000
0010
0000
0000
0000
1000
0000
0000
0000
0100
0000
0000
0000
0010
0000
0000
0000
,
0001
0100
0010
0000
0100
0000
1000
0000
0100
0000
0001
0000
1000
0100
0010
0000
0100
0000
0001
0000
0100
0000
0010
0000
,
0001
0010
0100
0000
1000
0000
0010
0000
0001
0000
0010
0000
2000
0000
0000
0000
0000
0000
0000
0000
0000
0000
0000
0000
,
3001
0010
0100
0000
0010
0000
1000
0000
0010
0000
0001
0000
1000
0010
0100
0000
0010
0000
0001
0000
0010
0000
1000
0000
,
0001
0010
1000
0001
0100
1000
0002
0003
0002
0003
0002
0003
,
1000
0010
0100
0001
1000
0000
0100
0000
0001
0000
0100
0000
1000
0000
0001
0000
0100
0000
0001
0000
1000
0000
0100
0000
,
0010
0001
0010
0100
1000
0000
0001
0000
0100
0000
1000
0000
0100
0000
0001
0000
1000
0000
0100
0000
0010
0000
0001
0000
,
1000
0010
0100
0001
0100
0000
0010
0000
1000
0000
0001
0000
1000
0100
0010
0001
0010
0000
0100
0000
1000
0000
0001
0000
,
0100
0010
1000
0001
0010
0000
0100
0000
1000
0000
0001
0000
0200
0000
0000
0000
0000
0000
0301
1000
0001
1000
0001
1000
,
0001
0000
0000
0000
0000
0000
0000
0000
0000
0000
0000
0000
1000
0000
0000
0100
0000
0000
1000
0000
0000
0100
0000
0000
1000
0000
0000
0000
0000
0000
0000
0000
0000
0000
0000
0000
0001
0000
0000
0100
0000
0000
0001
0000
0000
0100
0000
0000
0002
0000
0000
0003
0000
0000
0000
0000
0000
0000
0000
0000
1000
0000
0000
0010
0000
0000
1000
0000
0000
0010
0000
0000
2000
0000
0000
0000
3000
0000
0000
0000
0000
0000
0000
0000
0001
0000
0000
0010
0000
0000
0001
0000
0000
0010
0000
0000
,
0002
0000
0000
0000
0000
0000
0003
0000
0000
0000
0000
0000
1000
0000
0000
0010
0000
0000
0100
0000
0000
0010
0000
0000
2000
0000
0000
0000
0000
0000
0000
0000
3000
0000
0000
0000
0001
0000
0000
0010
0000
0000
0100
0000
0000
0010
0000
0000
0002
0000
0000
0000
0000
0000
0000
0000
0000
0000
0000
0000
1003
0000
0000
0010
0000
0000
0100
0000
0000
0001
0000
0000
2000
0000
0000
0000
0000
0000
0000
0000
0000
0000
0000
0000
3001
0000
0000
0010
0000
0000
0100
0000
0000
1000
0000
0000
,
0002
0000
0000
0000
0000
0000
0000
0000
0013
0100
0010
0001
1000
0010
0100
0001
2000
0000
0000
0000
0000
0000
0000
0000
3100
0010
0100
1000
0001
0100
0010
1000
,
0002
0000
0000
0000
0000
0000
0000
0000
0013
0001
0100
0010
1000
0100
1000
0001
0100
0010
1000
0001
0010
0100
0010
0001
1000
0010
1000
0100
0010
0001
0100
0001
,
1000
0100
0001
0100
1000
0000
0000
0000
0001
0100
0010
0100
1000
0100
0010
0100
0001
0000
0000
0000
1000
0100
0010
0001
1000
0001
0010
0100
1000
0000
0000
0000
,
0001
0100
1000
0100
0001
0000
0000
0000
1000
0100
0010
0100
0001
0100
0010
0100
1000
0000
0000
0000
0001
0100
0010
0000
1000
0001
1000
0000
0010
0100
0001
0000
,
1000
0100
0001
0100
0020
0000
0000
0000
0000
0000
0000
0000
0031
1000
0010
0100
0020
0000
0000
0000
1030
0001
0010
0001
0100
0010
1000
0100
2000
0000
0000
0000
,
3001
0100
1000
0100
0020
0000
0000
0000
0000
0000
0030
0000
1000
0100
1000
0010
0100
0001
0010
0001
1000
0010
1000
0100
0010
0001
0100
0001
1000
0100
0010
0001
,
2000
0000
0000
0000
3001
0010
0001
0010
0001
0100
0010
0100
0001
1000
0100
1000
,
0002
0000
0000
0000
0000
0000
0000
0000
0000
0000
0000
0000
1003
0000
0000
0010
0000
0000
1000
0000
0000
0010
0000
0000
1000
0000
0000
0100
0000
0000
0010
0000
0000
0100
0000
0000
1000
0000
0000
0001
0000
0000
0100
0000
0001
0000
1000
0000
,
0002
0000
0000
0000
1003
0010
1000
0100
0010
0001
0100
0001
1000
0001
0100
0001
,
0010
0000
0100
0000
1000
0000
0010
0000
1000
0000
0001
0000
0010
0000
0001
0000
0100
0001
0100
0001
0100
0001
0100
0001
1000
0010
1000
0010
1000
0010
1000
0010
,
2000
0000
0000
0000
3001
0010
0001
0100
0010
1000
0100
1000
0001
0100
0010
1000
,
0002
0000
0000
0000
1003
0010
1000
0100
0010
0001
0100
0001
1000
0100
0010
0001
,
2000
0000
0000
0000
3001
0010
0100
1000
0001
0100
0010
1000
0100
0010
0100
0010
,
0001
0000
0000
1000
0000
0000
0001
0000
0000
1000
0000
0000
0100
0000
0010
0000
0100
0000
0010
0000
0100
0000
0010
0000
0001
0000
0000
1000
0000
0000
0010
0000
0000
1000
0000
0000
0100
0000
0000
1000
0000
0000
0001
0000
0000
1000
0000
0000
,
0010
1000
0100
1000
0001
1000
0010
1000
0001
0010
0001
0100
0010
1000
0100
1000
,
0001
0100
0001
0010
0100
1000
0010
1000
0001
0000
1100
0000
1100
0000
1010
0000
,
1010
0110
0110
0101
0101
0011
0011
1001
,
1001
0000
0000
0000
0001
0000
0000
0000
0010
0000
0000
0000
0100
0000
0000
0000
1000
0100
0010
0100
1000
0100
0010
0001
0010
0100
0010
0100
1000
0000
0000
0000
,
0001
0000
0000
0000
0100
0000
0000
0000
0000
0000
0000
0000
0000
0000
0000
0000
0001
0000
0000
0000
0100
0000
0000
0000
0010
0000
0000
0000
1000
0000
0000
0000
0010
0000
0000
0000
1000
0000
0000
0000
0001
0000
0000
0000
1000
0000
0000
0000
0001
0000
0000
0010
0000
0000
0100
0000
0000
0010
0000
0000
0001
0000
0000
0010
0000
0000
0100
0000
0000
1000
0000
0000
0100
0000
0000
0010
0000
0000
0100
0000
0000
0010
0000
0000
0001
0000
0000
0000
0000
0000
0000
0000
0000
0000
0000
0000
,
0010
0100
1000
0001
0010
0100
1000
0001
0010
0100
1000
0001
0010
0100
1000
0001
1000
0010
0100
0010
1000
0010
0100
0001
0100
0010
0100
0010
1000
0000
0000
0000
,
0001
0000
0000
0000
0010
0000
0000
0000
0000
0000
0000
0000
0000
0000
0000
0000
0001
0000
0000
0000
0010
0000
0000
0000
0100
0000
0000
0000
1000
0000
0000
0000
0100
0000
0000
0000
1000
0000
0000
0000
0001
0000
0000
0000
1000
0000
0000
0000
0001
0000
0000
0100
0000
0000
0010
0000
0000
0100
0000
0000
0001
0000
0000
0100
0000
0000
0010
0000
0000
1000
0000
0000
0010
0000
0000
0100
0000
0000
0010
0000
0000
0100
0000
0000
0001
0000
0000
0000
0000
0000
0000
0000
0000
0000
0000
0000
,
0100
0010
1000
0001
0100
0010
1000
0001
0100
0010
1000
0001
0100
0010
1000
0001
1000
0000
0000
0000
0100
0000
0001
0000
0100
0000
0000
0000
1000
0000
0000
0000
,
0101
0000
0000
0000
0000
0000
1000
0000
0000
0000
0000
0000
0100
0000
0000
0000
0000
0000
1000
0000
0000
0000
0000
0000
0001
0000
0000
0000
0000
0000
0100
0000
0000
1000
0000
0000
0100
0000
0000
0000
0000
0000
0001
0000
1000
0000
0001
0000
,
1000
0001
0010
0001
1100
1001
0101
1001
,
1010
1001
0011
1001
0110
1001
0110
1001
,
1000
0000
0000
0000
0001
0000
0000
0000
1000
0000
0000
0000
0001
0000
0000
0000
1000
0000
0000
0000
0001
0000
0000
0000
1000
0000
0000
0000
0001
0000
0000
0000
1000
0000
0000
0000
0001
0000
0000
0000
1000
0000
0000
0000
0001
0000
0000
0000
1000
0000
0000
0000
0100
0000
0000
0000
0010
0000
0000
0000
0100
0000
0000
1000
0000
0000
0100
0000
0000
0010
0000
0000
0001
0000
0000
0010
0000
0000
0100
0000
0000
0010
0000
0000
0100
0000
0000
0000
1000
0000
0000
0000
0001
0000
0000
0000
,
1000
0000
0000
0000
0010
0000
0000
0000
0100
0000
0000
0000
0010
0000
0000
1000
0000
0000
0010
0000
0000
0100
0000
0000
0001
0000
0000
0100
0000
0000
0010
0000
0000
0100
0000
0000
0010
0000
0000
0000
1000
0000
0000
0000
0001
0000
0000
0000
1000
0000
0000
0000
0100
0000
0000
0000
0010
0000
0000
0000
0100
0000
0000
1000
0000
0000
0010
0000
0000
0100
0000
0000
0001
0000
0000
0010
0000
0000
0100
0000
0000
0010
0000
0000
0100
0000
0000
0000
1000
0000
0000
0000
0001
0000
0000
0000
,
0100
0000
0000
0000
0000
0000
1000
0000
0000
0000
0000
0000
0100
0000
0000
0000
0000
0000
0001
0000
0000
0000
0000
0000
1000
0000
0000
0000
0000
0000
0100
0000
0000
0000
0000
0000
0010
0000
0000
0000
0000
0000
0000
0000
0000
0000
0000
0000
0001
0000
0000
0000
0010
0000
0000
0000
0100
0000
0000
0000
0010
0000
0000
0001
0000
0000
0010
0000
0000
0100
0000
0000
1000
0000
0000
0100
0000
0000
0010
0000
0000
0100
0000
0000
0010
0000
0000
0000
0001
0000
0000
0000
1000
0000
0000
0000
,
0001
0000
0000
0000
0100
0000
0000
0000
0010
0000
0000
0000
0100
0000
0000
0001
0000
0000
0100
0000
0000
0010
0000
0000
1000
0000
0000
0010
0000
0000
0100
0000
0000
0010
0000
0000
0100
0000
0000
0000
0001
0000
0000
0000
1000
0000
0000
0000
0001
0000
0000
0000
0010
0000
0000
0000
0100
0000
0000
0000
0010
0000
0000
0001
0000
0000
0100
0000
0000
0010
0000
0000
1000
0000
0000
0100
0000
0000
0010
0000
0000
0100
0000
0000
0010
0000
0000
0000
0001
0000
0000
0000
1000
0000
0000
0000
,
0010
0000
0001
0000
0010
0000
1000
0000
0001
0000
0010
0000
0100
0000
0000
0000
0010
0001
1000
0010
0100
0001
0010
0001
1000
0010
0100
0001
1000
0001
0100
0010
,
0100
0010
1000
0001
0010
0100
0010
0001
1000
0010
1000
0100
0010
0001
0100
0001
1000
0100
1000
0010
0100
0001
0010
0001
1000
0010
0001
0010
1000
0001
0010
0100
,
1000
0000
0000
0000
0000
0000
0001
0000
0000
0000
0000
0000
1000
0010
1000
0001
0100
0001
1000
0100
1000
0001
0010
0001
,
1000
0100
0010
0001
0100
0010
1000
0010
0100
0001
0010
0100
1000
0000
0000
0000
0000
0000
2002
0000
0000
0000
0000
0000
,
0000
0000
3003
0000
;
