#VERSION:0.83;
#TITLE:デッド・オア・ダイ;
#SUBTITLE:;
#ARTIST:REDALiCE;
#TITLETRANSLIT:DEAD or DIE;
#SUBTITLETRANSLIT:;
#ARTISTTRANSLIT:;
#GENRE:;
#CREDIT:;
#MUSIC:DEAD or DIE.ogg;
#BANNER:DEAD or DIE.png;
#BACKGROUND:DEAD or DIE-bg.png;
#CDTITLE:;
#SAMPLESTART:100.341;
#SAMPLELENGTH:16.500;
#SELECTABLE:YES;
#OFFSET:-0.438;
#BPMS:0.000=240.000
,80.000=120.000
,92.000=240.000
,260.000=120.000
,276.000=130.000
,280.000=140.000
,284.000=150.000
,288.000=160.000
,292.000=170.000
,294.000=180.000
,296.000=190.000
,298.000=200.000
,300.000=210.000
,302.000=220.000
,304.000=230.000
,306.000=240.000
,316.000=480.000
,324.000=240.000
;
#STOPS:;
#DISPLAYBPM:120.000:240.000;
#BGCHANGES:;
#FGCHANGES:;

//--------------- dance-single - ----------------
#NOTEDATA:;
#STEPSTYPE:dance-single;
#DESCRIPTION:;
#DIFFICULTY:Beginner;
#METER:10;
#RADARVALUES:0,0,0,0,0;
#NOTES:
0000
0000
0000
0000
,
0000
0000
0000
0000
,
0000
0000
0000
0000
,
0000
0000
0000
0000
,
1000
0100
1000
0010
,
0100
0001
0010
0001
,
1000
1000
0001
0001
,
1000
0010
0001
0010
,
1000
1000
0100
0100
,
0010
0010
0001
0001
,
1001
0000
0110
0000
,
1001
0000
0110
0000
,
0001
0100
0010
0001
,
0010
0100
0010
1000
,
0001
0001
1000
1000
,
0010
0100
0001
1000
,
0100
0000
1100
0000
,
1000
0001
0100
0010
,
1000
0000
0001
0000
,
0010
0000
0100
0000
,
1000
0000
0000
0000
,
0000
0000
0000
0000
,
0000
0000
0000
0000
,
0001
0000
0000
0001
0000
0000
0001
0000
,
1000
0010
0100
0001
,
1000
0000
0000
1000
0000
0000
1000
0000
,
0001
0010
0100
1000
,
0001
0000
0001
0000
,
1000
0000
1000
0000
,
0010
0010
0100
0100
,
0001
1000
0001
1000
,
0001
0000
0000
0001
0000
0000
0001
0000
,
1000
0000
0000
1000
0000
0000
1000
0000
,
0001
0010
0100
0001
,
0100
1000
0010
0100
,
0010
1000
0001
0010
,
0001
1000
0010
0100
,
0001
1000
0100
0010
,
0100
0001
0100
0010
,
0001
0001
1000
1000
,
0010
0000
0000
0000
,
0100
0001
1000
0100
,
1000
0010
0100
0001
,
0010
0001
0010
1000
,
0010
0001
1000
0100
,
1000
1000
0001
0001
,
0100
0100
0010
0010
,
1000
0000
0000
1000
0000
0000
0000
0000
,
0001
0001
0001
0000
,
1000
0000
0000
0010
0000
0000
0001
0000
,
0000
0010
1000
0001
,
0010
0000
0000
1000
0000
0000
0010
0000
,
0000
0001
1000
0010
,
0100
0000
0001
0000
,
1000
0000
0100
0000
,
1000
0000
0000
0010
0000
0000
0001
0000
,
1000
0000
0000
0100
0000
0000
0001
0000
,
1000
0000
0100
0000
,
1000
0000
0100
0000
,
0010
0000
0001
0000
,
0010
0000
0001
0000
,
1000
0010
1000
0010
,
0100
0001
0100
0001
,
1000
0000
0000
1000
0000
0000
1000
0000
,
1001
0000
0000
0000
,
1000
0100
0010
0100
,
1000
0001
0100
0010
,
0001
0010
1000
0001
,
0010
0100
1000
0001
,
1000
0100
1000
0010
,
0100
0001
0010
0001
,
0100
1000
0100
0010
,
0100
0001
1000
0100
,
1000
0010
0100
0001
,
1000
0100
0010
0001
,
1000
0010
0100
0010
,
1000
0100
0010
0100
,
1000
0001
1000
0001
,
0100
0010
0100
0010
0100
0010
0100
0010
,
2000
0000
0000
0000
,
0000
0000
0000
0000
,
3001
0000
0000
0000
,
0000
0000
0000
0000
,
1000
0100
1000
0000
,
0001
0100
0001
0000
,
1000
0010
1000
0000
,
0001
0010
0001
0000
,
1000
0000
0000
0100
0000
0000
0001
0000
,
0100
0000
0000
1000
0000
0000
0001
0000
,
0000
0000
0000
0000
,
0000
0000
0100
0010
,
1000
0001
0010
1000
,
0010
0001
1000
0010
,
0100
1000
0100
0001
,
1000
1000
0001
0100
,
0010
0100
0001
1000
,
0100
1000
0010
0100
,
0001
1000
1000
0001
,
0010
0000
0000
0000
,
0100
0000
0001
0000
,
1000
0100
0010
0100
,
1000
0010
0100
0001
,
0010
0100
1000
0001
,
1000
1000
0010
0010
,
0100
0100
0001
0001
,
1000
0000
0000
1000
0000
0000
0000
0000
,
0001
0001
0001
0000
,
1000
0010
0001
0010
,
1000
0001
0010
0001
,
0100
0010
1000
0100
,
1000
1000
0001
0000
,
0010
0100
1000
0001
,
0100
1000
0100
0001
,
1000
0000
0000
0100
0000
0000
0001
0000
,
1000
0000
0000
0010
0000
0000
0001
0000
,
1000
0000
0000
0010
0000
0000
0100
0000
,
1000
0000
0000
0000
,
0100
0000
0000
0001
0000
0000
1000
0000
,
0100
0000
0000
0000
,
0001
0000
0000
0100
0000
0000
0010
0000
,
0001
0000
0000
1000
0000
0000
0010
0000
,
0001
0000
0000
0010
0000
0000
1000
0000
,
0001
0010
0100
1000
,
0000
0000
0001
0000
0000
1000
0000
0000
,
0010
0000
0100
0000
0000
1001
0000
0000
;

//--------------- dance-single - ----------------
#NOTEDATA:;
#STEPSTYPE:dance-single;
#DESCRIPTION:;
#DIFFICULTY:Easy;
#METER:14;
#RADARVALUES:0,0,0,0,0;
#NOTES:
0000
0000
0000
0000
,
0000
0000
0000
0000
,
0000
0000
0000
0000
,
0000
0000
0000
0000
,
1000
0100
1000
0000
0001
0100
0001
0000
,
0010
0000
0100
0010
0100
0000
1000
0000
,
0001
0100
0010
0100
0001
0010
0100
0010
,
0001
0100
0010
1000
0001
0000
1001
0000
,
1000
0100
0001
0000
1000
0010
0001
0000
,
0100
0010
0100
0001
1000
0000
0001
0000
,
1000
0000
0000
0100
0000
0000
0001
0000
,
0100
0000
0000
1000
0001
0000
1000
0000
,
0001
0010
0001
0000
1000
0010
1000
0000
,
0001
0000
0010
0100
0010
0000
0001
0000
,
0100
0010
1000
0001
0010
0100
0010
0001
,
1000
0010
0100
0001
1000
0000
0001
0000
,
1000
0000
0000
0000
1100
0000
0000
0010
,
0001
1000
0010
0100
,
0001
0000
0000
0010
0000
0000
1000
0000
,
0010
0000
0000
0001
1000
0000
0010
0000
,
0202
0303
0000
2200
3300
0000
0002
0000
,
0003
0002
0000
0003
0002
0000
0003
0002
,
0000
0003
0000
0000
0000
0000
0000
0000
,
1000
0100
0000
0010
0000
0000
0001
0000
,
0100
0010
1000
0001
,
1000
0010
0000
0100
0000
0000
0001
0000
,
1000
0100
0010
0001
,
1000
1000
1000
1000
,
0100
0100
0100
0100
,
0010
0010
0001
0001
,
1000
0001
1000
0001
1000
0001
1000
0001
,
1000
0000
0000
0100
0000
0000
0001
0000
,
0100
0000
0000
1000
0000
0000
0001
0000
,
0100
0010
0100
0000
0001
1000
0100
0000
,
0010
0001
0010
0000
0100
1000
0001
0000
,
0100
0010
0001
0000
0010
1000
0001
0000
,
1000
0100
1000
0000
0001
0000
0100
0000
,
0001
1000
0100
0000
0001
0100
0010
0000
,
0001
1000
0010
0000
0100
0010
1000
0000
,
0001
0010
1000
0000
0010
0001
1000
0000
,
0010
0100
0001
1000
0100
0010
0100
1000
,
0001
0100
0010
0000
1000
0001
0010
0000
,
0100
0010
1000
0000
0010
0001
1000
0000
,
0010
1000
0100
0000
0010
0001
0100
0000
,
0001
0010
0100
0000
1000
0001
1000
0001
,
1000
0100
1000
0000
0001
0100
0001
0000
,
1000
0010
1000
0000
0001
0010
0001
0000
,
1000
0000
0000
0010
0000
0001
0000
0000
,
0010
1000
0001
0000
,
1000
0100
0001
0000
0100
0010
0001
0000
,
1000
0020
0230
0302
,
1003
0010
0100
0000
1000
0100
0001
0000
,
1000
0000
0200
0000
0320
0000
0032
0003
,
1100
0000
1010
0000
,
0011
0000
0101
0000
,
0001
0010
0000
0100
1000
0000
0010
0100
,
0001
0100
0000
0010
1000
0000
0001
1000
,
0001
0010
0001
0010
,
0100
1000
0100
1000
,
0001
0100
0001
0100
,
0010
1000
0010
1000
,
0001
0010
1000
0010
,
0001
0100
1000
0100
,
0001
0000
0000
1000
0000
0000
0001
1000
,
0000
0000
0000
0000
,
1000
0000
0000
0000
0100
0000
1000
0000
0001
0000
0000
0000
0000
2000
0000
0000
,
3010
0000
0000
0000
0001
0000
0010
0000
1000
0000
0000
0000
0000
0002
0000
0000
,
0013
0000
0000
0000
0100
0000
0001
0000
0100
0000
0000
0000
0000
2000
0000
0000
,
3001
0000
0000
0000
0100
0000
0001
0000
0010
0000
0000
0000
0000
0200
0000
0000
,
1300
0000
0000
0000
0010
0000
0100
0000
0010
0000
0000
0000
0000
0002
0000
0000
,
0013
0000
0000
0000
0100
0000
0001
0000
0010
0000
0000
0000
0000
0200
0000
0000
,
1300
0000
0000
0000
0001
0000
0100
0000
0001
0000
0000
0000
0000
2000
0000
0000
,
3100
0000
0000
0000
0001
0000
0100
0000
1000
0000
0000
0000
0000
0002
0000
0000
,
1003
0100
1000
0000
0010
0100
0001
0000
,
0010
0100
0010
0000
0001
0100
0010
0000
,
1000
0100
1000
0000
0001
0100
0010
0000
,
0100
0001
1000
0000
0100
0010
0100
0000
,
1000
0010
0100
0001
,
1000
0100
0001
0100
1000
0010
0001
0010
,
2000
0000
0000
0000
,
0000
0000
0000
0000
,
3002
0000
0000
0000
,
0000
0000
0000
0003
,
1000
0000
0100
0000
1000
0010
0100
0000
,
0001
0000
0010
0000
0001
0100
0010
0000
,
1000
0000
0010
0000
1000
0100
0010
0000
,
0001
0000
0100
0000
0001
0010
0100
0000
,
1000
0010
0000
0001
0000
0010
1000
0000
,
0001
0010
0000
1000
0000
0010
0001
0000
,
0000
0000
0000
0000
,
0000
0000
1000
0001
,
1000
0100
1000
0001
0100
0010
0100
0000
,
0001
0010
0001
1000
0010
0100
0001
0000
,
1000
0100
0001
0100
0010
0001
1000
0010
,
0100
0001
0100
0000
0010
0000
1000
0000
,
0001
0010
0100
0010
0001
1000
0010
0000
,
0100
1000
0100
0001
1000
0100
1000
0000
,
0001
0100
0001
1000
0001
0010
0100
1000
,
0001
0100
0001
0010
0100
1000
0010
1000
,
0001
0010
0100
1000
,
0001
0100
0010
0001
0010
1000
0001
0000
,
1000
0100
1000
0010
0100
0001
0010
0001
,
1000
0010
0001
0010
1000
0010
0100
0000
,
0001
0010
0001
0010
0100
1000
0010
0100
,
0001
0000
1000
0000
0100
0000
0001
0100
,
1000
0000
0000
0001
0000
1000
0000
0000
,
0001
1000
1001
0000
,
1000
0100
1000
0001
0100
1000
0100
0010
,
1000
0001
0010
0001
1000
0000
0000
0000
,
0001
0010
0100
0010
0001
0010
0100
1000
,
0001
0100
0001
0100
0001
0000
0000
0000
,
1000
0100
0001
0100
0010
0001
0010
1000
,
0010
0001
0100
0010
1000
0001
1000
0000
,
0001
0010
0000
0100
1000
0000
0001
0100
,
0010
0000
0000
1000
0000
0000
0001
0000
,
1000
0100
0001
0100
1000
0100
0001
0100
,
1000
0001
1000
0000
,
0001
0100
1000
0100
0001
0100
1000
0100
,
0001
1000
0001
0000
1000
0000
0000
0000
,
0001
0010
1000
0010
0001
1000
0010
0100
,
0001
1000
0010
0001
0010
1000
0001
0010
,
0100
1000
0010
0100
0001
0010
0001
1000
,
0010
0100
0001
1000
0100
0010
0001
1000
,
0000
0000
0001
0010
0000
1000
0010
0000
,
0001
0100
0010
0000
1000
1001
0000
0000
;

//--------------- dance-single - ----------------
#NOTEDATA:;
#STEPSTYPE:dance-single;
#DESCRIPTION:;
#DIFFICULTY:Medium;
#METER:16;
#RADARVALUES:0,0,0,0,0;
#NOTES:
0000
0000
0000
0000
,
0000
0000
0000
0000
,
0000
0000
0000
0000
,
0000
0000
0000
0000
,
1000
0100
0010
0100
1000
0001
0100
0010
,
0100
1000
0100
0010
1000
0100
0010
0001
,
1000
0010
1000
0010
0100
0001
0100
0001
,
1000
0100
0010
0001
0010
0000
0100
0000
,
1000
0001
0100
0001
1000
0100
0010
0100
,
1000
0010
1000
0100
0010
0001
0100
0001
,
1000
0000
0000
0100
0000
0000
0001
0000
,
0100
0000
0000
1000
0010
0000
0100
0000
,
0001
0010
0100
0010
1000
0010
0100
0001
,
1000
0010
0001
1000
0010
0100
0001
0000
,
1000
0100
0010
0100
1000
0100
0010
0001
,
0010
0100
0010
0100
1000
0000
0001
0000
,
1000
0100
1000
1000
,
0001
0100
0001
0001
,
1000
0000
0000
0010
0000
0000
0001
0000
,
0010
0000
0000
1000
0001
1000
0001
0000
,
2020
0000
3030
0000
0000
0000
0022
0000
0033
0000
0000
0000
2000
0000
3000
2000
,
0000
3000
2000
0000
3000
2000
0000
3000
2000
0000
3000
2000
0000
3000
2000
0000
,
3000
0000
0000
0000
,
0001
0001
0000
1000
0000
0100
0100
0000
,
0010
0001
0010
0001
0010
0001
0010
0001
,
1000
1000
0000
0010
0000
0100
0100
0000
,
0001
0010
0001
0010
0001
0010
0001
0010
,
0001
1000
0010
0000
0100
0001
0100
0000
,
0010
1000
0001
0000
0010
0100
1000
0000
,
0100
0010
0001
1000
0010
0100
0001
1000
,
0100
0010
0100
1000
0001
0100
0010
1000
,
0001
0001
0000
0100
0000
1000
1000
0000
,
0100
0100
0000
0001
0000
1000
1000
0000
,
0100
1000
0001
0100
1000
0001
1000
0100
,
0010
1000
0001
0010
0100
0010
0001
1000
,
0010
0100
0010
0001
0010
0100
0001
1000
,
0001
0010
0100
0000
1000
0000
0010
0100
,
0001
0010
1000
0001
0100
1000
0010
0010
,
1000
0100
0001
0100
0010
0001
1000
0010
,
1000
0001
0010
1000
0010
0001
0100
0010
,
1000
0001
0010
0100
1000
0001
0100
0010
,
1000
0100
0010
1000
0010
0100
1000
0001
,
0100
0010
0001
0010
1000
0001
0010
0001
,
0100
0010
1000
0001
0010
1000
0010
0000
,
0001
1000
0010
0010
0100
0001
0100
0001
,
1000
0100
1000
0010
0100
0001
0010
0001
,
1000
0000
0010
0000
0100
0000
0001
1000
,
0001
0000
0010
1000
0000
0010
0000
0001
,
1000
0001
1001
0000
,
1000
0100
1000
0001
0100
0001
0010
0100
,
1000
0000
0020
0000
0032
0023
2030
0000
,
3001
0010
0001
1000
0010
1000
0100
0010
,
0002
0203
0320
2030
,
3001
0010
0001
0100
,
0010
1000
0100
1000
,
0001
0010
0000
1000
0010
0000
0001
1000
,
0100
0001
0000
0100
1000
0000
0010
0100
,
0001
0001
1000
1000
,
0100
0010
0100
1000
,
0010
0010
0100
0100
,
0001
0010
1000
0010
,
0001
1000
0001
1000
0010
0100
0010
0100
,
0001
0010
0001
0010
0100
1000
0100
1000
,
0001
0000
0000
1000
0000
0000
0001
1001
,
0000
0000
0000
0000
,
1000
0000
0100
0000
1000
0000
0010
0000
0100
0000
2000
3000
0000
0200
0000
0000
,
0301
0000
0010
0000
0100
0000
0001
0000
0100
0000
0020
0000
0030
0002
0000
0000
,
1003
0000
0010
0000
0001
0000
0010
0000
0100
0000
0002
0003
0000
0020
0000
0000
,
0130
0000
0010
0000
0001
0000
1000
0000
0010
0000
0002
0000
0003
0020
0000
0000
,
1030
0000
0001
0000
0010
0000
0100
0000
0001
0000
0200
0300
0000
2000
0000
0000
,
3001
0000
0100
0000
0010
0000
0100
0000
1000
0000
0200
0000
0300
0002
0000
0000
,
1003
0000
0100
0000
0001
0000
1000
0000
0010
0000
0002
0003
0000
2000
0000
0000
,
3010
0000
0001
0000
0010
0000
1000
0000
0001
0000
0020
0030
0000
0200
0000
0000
,
1300
0001
0100
0010
0100
0001
1000
0100
,
0001
0100
1000
0001
0100
0010
1000
0001
,
0010
0100
0010
0001
1000
0010
0001
0010
,
1000
0001
0010
0100
1000
0010
0100
0001
,
1000
0100
0010
0001
,
1000
0010
0100
1000
0001
0010
0100
0001
,
2000
0000
0000
0000
,
0000
0000
0000
0000
,
3002
0000
0000
0000
,
0000
0000
0000
0003
,
1000
0000
0100
0001
0000
0100
1000
0000
0000
0000
0000
0000
,
0001
0000
0100
1000
0000
0100
0001
0000
0000
0000
0000
0000
,
1000
0000
0010
0001
0000
0010
1000
0000
0000
0000
0000
0000
,
0001
0000
0000
0000
0010
0000
1000
0000
0000
0000
0010
0000
0001
0000
0000
0000
0000
0000
1000
0000
0000
0001
0000
0000
,
1000
0100
0000
0001
0000
1000
0010
0000
,
0001
0100
0000
1000
0000
0001
0010
0000
,
0000
0000
0000
0000
,
0000
0000
1000
0001
,
0100
1000
0100
0010
0100
0001
0010
0100
,
1000
0001
0100
1000
0100
0001
1000
0100
,
1000
0001
0100
1000
0001
0010
1000
0001
,
0010
0001
0100
0010
1000
0100
1000
0001
,
0010
0100
0010
1000
0010
0100
0010
0001
,
1000
0010
0001
0010
1000
0001
0010
0001
,
0100
0010
0100
0010
1000
0001
1000
0001
,
1000
0100
0010
0001
0010
0100
1000
0001
,
0100
0010
1000
0001
0010
0100
0010
0000
,
0001
1000
0010
0100
1000
0100
0001
0000
,
1000
0100
0010
1000
0001
0100
0010
0001
,
1000
0010
0001
0010
1000
0001
0010
0000
,
0100
1000
0010
0100
0001
0010
0100
0010
,
0001
1000
0010
1000
0001
1000
0100
0100
,
0010
0000
1000
0010
0000
0001
0000
1000
,
0010
0100
0001
0000
,
1000
0100
1000
0010
0100
0001
0010
0001
,
0010
1000
0010
0001
1000
0010
0001
0010
,
1000
0001
0010
0001
1000
0010
0100
0010
,
1000
0001
0010
0100
1000
0000
0001
0000
,
0100
0010
1000
0001
0010
1000
0010
0001
,
1000
0010
0100
0001
1000
0100
0010
0100
,
1000
0001
0000
0100
1000
0000
0001
0010
,
1000
0000
0000
0100
0010
0000
0001
0000
,
1000
0010
0001
0010
1000
0001
0010
1000
,
0010
0001
1000
0000
,
0001
0100
1000
0100
0001
1000
0100
0001
,
0100
1000
0010
0100
0001
0000
0000
0000
,
1000
0100
1000
0010
0100
0001
0010
0001
,
1000
0010
0100
0010
0001
0010
0100
0001
,
1000
0100
1000
0000
0010
0000
0100
0000
0001
0010
0001
0000
0100
0000
0010
0000
,
1000
0100
0001
0100
1000
0010
0001
0010
,
0000
0000
1000
0100
0000
0001
0100
0000
,
1000
0001
1000
0000
1001
1001
0000
0000
;

//--------------- dance-single - ----------------
#NOTEDATA:;
#STEPSTYPE:dance-single;
#DESCRIPTION:;
#DIFFICULTY:Hard;
#METER:18;
#RADARVALUES:0,0,0,0,0;
#NOTES:
0000
0000
0000
0000
,
0000
0000
0000
0000
,
0000
0000
0000
0000
,
0000
0000
0000
0000
,
1000
0100
1000
0010
0100
0010
0001
0010
,
0100
0001
0010
0001
1000
0010
0100
0001
,
1000
0100
1000
0000
0001
0000
0100
0000
1000
0000
0100
0000
0001
0000
1000
0000
,
0001
0010
0100
0000
0010
0100
1000
0000
0001
0000
1000
0000
0001
0000
0000
0000
,
1000
1000
0010
0100
0001
1000
0100
0001
,
0100
1000
0010
0100
0001
1000
0100
0010
,
0001
1000
0001
0000
1010
0000
0100
0001
,
0100
0000
0010
1000
0001
0010
0100
1000
,
0010
0100
0001
1000
0100
0010
0100
0001
,
0100
0010
0001
1000
0010
0100
0010
1000
,
0001
0010
0001
0000
0100
0000
0010
0000
0001
0000
0010
0000
1000
0000
0001
0000
,
1000
0010
0100
0000
0010
0100
0001
0000
1000
0000
0001
0000
1000
0000
0000
0000
,
0001
0000
0010
0000
0011
0000
1000
0010
,
1000
0000
0001
0010
0001
1000
0010
0000
,
0100
0001
0000
1000
0100
0001
0000
0100
,
1000
0001
0000
0100
0010
1000
0001
0000
,
2200
3300
0000
0202
0303
0000
2000
0000
,
0000
0000
3000
0000
,
0000
2000
0000
0000
0000
0000
0000
0000
0000
0000
0000
0000
0000
0000
3000
0000
,
0001
0001
0000
0100
0000
0010
0010
0000
,
1000
0100
0001
1000
0010
0001
0010
0100
,
1000
1000
0000
0010
0000
0100
0100
0000
,
0001
0010
1000
0001
0100
1000
0100
0010
,
0001
0100
0001
0100
0010
1000
0010
1000
,
0001
0010
0001
0010
0100
1000
0100
1000
,
0001
0100
0010
1000
0001
0010
0100
1000
,
0001
0100
1000
0100
0001
0010
1000
0010
,
0001
0001
0000
0101
0000
0100
0110
0000
,
0010
0010
0000
1010
0000
1000
1001
0000
,
1000
0100
1000
0010
0100
0001
0010
1000
,
0010
0001
0100
0010
0100
0001
0010
0100
,
1000
0010
1000
0001
1000
0100
0010
0001
,
0100
0100
0010
0000
1000
0000
0001
0010
,
0001
1000
0010
0001
0010
0100
0001
0001
,
1000
0100
1000
0001
0100
0010
0100
0001
,
1000
1000
0100
0010
0100
0010
0001
0001
,
1000
0010
1000
0000
0001
0010
0001
0000
1000
0100
1000
0000
0001
0100
0001
0000
,
1000
0100
0010
1000
0010
0001
0100
0010
,
0100
0001
0010
0001
1000
0010
0100
0001
,
1000
0100
0010
0010
1000
0010
0010
0000
,
0001
0000
1000
0000
0010
0000
0100
0000
0001
0000
1000
0000
0001
0100
0010
1000
,
0001
0001
0010
0010
0100
0100
1000
1000
,
0010
0100
0010
0001
0010
0100
0010
1000
,
0001
0000
1000
0001
0000
1000
0000
0001
,
1001
0110
1001
0000
,
1000
0100
0001
1000
0010
0001
1000
0010
,
0100
2000
3200
0302
,
1003
0010
0001
1000
0100
0001
1000
0100
,
0010
2000
3020
0032
,
1003
0100
0010
0001
,
1000
0010
0100
0001
,
1000
0100
1000
0000
0000
0000
0001
0100
0001
0000
0000
0000
1000
0010
1000
0000
,
0001
0010
0001
0000
0000
0000
0100
0010
0100
0000
0000
0000
0001
1000
0001
0000
,
1000
1000
1000
1000
,
0010
0010
0010
0010
,
0100
0100
0100
0100
,
0001
0001
0001
0001
,
1000
0100
1000
0010
0100
0001
0010
0001
,
1000
0010
1000
0100
0010
0001
0100
0001
,
1000
0000
0000
0001
0000
0000
1001
1001
,
0000
0000
0000
0000
,
1000
0000
0100
0000
1000
0000
0010
0100
0001
0000
0020
0030
0000
0002
0000
0000
,
0103
0000
0010
0000
0001
0000
0010
0000
1000
0000
0002
0000
0003
2000
0000
0000
,
3001
0000
0010
0000
0100
0000
0010
0001
1000
0000
0020
0030
0000
0200
0000
0000
,
0301
0000
0010
0000
0100
0000
0001
0000
0100
0000
2000
0000
3000
0020
0000
0000
,
1030
0000
0100
0000
0010
0000
0100
1000
0010
0000
0200
0300
0000
0002
0000
0000
,
0013
0000
0001
0000
1000
0000
0010
0000
0100
0000
2000
0000
3000
0200
0000
0000
,
0301
0000
1000
0000
0100
0000
1000
0010
0100
0000
0020
0030
0000
2000
0000
0000
,
3001
0000
0010
0000
1000
0000
0001
0000
0100
0000
2000
0000
3000
0002
0000
0000
,
1003
0100
0000
1000
0010
0000
0100
0000
0001
0010
0000
0001
0100
0000
0010
0000
,
1000
0100
0000
0010
0100
0000
1000
0000
0001
0100
0000
0010
0100
0000
0001
0000
,
1000
0100
0000
0010
0001
0000
0100
0000
0010
0100
0000
0001
0010
0000
0100
0000
,
1000
0010
0000
0100
0001
0000
0010
0000
0100
0010
0000
0001
0100
0000
0010
0000
,
1000
0000
1000
0100
0000
0100
0010
0000
0010
0001
0000
0001
,
1000
0010
0100
0001
1000
0010
0100
0001
,
2000
0000
0000
0000
,
0000
0000
0000
0000
,
3002
0000
0000
0000
,
0000
0000
0000
0003
,
1000
0100
1000
0100
1000
0100
1000
0000
0000
0000
0000
0000
,
0001
0100
0001
0100
0001
0100
0001
0000
0000
0000
0000
0000
,
1000
0010
1000
0010
1000
0010
1000
0000
0000
0000
0000
0000
,
0001
0000
0000
0000
0010
0000
0000
0000
0001
0000
0000
0000
0010
0000
0000
0000
0001
0000
0000
0000
0010
0000
0000
0000
0001
0000
0000
0000
0000
0000
0000
0000
0000
0000
0000
0000
1000
0000
0000
0010
0000
0000
0100
0000
0000
0001
0000
0000
,
1000
1000
0000
1100
0000
0100
0110
0000
,
0010
0010
0000
0011
0000
0001
1001
0000
,
0000
0000
0000
0000
,
0000
0000
1000
0001
,
0100
0000
0010
0000
1000
0000
0001
0000
0010
0000
0100
0000
0010
0000
0001
1000
,
0001
0000
0010
0000
0100
0000
0001
0000
0100
0000
1000
0000
0010
0000
0100
0001
,
0100
0010
1000
0001
0010
1000
0010
0001
,
1000
0010
0100
0001
1000
0000
0100
0010
,
0001
1000
0010
0100
0010
1000
0001
0001
,
0010
1000
0010
0001
1000
0010
0100
0001
,
0010
0010
0001
1000
0001
1000
0100
0100
,
0010
0001
1000
0000
0010
0100
0010
0000
1000
0001
0010
0000
0100
1000
0001
0000
,
0100
0000
0000
0000
0010
0000
0100
0001
1000
0000
0000
0000
0100
0000
0010
0100
,
1000
0001
0100
1000
0001
0010
1000
0001
,
1000
0010
1000
0000
0010
0100
0010
0000
0100
0001
0100
0000
0001
1000
0001
0000
,
1000
0100
1000
0000
0100
0010
0100
0000
0010
0001
0010
0000
0001
0000
0000
0000
,
1000
0000
1000
0000
0010
0000
0010
0000
1000
0010
1000
0000
0001
0100
0001
0000
,
1000
0000
0100
0000
0001
0000
0100
1000
,
0001
0000
1000
0001
0000
1000
0000
0001
,
1001
0110
1001
0000
,
1000
0100
1000
0010
0100
0001
0010
0001
,
0100
1000
0100
0010
1000
0100
0010
0001
,
1000
0010
0100
0010
1000
0001
0010
0001
,
1000
0010
1000
0010
1000
0000
0001
0000
0010
0000
0000
0000
0010
0000
0000
0000
,
0001
1000
0001
1000
0001
0000
0100
0000
0010
0000
1000
0000
0100
0000
0010
0000
,
0001
1000
0010
0001
0010
1000
0001
0010
,
0100
1000
0100
0000
0000
0000
0010
0001
0010
0000
0000
0000
0001
0100
0001
0000
,
1000
0000
0000
0010
0000
0000
1000
0000
,
0001
0010
0001
0000
0100
0000
0010
0000
1000
0000
0100
0000
1000
0000
0001
0000
,
0100
1000
0100
0000
,
0001
0000
0001
0000
0001
0000
1000
0000
1000
0000
1000
0000
0100
0000
0100
0010
,
0100
0000
1000
0001
1000
0000
0000
0000
,
0001
0100
0001
0000
1000
0000
0001
0100
0001
0000
1000
0000
0100
0000
0010
0000
,
0001
1000
0010
0001
1000
0100
0001
1000
,
0001
0010
0001
0000
1000
0010
1000
0000
0001
0100
0001
0000
1000
0100
1000
0000
,
0010
0000
0000
0100
0000
0000
0001
1000
,
0000
0000
1000
1100
0000
0001
0101
0000
,
1000
1010
0010
0000
0001
0011
0000
0000
;

//--------------- dance-single - ----------------
#NOTEDATA:;
#STEPSTYPE:dance-single;
#DESCRIPTION:;
#DIFFICULTY:Challenge;
#METER:20;
#RADARVALUES:0,0,0,0,0,0,0,0,0,0,0,0,0,0,0,0,0,0,0,0,0,0;
#NOTES:
0000
0000
0000
0000
,
0000
0000
0000
0000
,
0000
0000
0000
0000
,
0000
0000
0000
0000
,
1000
0100
1000
0001
0100
1000
0100
0001
,
1000
0000
0100
0000
0010
0000
0001
0010
0100
0000
1000
0000
0010
0000
0100
0000
,
0001
0010
0001
0010
0001
0000
1000
0000
0010
0100
0010
0100
0010
0000
1000
0000
,
0001
0010
0100
0010
0001
0010
0100
1000
0001
0000
0100
0000
0001
0000
0000
0000
,
1000
0000
1000
0000
1100
0000
0000
0000
0010
0000
0001
1000
0010
0000
0100
0001
,
1000
0100
0010
0100
1000
0000
0001
1000
0001
0000
1000
0010
0100
0000
0000
0000
,
0001
0010
0000
1001
1000
0010
0000
1001
,
0001
0000
0010
0000
0000
0000
1000
0000
0010
0000
0001
0000
1000
0010
0100
0001
,
1000
0000
0100
0000
0010
0000
1000
0000
0010
0000
0001
0000
0100
0000
0010
1000
,
0001
0000
0010
0001
0010
0000
0001
0010
0001
0000
1000
0010
0100
0000
0000
0000
,
0001
0010
0100
0010
0001
0000
1000
0000
0010
0100
0001
1000
0100
0000
0010
0000
,
0100
1000
0001
0100
0010
1000
0001
0010
0100
1000
0100
1000
0100
0000
0000
0000
,
1000
0100
1000
0000
1100
0000
0001
0100
,
0010
0000
1000
0000
0100
0000
1000
0010
0100
0001
1000
0100
0010
0001
1000
0001
,
1000
0100
1000
0100
1000
0000
0010
0000
0100
0000
0001
0000
0101
0000
1000
0000
,
0001
0000
0001
0000
0000
0000
1000
0000
0010
0100
0001
1000
0100
0000
0000
0000
,
0022
0000
0033
0000
0000
0000
2020
0000
3030
0000
0000
0000
0002
0000
0003
0002
,
0000
0003
0002
0000
0003
0002
0000
0003
0002
0000
0003
0002
0000
0003
0002
0000
,
0003
0002
0000
0000
0000
0000
0000
0000
0000
0000
0000
0000
0000
0000
0003
0000
,
1100
1100
0000
1001
0000
0101
0101
0000
,
0002
0000
0023
0000
0032
0000
0203
0000
0320
0000
2030
0000
3200
0000
2300
3000
,
0011
0011
0000
1001
0000
1010
1010
0000
,
2000
3200
2300
3020
0230
0302
0023
0032
,
1003
0010
0001
0010
1000
0010
0001
0010
,
1000
0100
0001
0100
1000
0100
0001
0100
,
1000
0100
1000
0100
1000
0000
0001
0000
0100
0010
0100
0001
1000
0000
0100
0000
,
0010
0001
0010
0100
1000
0001
0100
0010
0100
0001
1000
0100
0010
0001
1000
0001
,
1000
1100
0000
0110
0000
0010
0011
0000
,
0001
0101
0000
0110
0000
0010
1010
0000
,
1000
0000
0100
0000
0001
0000
1000
0000
0010
0000
0001
0000
1000
0000
0010
0100
,
0010
0000
1000
0000
0001
0000
0010
0000
1000
0000
0010
0000
0001
0000
1000
0010
,
1000
0000
0001
0000
0010
0000
1000
0000
0010
0000
0100
0000
1000
0100
1000
0100
,
1000
0000
1000
0000
1001
0000
0000
0000
0001
0100
0010
1000
0010
0000
0100
0000
,
0001
0010
1000
0001
0100
1000
0010
0010
,
0100
0001
0100
1000
0100
0010
0100
0001
,
1000
1000
0100
0100
0010
0010
0001
0001
,
0100
0010
1000
0001
0010
0100
0010
0001
1000
0010
0100
0001
1000
0100
0010
0100
,
1000
0000
0001
0000
0100
0000
1000
0000
0100
0000
0010
0000
1000
0000
0100
0010
,
0100
0001
0100
0010
0001
1000
0100
0010
,
1000
0010
0001
1000
0010
0100
0010
1000
,
0001
0000
0010
0000
0001
0000
1000
0000
0010
0100
0010
1000
0001
0010
0100
1000
,
0001
0001
1000
1000
0010
0010
0100
0100
,
0001
0100
0010
0100
1000
0100
0010
1000
,
0001
0000
0010
0001
0000
1000
0000
0010
,
1001
0000
1001
0000
1001
0001
0010
0100
,
1000
0100
1000
0000
0010
0000
1000
0001
1000
0000
0100
1000
0010
0100
0001
0000
,
1000
0000
0200
0000
0302
0203
0320
0230
,
0310
0001
0010
0001
1000
0000
0010
0100
0010
0000
1000
0001
0010
0000
0100
0000
,
1000
0000
0020
0000
0230
0000
0302
0003
,
1100
0010
0101
1000
,
0110
0000
0000
0000
0001
0000
0100
0010
1000
0000
0001
0000
0010
0000
0100
0000
,
1000
0100
1000
0100
0000
0000
0010
0001
0010
0001
0000
0000
1000
0010
1000
0010
,
0100
0001
0100
0010
0000
0000
1000
0100
0010
0100
0000
0000
1000
0001
0100
0010
,
1000
0000
1000
0001
1000
0000
1000
0000
,
0001
0000
0100
0000
0001
0000
0000
0000
0101
0000
0000
0000
0100
0000
0001
1000
,
0100
0000
0001
0100
0000
1000
0010
0010
,
1010
0000
1000
0100
1000
0000
1100
0000
,
1000
0001
0100
0010
1000
0001
0010
0100
,
1000
0100
1000
0100
0010
0001
0010
0100
0010
0001
1000
0010
0100
0001
0100
0010
,
1000
0000
0000
1000
0000
0000
1000
1000
,
1001
0000
0000
0000
0000
0000
0000
0000
1000
0001
1000
0001
0100
0010
0100
0010
,
1000
0100
1000
0000
0100
0000
1000
0100
1000
0000
0002
0003
0000
0200
0000
0000
,
1300
0100
0001
0000
1000
0000
0100
0010
0001
0000
0020
0000
0030
0200
0000
0000
,
1300
0010
1000
0000
0010
0000
1000
0010
1000
0000
0002
0003
0000
0020
0000
0000
,
1030
0010
0100
0000
1000
0000
0010
0100
0001
0000
2000
0000
3000
0200
0000
0000
,
0310
0100
1000
0000
0001
0000
0100
0010
0100
0000
0002
0003
0000
0020
0000
0000
,
1030
0010
0100
0000
1000
0000
0001
0100
0010
0000
2000
0000
3000
0002
0000
0000
,
1003
0100
1000
0000
0001
0000
0100
0010
0100
0000
2000
3100
0000
0002
0000
0000
,
1003
0100
0010
0000
1000
0000
0010
0001
0100
0000
0020
0000
0030
1000
0001
1000
,
0001
0010
0000
0010
0100
0000
1000
0010
1000
0010
0000
0010
0100
0000
0001
1000
,
0001
0010
0000
1000
0010
0000
0001
1000
0010
0100
0000
1000
0100
0000
0001
1000
,
0100
1000
0000
0010
0100
0000
0001
0010
0001
1000
0000
0010
1000
0000
0100
0010
,
0001
0100
0000
0001
1000
0000
0100
0010
0100
1000
0000
0001
0100
0000
0010
0100
,
0001
1000
0100
0010
1000
0010
0001
1000
0100
0001
0100
0010
,
0001
1000
0010
0100
0010
1000
0001
0010
0100
1000
0100
0010
0001
1000
0010
0100
,
0004
0000
0000
0000
,
0000
0000
0000
0000
,
2003
0000
0000
0000
,
0000
0000
3100
1000
0001
0000
0000
0000
0100
0000
0010
0000
1000
0001
1000
0001
,
1000
0000
0000
0000
0100
0000
0000
0000
0010
0000
0000
0000
1000
0000
0000
0000
0010
0000
0000
0000
0001
0000
0000
0000
1000
0000
0000
0000
0000
0000
0010
0000
0000
1000
0000
0000
0001
0000
0000
0000
0000
0000
0000
0000
0000
0000
0000
0000
,
0001
0000
0000
0000
0010
0000
0000
0000
1000
0000
0000
0000
0010
0000
0000
0000
0100
0000
0000
0000
1000
0000
0000
0000
0001
0000
0000
0000
0000
0000
0100
0000
0000
0001
0000
0000
1000
0000
0000
0000
0000
0000
0000
0000
0000
0000
0000
0000
,
1000
0000
0000
0000
0010
0000
0000
0000
0001
0000
0000
0000
0010
0000
0000
0000
0100
0000
0000
0000
0001
0000
0000
0000
1000
0000
0000
0000
0000
0000
0100
0000
0000
1000
0000
0000
0001
0000
0000
0000
0000
0000
0000
0000
0000
0000
0000
0000
,
0001
0000
0000
0000
0100
0000
0000
0000
0010
0000
0000
0000
0001
0000
0000
0000
0010
0000
0000
0000
1000
0000
0000
0000
0001
0000
0000
0010
0000
0000
0001
0000
0000
0010
0000
0000
0100
0000
0000
1000
0000
0000
0001
0000
0000
0100
0000
0000
,
0010
1010
0000
1001
0000
0001
0011
0000
,
0100
0101
0000
1001
0000
1000
1100
0000
,
MMMM
0000
0000
0000
,
0110
0000
0000
0000
1001
0000
0000
0000
1000
0000
0000
0000
0001
1000
0001
1000
,
0010
0000
0001
0000
0010
0000
1000
0000
0001
0000
0010
0000
0100
0010
0001
1000
,
0010
0000
0100
0000
1000
0000
0100
0000
0001
0000
1000
0000
0100
1000
0001
0100
,
0010
0000
0100
0000
0000
0000
1000
0000
0100
0000
0000
0000
0010
1000
0001
1000
,
0100
0100
0010
0000
0011
0000
0001
1000
,
0100
0000
0001
0000
0100
0010
0001
1000
0010
0000
0100
0000
0001
0000
0001
0000
,
1000
0100
0001
1000
0010
0001
0100
0100
,
0010
0010
1000
0001
1000
0001
0100
0100
,
0010
1000
0001
0010
0100
0010
0001
1000
0010
0100
0001
1000
0001
1000
0001
1000
,
0001
0010
0100
0010
0001
0010
0100
1000
0001
0100
0010
1000
0001
0000
0010
0100
,
1000
0001
0100
0010
0100
1000
0100
0000
,
0001
1000
0100
0000
0010
0100
1000
0000
0100
0010
0001
0000
0010
0100
0010
0000
,
0001
1000
0010
0100
0001
1000
0100
0010
0001
1000
0001
1000
0001
1000
0001
1000
,
0001
0000
0001
0000
0010
0000
0010
0000
0001
0010
0001
0010
0001
1000
0010
0100
,
0001
1000
0100
0001
0100
1000
0001
0100
,
0001
0000
0000
0000
0001
0000
1000
0010
0100
0010
1000
0001
0010
0100
1000
0100
,
0010
0000
0000
0000
0010
0000
0010
0001
0010
0000
0100
0000
1000
0000
0001
0000
,
0100
0010
1000
0000
0001
0000
0001
0000
0010
0000
0010
0000
0100
0000
0100
0000
,
1000
0000
1000
0000
0010
1000
0010
1000
0001
0000
0010
0000
0001
0010
0100
1000
,
0001
0000
0100
0000
0001
0010
0100
0010
0001
0000
1000
0000
0010
0100
0010
1000
,
0001
0010
0001
1000
0010
1000
0001
0010
0200
0000
0300
0000
0200
0000
0300
0000
,
1000
0010
0100
0001
1000
0000
1000
0000
0100
0000
0100
0000
0010
0000
0010
0000
,
0001
1000
0010
0100
0010
1000
0010
0100
0001
1000
0100
1000
0001
0000
0100
0000
,
0001
0010
0001
0010
0001
0000
1000
0010
1000
0010
1000
0000
0001
1000
0001
0000
,
0100
0000
0000
0100
0010
0000
0010
0010
,
1000
0100
0010
0100
1000
0000
0001
0000
0100
0000
0010
0000
0100
0000
0001
0000
,
1000
0000
0000
0000
1000
0000
0100
1000
0001
0000
0100
0001
0100
0000
0001
0000
,
0010
0000
0010
0000
0100
0000
0100
0000
1000
0000
1000
0000
0001
0100
0001
0100
,
0010
1000
0010
1000
0010
0000
1000
0010
0100
0000
0000
0000
0100
0000
0001
0000
,
1000
0100
1000
0001
0100
0000
0100
0000
0001
0000
0001
0000
0010
0000
0010
0000
,
0100
0100
0100
1000
1000
1000
0001
0001
,
0100
0010
0100
0010
1000
0000
0001
0010
0001
0010
0100
0000
0010
0001
1000
0010
,
0100
0001
0100
0001
1000
0100
1000
0100
1000
0001
0100
0001
0010
0100
1000
0010
,
1000
0000
1100
1001
0000
0101
1001
0000
,
1010
1001
0011
0000
0110
1001
0000
0000
;

//--------------- dance-single - Challenge+ (Gimmicks Edition) ----------------
#NOTEDATA:;
#STEPSTYPE:dance-single;
#DESCRIPTION:Challenge+ (Gimmicks Edition);
#DIFFICULTY:Edit;
#METER:20;
#RADARVALUES:0,0,0,0,0;
#OFFSET:-0.438;
#BPMS:0.000=480.000
,80.000=240.000
,88.000=480.000
,120.000=240.000
,136.000=120.000
,144.000=60.000
,146.000=960.000
,154.000=240.000
,158.000=960.000
,166.000=240.000
,170.000=480.000
,202.000=960.000
,216.000=480.000
,330.000=240.000
,334.000=960.000
,340.000=480.000
,348.000=120.000
,350.000=480.000
,358.000=120.000
,360.000=240.000
,368.000=480.000
,370.000=240.000
,370.500=480.000
,372.500=240.000
,373.000=480.000
,377.000=240.000
,377.500=480.000
,379.500=240.000
,380.000=480.000
,382.000=240.000
,410.000=480.000
,416.000=120.000
,432.000=130.000
,436.000=140.000
,440.000=150.000
,444.000=160.000
,448.000=340.000
,452.000=360.000
,456.000=380.000
,460.000=400.000
,464.000=420.000
,468.000=440.000
,472.000=460.000
,476.000=480.000
,496.000=960.000
,512.000=240.000
,517.000=960.000
,542.000=480.000
,546.000=960.000
,562.000=120.000
,565.000=240.000
,567.000=480.000
,679.000=240.000
,683.000=960.000
,689.000=480.000
,745.000=960.000
,753.000=480.000
,761.000=240.000
,765.000=480.000
,773.000=240.000
,777.000=480.000
,809.000=240.000
,810.000=960.000
;
#STOPS:146.000=0.063
,147.000=0.125
,149.000=0.125
,151.000=0.063
,152.000=0.125
,158.000=0.063
,159.000=0.125
,161.000=0.125
,163.000=0.063
,164.000=0.125
,202.000=0.063
,203.000=0.125
,205.000=0.125
,207.000=0.063
,208.000=0.125
,210.000=0.063
,211.000=0.125
,213.000=0.125
,215.000=0.063
,334.000=0.125
,336.000=0.125
,338.000=0.375
,410.000=0.250
,512.000=0.750
,517.000=0.041
,517.667=0.041
,518.333=0.041
,519.000=0.041
,519.667=0.041
,520.333=0.041
,521.000=0.063
,522.000=0.032
,522.500=0.032
,523.000=0.188
,524.000=0.041
,524.667=0.041
,525.333=0.041
,526.000=0.041
,526.667=0.041
,527.333=0.041
,528.000=0.063
,529.000=0.032
,529.500=0.032
,530.000=0.188
,531.000=0.041
,531.667=0.041
,532.333=0.041
,533.000=0.041
,533.667=0.041
,534.333=0.041
,535.000=0.063
,536.000=0.032
,536.500=0.032
,537.000=0.188
,538.000=0.041
,538.667=0.041
,539.333=0.041
,540.000=0.041
,540.667=0.041
,541.333=0.041
,546.000=0.063
,547.000=0.125
,549.000=0.125
,551.000=0.063
,552.000=0.125
,554.000=0.063
,555.000=0.125
,557.000=0.125
,559.000=0.063
,560.000=0.125
,683.000=0.125
,685.000=0.125
,687.000=0.375
,745.000=0.188
,748.000=0.063
,749.000=0.125
,751.000=0.063
,752.000=0.063
,810.000=0.063
,811.000=0.125
,813.000=0.063
,814.000=0.125
,816.000=0.063
,817.000=0.063
,818.000=0.125
,820.000=0.063
;
#NOTES:
0000
0000
0000
0000
,
0000
0000
0000
0000
,
0000
0000
0000
0000
,
0000
0000
0000
0000
,
0000
0000
0000
0000
,
0000
0000
0000
0000
,
0000
0000
0000
0000
,
0000
0000
0000
0000
,
1000
0100
1000
0001
,
0100
1000
0100
0001
,
1000
0000
0100
0000
0010
0000
0001
0010
,
0100
1000
0010
0100
,
0001
0010
0001
0010
0001
0000
1000
0000
,
0010
0100
0010
0100
0010
0000
1000
0000
,
0001
0010
0100
0010
0001
0010
0100
1000
,
0001
0100
0001
0000
,
1000
1000
1100
0000
,
0010
0000
0001
1000
0010
0000
0100
0001
,
1000
0100
0010
0100
1000
0000
0001
1000
,
0001
0000
1000
0010
0100
0000
0000
0000
,
0001
0010
0001
0010
0000
0000
0001
1000
0010
1000
0010
0000
0000
0000
1000
0000
,
0001
0000
0010
0000
0000
0000
1000
0000
0010
0001
0010
0001
1000
0010
0100
0001
,
1000
0100
0010
1000
,
0010
0000
0001
0000
0100
0000
0010
1000
,
0001
0000
0010
0001
0010
0000
0001
0010
,
0001
0000
1000
0010
0100
0000
0000
0000
,
0001
0010
0100
0010
0001
0000
1000
0000
,
0010
0100
0001
1000
0100
0000
0010
0000
,
0100
1000
0001
0100
0010
1000
0001
0010
,
0100
1000
0100
1000
0100
0000
0000
0000
,
1000
0100
1000
0100
1000
0000
0000
0000
1100
0000
0000
0000
0001
0000
0100
0000
,
0010
0000
1000
0000
0100
0000
1000
0010
0100
0001
1000
0100
0010
0001
1000
0001
,
1000
0100
1000
0100
1000
0000
0010
0000
0100
0000
0001
0000
0101
0000
1000
0000
,
0001
0000
0001
0000
0000
0000
1000
0000
0010
0100
0001
1000
0100
0000
0000
0000
,
0022
0000
0033
0000
0000
0000
2020
0000
3030
0000
0000
0000
0002
0000
0003
0002
,
0000
0003
0002
0000
0003
0002
0000
0003
0002
0000
0003
0002
0000
0003
0002
0000
,
0003
0002
0000
0000
0000
0000
0000
0000
0000
0000
0000
0000
0000
0000
0003
0000
1100
0000
0000
0000
0000
0000
0000
0000
1100
0000
0000
0000
0000
0000
0000
0000
,
0000
1001
0000
0101
,
0101
0000
0000
0000
0002
0023
0032
0203
,
0320
0000
2030
0000
3200
0000
2300
3000
0011
0000
0000
0000
0011
0000
0000
0000
,
0000
1001
0000
1010
,
1010
0000
0000
0000
2000
3200
2300
3020
,
0230
0302
0023
0032
1003
0100
0010
0100
,
1000
0100
0010
0100
1000
0100
0010
0100
,
1000
0100
0010
0001
1000
0010
0100
0010
,
1000
0010
0100
0010
1000
0010
0100
0010
,
1000
0010
0100
0001
1000
0100
1000
0100
,
1000
0100
0010
0001
1000
0010
1000
0010
,
1000
0010
0100
0001
0010
0100
0010
0001
,
0100
0010
1000
0001
0010
0100
1000
0100
,
0010
0001
1000
0010
1000
0000
1100
0000
,
0000
0110
0000
0010
,
0011
0000
0001
0101
,
0000
0110
0000
1010
,
1000
0001
1000
0100
,
0001
1000
0010
0001
,
1000
0000
0010
0100
0010
0000
1000
0000
,
0001
0010
1000
0010
,
0001
0000
1000
0010
1000
0000
0001
0000
,
0010
1000
0010
0100
,
1000
0100
1000
0100
1000
0000
1000
0000
,
1001
0000
0000
0000
0001
0100
0010
1000
,
0010
0100
0001
0010
,
1000
0001
0100
1000
,
0010
0010
0100
0001
,
0100
1000
0100
0010
,
0100
0001
1000
1000
,
0100
0100
0010
0010
,
0001
0000
0001
0000
0100
0010
1000
0001
,
0010
0100
0010
0001
1000
0010
0100
0001
,
1000
0100
0010
0100
1000
0000
0001
0000
,
0100
1000
0100
0010
,
1000
0000
0100
0010
0100
0000
0001
0000
,
0100
0010
0001
1000
,
0100
0010
1000
0010
,
0001
1000
0010
0100
,
0010
1000
0001
0010
,
0001
0000
1000
0000
0010
0100
0010
1000
,
0001
0010
0100
1000
0001
0000
0001
0000
,
1000
1000
0010
0010
,
0100
0100
0001
0100
,
0010
0100
1000
0100
,
0010
0000
0000
0000
1000
0000
0000
0000
0001
0000
0000
0000
0010
0001
0010
0000
,
0000
0000
0001
1000
0010
0100
0001
0000
1001
0000
0000
0000
0000
0000
0000
0000
,
1001
0000
1001
0000
,
1000
0100
1000
0000
0010
0000
1000
0001
,
1000
0000
0100
1000
0010
0100
0001
0000
,
1000
0000
0200
0000
0302
0203
0320
0230
0310
0000
0001
0000
0010
0000
0001
0000
,
1000
0000
0010
0100
0010
0000
1000
0001
,
0010
0000
0000
0000
0100
0000
0000
0000
1000
0000
0020
0000
0230
0000
0302
0003
,
1100
0010
0101
1000
,
0110
0000
0000
0000
0001
0000
0100
0010
1000
0000
0001
0000
0010
0000
0100
0000
,
1000
0100
1000
0100
0000
0010
0001
0010
,
0001
0000
1000
0010
1000
0010
0100
0001
,
0100
0010
0000
1000
0100
0010
0100
0000
,
1000
0001
0100
0010
1000
0000
1000
0001
,
1000
0000
1000
0000
0001
0100
0001
0000
,
0101
0000
0000
0000
0100
0000
0001
1000
0100
0000
0000
0000
0001
0000
0100
0000
,
0000
1000
0010
0010
1010
0000
1000
0100
,
1000
0000
1100
0000
1000
0001
0100
0010
,
1000
0000
0001
0000
0010
0000
0100
0000
1000
0100
1000
0100
0010
0001
0010
0100
,
0010
0001
1000
0010
0100
0001
0100
0010
1000
0000
0000
0000
0000
0000
1000
0000
,
0000
0000
1000
1000
1001
0000
0000
0000
,
1000
0001
1000
0001
0100
0010
0100
0010
,
1000
0100
1000
0000
0100
0000
1000
0100
1000
0000
0002
0003
0000
0200
0000
0000
,
1300
0100
0001
0000
1000
0000
0100
0010
0001
0000
0020
0000
0030
0200
0000
0000
,
1300
0010
1000
0000
0010
0000
1000
0010
1000
0000
0002
0003
0000
0020
0000
0000
,
1030
0010
0100
0000
1000
0000
0010
0100
0001
0000
2000
0000
3000
0200
0000
0000
,
0310
0100
1000
0000
0001
0000
0100
0010
0100
0000
0002
0003
0000
0020
0000
0000
,
1030
0010
0100
0000
1000
0000
0001
0100
0010
0000
2000
0000
3000
0002
0000
0000
,
1003
0100
1000
0000
0001
0000
0100
0010
0100
0000
2000
3100
0000
0002
0000
0000
,
1003
0100
0010
0000
1000
0000
0010
0001
0100
0000
0020
0000
0030
1000
0001
1000
,
0001
0010
0000
0010
0100
0000
1000
0010
,
1000
0010
0000
0010
0100
0000
0001
1000
,
0001
0010
0000
1000
0010
0000
0001
1000
,
0010
0100
0000
1000
0100
0000
0001
1000
,
0100
1000
0000
0010
0100
0000
0001
0010
,
0001
1000
0000
0010
1000
0000
0100
0010
,
0001
0100
0000
0001
1000
0000
0100
0010
,
0100
1000
0000
0001
0100
0000
0010
0100
,
0001
0000
1000
0000
0100
0000
0010
0000
1000
0000
0010
0000
,
0001
0000
1000
0000
0100
0000
0001
0000
0100
0000
0010
0000
,
0001
1000
0010
0100
0010
1000
0001
0010
,
0100
1000
0100
0010
0001
1000
0010
0100
,
0001
1000
0001
1000
,
0001
1000
0001
1000
,
0001
1000
0001
1000
,
0001
1000
0001
1000
,
0002
0000
0000
0000
0000
0000
1003
0010
0100
0000
0000
0000
0001
0000
0001
0000
,
1000
0000
0000
0001
0000
0000
1000
0000
0000
0001
0000
0000
1000
0000
0000
0000
0000
0000
0000
0000
0100
0000
0000
0000
0000
0000
0000
0000
0001
0000
0000
0000
0000
0000
0000
0000
1000
0000
0000
0000
0000
0000
0000
0000
0010
0000
0000
0000
,
0000
0000
0001
0000
0000
0000
1000
0000
0000
0000
0000
0000
0010
0000
0000
1000
0000
0000
0001
0000
0000
0000
0000
0000
,
0001
0000
0010
0000
1000
0000
0001
0000
0100
0000
1000
0000
,
0001
0000
0000
0000
0000
0000
0100
0000
0000
0001
0000
0000
1000
0000
0000
0000
0000
0000
1000
0000
0000
0000
0010
0000
,
0000
0001
0000
1000
0000
0100
0000
0001
0000
1000
0000
0000
,
0100
0000
0000
1000
0000
0000
0001
0000
0000
0000
0000
0000
0001
0000
0000
0000
0100
0000
0000
0000
1000
0000
0000
0000
,
0001
0000
0000
0000
0010
0000
0000
0000
1000
0000
0000
0000
0001
0000
0000
0010
0000
0000
0001
0000
0000
0010
0000
0000
,
0100
1000
0001
0100
0010
0000
1010
0000
,
0000
1001
0000
0001
,
0011
0000
0100
0101
,
0000
1001
0000
1000
,
1100
0000
MMMM
0000
,
0110
0000
1001
0000
1000
0000
0000
0000
0001
1000
0001
1000
0010
0000
0000
0000
,
0001
0010
1000
0001
,
0010
0000
0100
0010
0001
1000
0010
0000
,
0100
1000
0100
0001
,
1000
0000
0100
1000
0001
0100
0010
0000
,
0100
0000
1000
0100
,
0000
0000
0010
1000
0001
1000
0100
0000
,
0100
0010
0000
0011
,
0000
0001
1000
0100
,
0001
0000
0100
0010
0001
1000
0010
0000
,
0100
0001
0001
1000
,
0100
0001
1000
0010
,
0001
0100
0100
0010
,
0010
1000
0001
1000
,
0001
0000
0100
0000
0100
0000
0010
1000
,
0001
0010
0100
0010
0001
1000
0010
0100
,
0001
1000
0001
1000
0001
1000
0001
0010
,
0100
0010
0001
0010
0100
1000
0001
0100
,
0010
1000
0001
0000
0010
0100
1000
0000
,
0001
0100
0010
0100
,
1000
0000
0100
0000
0000
0000
0001
1000
,
0100
0010
0100
1000
0100
0010
0001
1000
,
0010
0000
0100
0010
1000
0000
0001
1000
,
0100
0010
0001
1000
0010
0100
0001
1000
,
0001
1000
0001
1000
0001
1000
0001
0000
,
0001
0000
0010
0000
0010
0000
0001
0010
,
0001
0010
0001
1000
0010
0100
0001
0000
,
1000
0100
0001
0100
,
1000
0001
0100
0001
,
0001
0000
1000
0010
0100
0010
1000
0001
0010
0100
1000
0000
0011
0000
0000
0000
,
0000
1010
0000
1001
,
0000
0000
1000
0010
1000
0000
0001
0000
,
0001
0010
0010
0100
,
0100
0000
1000
0000
1000
0000
0010
1000
,
0010
1000
0001
0000
0010
0000
0001
0010
,
0100
1000
0001
0000
0100
0000
0001
0010
,
0100
0010
0001
0000
1000
0000
0010
0100
,
0010
1000
0001
0010
0001
1000
0010
1000
,
0001
0010
0200
0000
0300
0000
0200
0000
,
0300
0000
1000
0010
0100
0001
1000
0000
,
1000
0100
0100
0010
,
0010
0000
0001
1000
0010
0100
0010
1000
,
0010
0100
0001
1000
0100
1000
0001
0000
,
0100
0000
0001
0010
0001
0010
0001
0000
,
1000
0010
1000
0010
1000
0000
0001
1000
,
0001
0100
0000
0000
,
0100
0010
0000
0010
,
0010
0000
1000
0100
0010
0100
1000
0000
,
0001
0100
0010
0100
0001
0000
0010
0100
,
1000
0000
0001
0000
1000
0000
0000
0000
1000
0000
0100
1000
0001
0000
0100
0001
,
0100
0001
0010
0000
0010
0000
0100
0000
,
0100
0000
1000
0000
1000
0000
0001
0100
,
0001
0000
0100
0000
0010
1000
0010
1000
0010
0000
1000
0010
0100
0000
0000
0000
,
0100
0001
1000
0100
1000
0001
0100
0000
,
0001
1000
0100
0010
0100
0000
1000
0001
,
1000
0000
0001
0100
0001
1000
0100
0000
,
1000
0001
0100
0010
0100
0000
0001
1000
,
0001
0000
0100
0010
0100
0010
1000
0000
,
0001
0010
0001
0010
0100
0000
0010
0001
,
1000
0010
0100
0001
0100
0001
1000
0100
,
1000
0100
1000
0001
0100
0001
0010
0100
,
1000
0010
1000
0000
1100
0000
1001
0000
,
0000
0101
1001
0000
,
1010
1001
0011
0000
,
0110
1001
0000
0000
;
