#TITLE:Cyclone♠Joker;
#SUBTITLE:;
#ARTIST:庭師;
#TITLETRANSLIT:Cyclone Joker;
#SUBTITLETRANSLIT:;
#ARTISTTRANSLIT:NIWASHI;
#GENRE:;
#CREDIT:;
#MUSIC:Cyclone Joker.ogg;
#BANNER:Cyclone Joker.png;
#BACKGROUND:Cyclone Joker-bg.png;
#CDTITLE:;
#SAMPLESTART:78.159;
#SAMPLELENGTH:25.772;
#SELECTABLE:YES;
#OFFSET:0.364;
#BPMS:0.000=149.000
,180.000=298.000
,181.000=149.000
;
#STOPS:157.750=0.402
,172.000=0.806
,180.000=0.202
;
#DISPLAYBPM:149.000;
#BGCHANGES:;
#FGCHANGES:;

//--------------- dance-single - chrononical ----------------
#NOTES:
     dance-single:
     chrononical:
     Beginner:
     5:
     0,0,0,0,0:
0000
0000
0000
0000
,
0000
0000
0000
0000
,
0000
0000
0000
0000
,
0000
0000
0000
0000
,
0000
0000
0000
0000
,
2002
0000
0000
3003
0000
0000
0000
0000
,
0220
0000
0000
0330
0000
0000
1000
0000
,
2002
0000
0000
3003
0000
0000
0000
0000
,
0220
0000
0000
0330
0000
0000
0001
0000
,
1000
1000
1000
0000
,
0100
0100
0100
0000
,
0010
0010
0010
0000
,
0001
0000
0000
0100
0000
0000
0010
0000
,
0000
1000
0000
0000
0002
0000
0000
0000
,
1003
0100
0010
0000
,
0010
0100
1000
0000
,
0001
0100
0010
0000
,
0010
0100
0001
0000
,
1000
0100
0010
0000
,
0010
0100
1000
0000
,
0001
0100
0010
0010
,
2000
0000
0000
3000
,
0001
0000
0010
0000
,
0100
0100
1000
0000
,
0001
0000
0100
0000
,
0010
0000
0010
0000
1000
0000
0000
0100
,
0000
0010
0100
0000
,
0100
0010
0001
0000
,
1000
0010
0100
0000
,
2002
0000
0000
0000
,
0000
0000
0000
3003
,
2000
0000
3200
0000
,
0320
0000
0032
0000
,
2003
0000
3020
0000
,
0230
0000
0000
0000
,
0302
0000
0023
0000
,
0230
0000
2300
0000
,
3001
0000
0100
0000
,
0010
0000
1000
0000
,
0100
0200
0300
1000
,
0001
0100
0000
0001
,
1000
0100
0000
1000
,
0001
0010
0000
0001
,
0000
1000
1000
1000
,
0000
0001
0001
0001
,
0200
0300
0000
0000
0000
0000
0000
0000
0000
0000
0000
0000
0001
0000
0000
0000
,
1000
0020
0000
0000
,
0000
0000
0000
0000
,
0000
0031
0000
0010
,
0000
1000
1000
0100
,
0000
0001
0000
0100
,
0000
1000
0000
0010
,
1000
0001
0000
0010
,
0001
1000
0000
0010
,
0000
0100
0010
0100
,
0000
0002
0000
0000
,
0003
1000
0100
0010
,
0000
0100
0010
0001
,
0000
1000
0000
0010
,
0100
0010
0000
1000
,
0000
0100
0000
0010
,
0001
1000
0001
0100
,
0000
0000
0010
0000
0000
1000
0000
0001
,
0000
0000
0010
0000
0000
0100
0000
0000
,
2000
0000
0000
0000
,
0000
0000
0000
0000
,
3000
0000
2002
0000
0000
3003
0000
0000
,
0001
0020
0000
0130
,
1000
0000
0002
0000
0000
0003
0000
0000
,
1000
0010
0000
0100
,
0001
1000
1000
1000
,
0000
0100
0100
0100
,
0000
0010
0010
0010
,
0000
0000
0001
0000
0000
0100
0000
0000
,
0010
0000
0000
0100
0000
0000
2000
0000
,
0000
3000
0000
0000
;

//--------------- dance-single - chrononical ----------------
#NOTES:
     dance-single:
     chrononical:
     Easy:
     8:
     0,0,0,0,0:
0000
0000
0000
0000
,
0000
0000
0000
0000
,
0000
0000
0000
0000
,
0000
0000
0000
0000
,
0000
0000
0000
0000
,
2001
0000
0000
3100
0000
0010
0001
0000
,
1002
0000
0000
0103
0000
0010
1000
0000
,
2001
0000
0000
3100
0000
0010
0001
0000
,
1002
0000
0000
0103
0010
0000
1000
0000
,
1001
0000
0000
0000
0001
0000
0000
0010
0000
0000
0100
0000
0000
1000
0000
0000
,
1001
0000
0000
0000
1000
0000
0000
0010
0000
0000
0100
0000
0000
0001
0000
0000
,
1001
0000
0000
0000
0001
0000
0000
0010
0000
0000
0100
0000
0000
1000
0000
0000
,
1100
0000
0000
1010
0000
0000
0101
0000
,
0000
0011
0000
0000
0002
0000
0000
0000
,
1003
0010
0001
0010
,
1000
0000
0000
0000
0100
0000
0010
0000
0000
0001
0000
0000
0010
0000
0000
0000
,
0001
0000
0000
0000
0100
0000
0000
0000
0010
0000
0000
1000
0000
0001
0000
1000
,
0000
0100
0010
0110
,
1002
0103
1000
0100
,
0001
0000
0000
0000
0010
0000
0100
0000
0000
1000
0000
0000
0100
0000
0000
0000
,
1000
0000
0000
0000
0010
0000
0000
0000
0100
0000
0000
0001
0000
0010
0000
0002
,
0000
0000
0000
0003
,
1000
0000
0000
0000
1000
0000
0000
0000
0010
0000
0000
0000
0100
0000
0000
0100
,
0000
0000
0000
0000
0001
0000
0000
0000
0010
0000
0000
0000
0100
0000
0000
1100
,
0000
0000
0000
0000
1000
0000
0000
0000
0010
0000
0000
0000
0100
0000
0000
0010
,
0000
0000
0000
0000
1000
0000
0000
0000
0100
0000
0000
0100
0000
0000
0010
0000
,
0000
0010
0000
0000
0100
0000
0000
0000
0001
0000
0000
0000
0100
0000
0000
0000
,
1000
0000
0000
0000
0010
0000
0100
0000
0000
0001
0000
0000
0100
0000
0000
0000
,
0001
0000
0000
0000
0010
0000
0000
0000
0100
0000
0000
1000
0000
0010
0000
2000
,
0000
0000
0000
0000
,
0000
0000
0000
3000
,
1002
0000
0023
0000
,
0230
0000
0000
2300
0000
0000
3002
0000
0000
0000
0000
0000
2003
0000
0000
0000
,
3020
0230
0302
2003
,
3200
0000
0000
0300
,
2001
0000
3020
0000
,
0230
0000
0000
0302
0000
0000
2003
0000
0000
0000
0000
0000
3002
0000
0000
0000
,
1003
0000
0000
0100
0000
0000
0000
0000
0100
0000
0000
0010
0000
0000
0000
0000
,
0010
0000
0000
0001
0000
0000
0000
0000
0001
0000
0000
1000
0000
0000
0000
0000
,
0001
0000
0000
0000
0100
0000
0000
0020
0030
0000
0000
0000
1000
0000
1000
0000
,
0000
0000
0100
0000
0010
0000
0001
0001
,
0000
0000
0100
0000
0010
0000
1000
1000
,
0000
0000
0100
0000
0020
0000
0031
0001
,
0000
1000
0010
0100
,
0001
1000
0100
0010
,
2002
3003
0000
0000
0001
0000
0100
0000
0001
0000
0000
0000
1000
0000
0100
0000
,
1000
0002
0000
0000
,
0000
0000
0000
0000
,
0103
1000
0001
1000
,
0100
0001
0010
0100
,
0010
0000
0000
0000
1000
0000
0000
0000
0001
0000
0000
0000
1000
0000
0000
0010
,
0000
0000
0000
0002
0000
0000
0000
0000
2003
0000
0000
0000
3020
0000
0000
0000
,
0230
2300
3100
0001
,
0010
0000
0000
0000
2000
0000
0000
0000
3010
0000
0000
0002
0000
0000
0000
0000
,
1003
0000
0000
0002
0000
0000
0000
0000
1003
0000
0000
0000
0010
0000
0000
0100
,
0000
0000
0000
0002
0000
0000
0000
0000
0000
0000
0000
0000
0000
0000
0000
0000
,
0003
1000
0100
0002
,
0103
0010
2000
3010
,
0001
1000
0010
0100
,
0001
0000
0000
0000
1000
0000
0000
0000
0100
0000
0000
0020
0000
0000
0000
0000
,
0031
0000
0000
0200
0000
0000
0000
0000
0310
0000
0000
0000
1000
0000
0000
0000
,
0100
0000
0000
0000
0001
0000
0000
0000
1000
0000
0000
0000
0010
0000
0000
0001
,
0000
0000
0000
1001
0000
0000
0000
0000
0000
0000
1010
0000
0000
0000
1000
0000
,
0000
1000
0000
0000
0010
0000
0000
0010
0000
0000
0100
0000
0000
0100
0000
0000
,
0001
0000
0000
0002
0000
0000
0000
0000
0000
0000
0000
0000
0000
0000
0000
0000
,
0000
0000
0000
0000
,
0003
0000
1002
0000
0000
0013
0000
0100
,
1000
0000
0000
0000
0001
0000
0000
1000
0000
0000
0010
0000
0000
0000
0100
0000
,
0000
0001
0000
0000
2000
0000
0000
0000
0000
0000
3100
0000
0000
0000
0010
0000
,
0001
0000
0000
0000
2001
0000
0000
0000
0000
0000
3010
0000
0100
0000
0000
0001
,
0000
0000
1000
0000
0001
0000
0000
0000
1000
0000
0000
0100
0000
0000
0010
0000
,
0000
0001
0000
0000
1001
0000
0000
0000
0001
0000
0000
0100
0000
0000
0010
0000
,
0000
1000
0000
0000
1001
0000
0000
0000
1000
0000
0000
0100
0000
0000
0010
0000
,
0000
0001
0000
0000
0011
0000
0000
0000
0000
0000
0101
0000
0000
0000
0000
0000
,
1010
0000
0000
1100
0000
0000
0220
0000
,
0330
0000
0000
0000
;

//--------------- dance-single - chrononical ----------------
#NOTES:
     dance-single:
     chrononical:
     Medium:
     13:
     0,0,0,0,0:
0000
0000
0000
0000
,
0000
0000
0000
0000
,
0000
0000
0000
0000
,
0000
0000
0000
0000
,
0000
0000
0000
0000
,
0001
0000
0010
0000
0100
0000
0000
0001
0000
0000
0100
0000
0010
0000
0001
0000
,
1000
0000
0010
0000
0100
0000
0000
1000
0000
0000
0100
0000
0010
0000
1000
0000
,
0001
0000
0010
0000
0100
0000
0000
0001
0000
0000
0100
0000
0010
0000
0001
0000
,
1000
0010
0100
0000
0100
0001
1000
0001
,
1001
0000
0000
0000
1100
0000
0000
0110
0000
0000
0011
0000
0000
0101
0000
0000
,
1001
0000
0000
0000
1010
0000
0000
0110
0000
0000
0101
0000
0000
0011
0000
0000
,
1001
0000
0000
0000
0011
0000
0000
0110
0000
0000
1100
0000
0000
1010
0000
0000
,
1002
0000
0000
0103
0000
0000
2001
0000
0000
3100
0000
0000
1002
0000
0000
0013
,
0000
0000
2001
0000
0000
3010
0000
0000
0100
0000
0002
0000
0000
0000
0003
0000
,
2001
0000
0000
3100
0000
0010
0001
0000
0200
0000
0000
0000
0320
0000
0000
0001
,
0000
0001
0000
0000
1030
0000
0100
0000
0000
0010
0000
0000
0110
0000
0000
0000
,
2001
0000
0000
3010
0000
0100
0010
0100
0000
0010
0000
1000
0000
1000
0000
0100
,
0000
0010
0001
0000
0100
0000
1000
0000
0100
0000
0000
0000
0110
0000
0000
0000
,
1002
0000
0000
0103
0000
0010
1000
0000
0200
0000
0000
0000
0320
0000
0000
1000
,
0000
1000
0000
0000
0031
0000
0100
0000
0000
0010
0000
0000
0110
0000
0000
0000
,
1002
0000
0000
0013
0000
0100
0010
0100
0000
1000
0000
0001
0000
0100
0000
0020
,
0000
0000
0000
0130
,
0100
0000
0000
0000
0001
0000
0000
0000
1000
0000
0000
0000
0001
0000
0000
0000
0000
0000
0000
0000
0000
0010
0000
0000
0100
0000
0000
0000
0000
0000
1000
0000
0000
0000
0000
0000
0001
0000
0000
0100
0000
0000
0000
0000
0000
0100
0000
0000
,
0000
0010
1000
0000
0100
0000
0010
0000
0001
0000
0010
0000
0100
0000
0000
1100
,
0000
0000
1000
0000
0010
0000
0100
0000
0001
0000
0010
0100
0000
0000
0010
0001
,
0000
0000
0001
0100
0000
0000
0001
0010
0000
0000
0000
0011
0000
0000
0101
0000
,
0000
0110
0000
0000
2001
0000
0000
0000
3020
0000
0000
0000
0230
0000
0000
1000
,
0000
1000
0000
0000
0301
0000
0010
0000
0000
0100
0000
0000
0110
0000
0000
0000
,
2001
0000
0000
3100
0000
0010
0100
0010
0000
0001
0000
1000
0000
0010
0000
0200
,
0000
0000
0000
0000
,
0000
0000
0000
0310
,
1001
0000
0000
1000
0200
0000
0000
0310
,
0001
0000
0000
0100
0000
0000
0020
0000
0000
0000
0000
0000
2030
0000
0000
0000
,
3200
0320
0032
0203
,
0320
0000
0000
0000
0000
0000
0000
0000
0000
1000
0000
0000
1030
0000
0000
0000
,
1001
0000
0000
0001
0020
0000
0000
0130
,
1000
0000
0000
0010
0000
0000
0200
0000
0000
0000
0000
0000
0302
0000
0000
0000
,
1003
0000
0000
0100
0000
0000
0010
0000
0001
0000
0000
0100
0000
0000
0010
0000
,
1000
0000
0000
0100
0000
0000
0010
0000
0001
0000
0000
0100
0000
0000
0010
0000
,
1000
0000
0001
0000
0010
0000
0100
2000
3000
0000
0000
0000
0010
0000
0010
0000
,
0100
0001
1000
0100
1000
0001
0010
0010
,
0100
0000
0000
0001
0000
0000
0100
0000
1000
0000
0010
0000
0100
0000
0100
0000
,
0010
1000
0001
0010
0002
0000
0103
0100
,
0000
0000
1001
1000
0010
0000
1001
0001
,
0010
0000
1001
1000
0100
0000
1001
0001
,
0200
0300
0000
0000
0001
0000
0100
0000
0010
0000
1000
0000
0001
0000
0010
0000
,
0100
1000
0002
0000
0000
0000
0000
0000
,
0000
0000
0000
0000
1003
0000
0000
0100
0010
0000
0001
0000
1000
0000
0010
0000
,
0210
0000
0000
0000
1300
0000
0000
0100
0000
0001
0010
0000
1000
0000
0000
0010
,
0000
0000
0002
0000
0103
0000
1000
0000
0100
0000
0001
0000
0020
0000
0000
0130
,
0000
0000
0100
0000
0001
0000
0000
0100
0000
1000
0010
0000
0100
0000
0000
0001
,
0000
0001
0000
0020
0000
0000
0000
0000
0230
0000
0000
0000
1300
0000
0010
0000
,
0100
0010
0000
0000
0002
0000
0000
0000
0013
0000
0000
0000
1000
0000
0100
0000
,
0010
0100
0000
0000
0002
0000
0000
0000
0103
0000
0000
0120
0000
0000
0000
0000
,
0130
0000
0000
2100
0000
0000
3010
0000
0100
0000
0001
0000
0010
0000
0000
0100
,
0000
1000
0000
0020
0000
0000
0000
0000
0000
0000
0000
0000
0000
0000
0000
0000
,
0130
0000
0000
0000
0010
0000
1000
0000
0001
0000
0010
0000
2000
0000
0000
3010
,
0000
0000
0100
0000
1000
0000
0010
0000
0002
0000
0000
0013
0000
0100
0000
0010
,
0000
1000
0001
0000
0010
0000
0100
0000
1000
0000
0001
0000
1000
0000
0010
0000
,
0100
0000
0001
0000
0010
0000
0100
0000
0100
0000
0000
0120
0000
0000
0031
0000
,
0100
0000
0000
0120
0000
0000
1030
0000
0100
0000
0010
0000
1000
0000
0010
0000
,
0001
0000
0100
0000
1000
0000
0001
0000
0010
0000
1000
0000
0001
1000
0000
0100
,
0000
0010
0000
0210
0000
0000
0000
0000
1300
0000
1001
0000
0000
0000
0101
0000
,
0000
1001
0000
0000
1010
0000
0000
1001
0000
0000
0011
0000
0000
1001
0000
0000
,
1100
0000
0000
2002
0000
0000
0000
0000
0000
0000
0000
0000
0000
0000
0000
0000
,
0000
0000
0000
3003
,
0002
0000
0000
0000
1003
0000
0010
0000
0100
0000
0000
1000
0000
0000
0100
0000
,
0001
0000
1000
0000
0001
0000
0010
0100
0000
0000
0010
0000
0001
0000
0100
0000
,
0000
0010
0000
0000
2001
0000
0000
0000
3010
0000
0000
0001
0000
0000
0010
0000
,
0100
0000
0001
0000
1000
0000
0100
0000
0010
0000
0000
0100
1000
0000
0100
0010
,
0000
0001
1000
0000
1001
0000
0000
0000
0101
0000
0000
0110
0000
0000
1010
0000
,
0000
1100
0000
0000
1001
0000
0000
0000
0011
0000
0000
0110
0000
0000
1100
0000
,
0000
1010
0000
0000
1001
0000
0000
0000
1010
0000
0000
0110
0000
0000
0101
0000
,
0000
0011
0000
0000
2001
0000
0000
3100
0000
0000
1002
0000
0000
0103
0000
0000
,
2001
0000
0000
3010
0000
0000
0210
0000
0000
1000
0000
0000
0302
0000
0000
0000
,
0003
0000
0000
0000
;

//--------------- dance-single - chrononical ----------------
#NOTES:
     dance-single:
     chrononical:
     Hard:
     16:
     0,0,0,0,0:
0000
0000
0000
0000
,
0000
0000
0000
0000
,
0000
0000
0000
0000
,
0000
0000
0000
0000
,
0000
0000
0000
0000
,
2001
0000
3010
0000
0100
0010
0000
0001
0000
0010
0100
0000
0001
0000
1000
0000
,
1002
0000
0013
0000
0100
0010
0000
1000
0000
0010
0100
0000
1000
0000
0001
0000
,
1002
0000
0103
0000
0010
0100
0000
1000
0000
0100
0010
0000
1000
0000
0001
0000
,
2001
0000
3100
0000
0010
0100
0000
0001
0100
0000
1000
0001
0100
0010
1000
0000
,
1001
0000
0000
0000
1010
0000
0000
1100
0000
0000
0110
0000
0000
0011
0000
0000
,
1001
0000
1001
0000
0101
0000
0000
0011
0000
0000
0110
0000
0000
1100
0000
0000
,
1001
0000
0000
0000
1100
0000
0000
1010
0000
0000
0110
0000
0000
0101
0000
0000
,
1002
0000
0000
0013
0000
0000
2001
0000
0000
3010
0000
0000
1002
0000
0000
0103
,
0000
0000
2001
0000
0000
3100
0000
0000
0010
0000
0001
0000
1000
0010
0100
0001
,
1000
0100
0000
0010
0000
0100
1000
0000
0010
0002
0000
0000
0013
0000
0100
0001
,
0000
0001
0010
0100
0000
0100
1000
0001
0000
0100
0000
0000
0110
0000
0000
0000
,
2001
0000
0000
3010
0000
0001
0010
0100
0000
0010
0000
1000
0000
0100
0000
0010
,
0000
1000
0010
0100
0010
0001
1000
0001
0100
0010
0000
0000
0210
0000
0000
0000
,
0301
0010
0000
0100
0000
0010
0001
0000
0100
2000
0000
0000
3100
0000
0010
1000
,
0000
1000
0100
0010
0000
0010
0001
1000
0000
0010
0000
0000
0110
0000
0000
0000
,
1002
0000
0000
0103
0000
1000
0100
0010
0000
0100
0000
0101
0000
1001
0000
2200
,
0000
0000
0000
3300
,
1000
0000
0000
0000
0100
0000
0000
0000
0010
0000
0000
0000
0001
0000
0000
0000
0000
0000
0100
0000
0000
0001
0000
0000
1000
0000
0000
0010
0000
0000
0100
0000
0000
0000
0000
0000
0010
0000
0000
1000
0000
0000
0000
0000
0000
1000
0000
0000
,
0000
0100
0010
0002
0000
0103
0010
1000
0001
0010
0100
0010
0001
1000
0010
0001
,
0000
0010
0100
0001
1000
0100
0010
0001
1000
0001
0100
0020
0000
1030
0100
0010
,
0000
0000
0010
0001
0000
0000
0001
0100
1000
0000
0000
1100
0000
0000
0110
0000
,
0000
0101
0000
0000
2001
0000
0000
0000
3100
0002
0000
0000
0103
0000
0010
0001
,
0000
0001
0100
0010
0000
0010
1000
0001
0000
0010
0000
0000
0110
0000
0000
0000
,
2001
0000
0000
3100
0000
0001
0100
0010
0000
0100
0000
1100
0000
1001
0000
0202
,
0000
0000
0000
0000
,
0000
0000
0000
0303
,
1001
0000
0001
1000
0020
0000
0000
0130
,
0001
0000
0010
0100
0000
0100
2000
0000
0000
0000
0000
0000
3001
0000
0000
0000
,
0100
0000
0000
0000
0000
0000
0000
0000
0010
0000
0000
0000
0000
0000
0000
0000
1000
0000
0000
0000
0000
0000
0000
0000
0001
0000
0000
0000
0000
0000
0000
0000
0000
0010
0000
0000
0000
0000
0000
0000
0000
0000
0100
0000
0000
0000
0000
0000
0000
0000
0000
0000
0000
0000
1000
0000
0000
0000
0000
0000
0000
0000
0000
0000
0000
0000
0001
0000
0000
0000
0000
0000
0000
0000
0000
0000
0000
0000
0100
0000
0000
0000
0000
0000
0000
0000
0000
0000
0000
0000
0010
0000
0000
0000
0000
0000
,
1000
0001
0020
0000
0000
0000
0000
0000
0000
0000
0000
0000
0000
0000
0030
0000
,
1001
0000
1000
0001
0020
0000
0000
0130
,
1000
0000
0010
0100
0000
0100
0002
0000
0000
0000
0000
0000
1003
0000
0000
0000
,
1000
0000
0100
0010
0000
0010
0001
1000
0010
0000
0010
0100
0000
0100
0001
1000
,
0001
0000
0100
0010
0000
0010
1000
0001
0010
0000
0010
0100
0000
0100
1000
0001
,
1000
0010
0100
0001
1000
0010
0100
0002
0003
0000
0000
0000
0101
0000
0101
0000
,
0100
0001
1000
0100
1000
0001
0100
0001
1000
0100
1000
0000
1100
0000
1100
0000
,
0100
0010
0000
1000
0000
0010
0100
0000
0010
0001
0000
0000
0011
0000
0011
0000
,
0010
0001
1000
0010
1000
0001
0010
0001
2000
0000
3000
0000
1010
0000
1010
0000
,
0000
0000
1001
1000
1100
0100
0110
0010
,
0011
0001
1001
1000
1010
0010
0110
0100
,
2002
3003
0000
0000
0001
0010
0100
1000
0001
0010
0100
1000
0001
0100
0010
1000
,
0001
0100
0010
1000
0002
0000
0000
1000
0000
0000
1000
0000
1000
0000
0000
0000
,
1000
0000
1000
0000
1003
0000
0100
0010
0001
1000
0010
0000
0100
0010
1000
0001
,
0010
0001
1000
0100
0001
0000
0000
1100
0000
1000
0001
0100
1000
0000
0000
0101
,
0000
0000
0001
0010
1000
0000
1010
0000
0010
0001
1000
0010
0100
0000
0000
1001
,
0000
1000
0001
0100
1000
0000
0000
0101
0000
0001
0010
0000
0100
0001
0000
0101
,
0000
0110
0000
2100
0000
0000
0000
0000
3001
1000
0010
0100
0001
0000
0100
0000
,
0010
0001
0000
0000
0011
0000
0000
0000
0120
0000
0000
0000
1030
0000
0100
0000
,
0010
1000
0000
0000
1010
0000
0000
0000
0110
0000
0000
0011
0000
0000
0001
0000
,
0101
0000
0000
0120
0000
0000
0032
0000
0013
0100
0001
1000
0100
0000
0100
0010
,
0000
1000
0000
0010
0002
0000
0000
0000
0000
0000
0000
0000
0103
0010
1000
0001
,
0010
0100
1000
0001
1000
0010
0000
0010
1000
0000
0100
0000
0002
0000
0000
0103
,
0000
1000
0001
0000
1000
0000
0010
0000
0002
0000
0000
0013
0000
1000
0000
0001
,
0010
0100
0010
0001
1000
0000
0010
1000
0001
0000
0010
0001
1000
0000
0010
0000
,
0100
0000
0000
0000
0001
0000
1000
0000
0001
0000
0000
0010
0000
0000
0100
0000
1000
0000
0100
0000
0010
0000
0200
0000
0000
0000
0000
0000
0010
0000
0000
0000
,
1300
0000
0000
1020
0000
0000
0100
0000
1030
0001
0010
0001
1000
0001
0100
0001
,
1000
0100
0010
0100
1000
0010
0100
0010
1000
0100
0010
0001
0100
1000
0000
0100
,
0000
0010
0000
1001
0000
0000
0000
0000
0010
0000
1001
0000
0000
0000
0011
0000
,
0000
0110
0000
0000
1100
0000
0000
1010
0000
0000
0110
0000
0000
0101
0000
0000
,
0011
0000
0000
0220
0000
0000
0000
0000
0000
0000
0000
0000
0000
0000
0000
0000
,
0000
0000
0000
0330
,
0100
1000
0001
1000
0010
0000
0100
0000
0010
0100
0000
1000
0000
0100
0010
0000
,
1000
0000
0001
0000
1000
0100
0010
0100
0000
0010
0000
1000
0000
0010
0001
0000
,
0001
0100
0000
0000
2001
0000
3010
0000
0100
0010
0000
0001
0000
0010
0100
0000
,
0001
0000
1000
0000
1002
0000
0013
0000
0100
0010
0000
1000
0010
0000
0001
0100
,
0000
0100
0010
0000
1001
0000
0000
0000
0101
0000
0000
0011
0000
0000
0110
0000
,
0000
1100
0000
0000
1001
0000
1001
0000
1010
0000
0000
1100
0000
0000
0110
0000
,
0000
0011
0000
0000
1001
0000
0000
0000
0011
0000
0000
0101
0000
0000
0110
0000
,
0000
1010
0000
0000
2001
0000
0000
3010
0000
0000
1002
0000
0000
0013
0000
0000
,
2001
0000
0000
3100
0000
0000
0210
0000
0000
0301
0000
0000
0202
0000
0000
0000
,
0303
0000
0000
0000
;
