#TITLE:Critical Hit;
#SUBTITLE:;
#ARTIST:No More Kings;
#TITLETRANSLIT:;
#SUBTITLETRANSLIT:;
#ARTISTTRANSLIT:;
#GENRE:;
#CREDIT:;
#BANNER:STPlatinum.png;
#BACKGROUND:STPlatinum-bg.png;
#LYRICSPATH:;
#CDTITLE:;
#MUSIC:Critical Hit.ogg;
#OFFSET:-0.303000;
#SAMPLESTART:53.303581;
#SAMPLELENGTH:17.943924;
#SELECTABLE:YES;
#BPMS:0.000000=107.000000
;
#STOPS:
;
#BGCHANGES:;
#KEYSOUNDS:;
#ATTACKS:;

//---------------dance-single - ----------------
#NOTES:
     dance-single:
     :
     Challenge:
     16:
     0.693196,0.652323,0.283818,0.283818,1.121538,530.000000,499.000000,31.000000,31.000000,44.000000,0.000000,0.693196,0.652323,0.283818,0.283818,1.121538,530.000000,499.000000,31.000000,31.000000,44.000000,0.000000:
0000
0000
0000
0000
,
0000
0000
0000
0000
,
0000
0000
0000
0000
,
0000
0000
0000
0000
0000
0000
0000
0000
0000
0000
0000
0000
1001
0000
0000
1000
,
0100
00M0
0100
0000
0001
0100
0000
0020
0000
0000
0000
1030
0001
0100
0001
0020
,
0000
0000
0130
0000
1000
0001
0200
1000
0000
0310
1000
0001
0010
0000
0000
0001
,
0100
00M0
0100
0000
1000
0100
0000
0020
0000
0000
0000
0031
1000
0100
1000
0020
,
0000
0000
0130
0000
0001
1000
0200
0001
0000
0310
0001
1000
0100
0020
0000
0031
,
0100
00M0
0100
0000
1000
0001
0000
0020
0000
0000
0130
1000
0001
0100
0001
0020
,
0000
0130
1000
0000
0001
1000
0200
0001
0000
0310
0001
1000
0010
0000
0000
1000
,
0100
00M0
0100
0000
0001
1000
0000
0020
0000
0000
0130
0001
1000
0100
1000
0020
,
0000
0130
0001
0000
1000
0001
0200
1000
0000
0310
1000
0001
0100
0010
0100
0001
,
0100
00M0
0100
1000
0000
0001
0100
0001
0010
0M00
0010
1000
0000
0001
0010
0100
,
1000
0000
0100
0000
1000
0000
0001
0100
0001
1000
0100
0010
0000
0000
0000
0000
,
0001
0100
0010
1000
0000
0000
0000
0001
0000
0001
0100
00M0
0100
0000
1000
0100
,
0010
0000
0100
0000
0010
0000
0002
1000
0000
0103
0000
0010
1000
0001
0100
0001
,
0010
0M00
0010
1000
0000
0001
1000
0001
0100
00M0
0100
1000
0000
0001
1000
0000
,
0100
00M0
0100
0001
0000
1000
0100
1000
0010
0M00
0010
0001
0000
1000
0100
0010
,
0100
M000
0100
0000
0001
0000
0000
0000
0000
0000
0001
0000
0100
0000
0010
0000
0100
000M
0100
0000
1000
0000
0000
0000
0000
0000
0000
0000
0000
0000
0000
0000
,
0001
0010
0100
1000
0100
00M0
0100
0001
0000
1000
0010
0100
0001
1000
0001
1000
,
0100
0000
1100
0000
0101
0000
0001
1000
0010
0000
0011
0000
1000
0000
1020
0000
,
0000
0000
0130
0000
0001
0000
0000
0001
1000
0000
0100
0000
0010
0000
0001
0000
,
0000
0000
0101
0000
0000
1100
0000
0000
0101
0000
1000
0000
0100
0000
0010
0001
,
1000
0100
1000
0001
0100
0001
1000
0010
1000
0010
0100
0001
0100
0001
0010
0000
,
2010
0000
3100
0000
0101
0000
1000
0010
0100
M100
0100
0001
0000
0001
0010
0000
,
0100
1000
0100
1000
0010
0100
0010
1000
0000
0000
0100
1000
0100
1000
0010
0000
,
0012
0000
0103
0000
1100
0000
0001
0010
0100
010M
0100
1000
0000
0001
1000
0010
,
0100
M100
0100
0001
0000
0001
0010
0000
0100
1000
0001
0100
0001
1000
0010
0010
,
0002
0000
0103
0000
1100
0000
0001
0010
0100
010M
0100
1000
0000
1000
0010
0000
,
0110
0000
0000
0000
0000
0001
0010
0100
0010
0001
0100
0001
0100
0001
0010
0000
,
2010
0000
3100
0000
0101
0000
1000
0010
0100
M100
0100
0001
0000
0000
1000
0010
,
0100
000M
0200
0000
1000
0000
0000
0000
0310
0000
0000
0000
0100
M000
0100
0000
0001
0000
0000
0000
1000
0000
0100
0000
1000
0000
0100
0000
0001
0000
0000
0M00
,
0021
0000
0130
0000
1100
0000
0001
0010
0100
010M
0100
1000
0001
0100
0001
0020
,
0000
0000
0130
0000
1000
0000
0000
0000
0001
0000
0100
0000
00M0
0000
0100
0000
0000
0000
1000
0000
0001
0000
0100
0000
0001
0000
0100
0000
1000
0000
0000
0M00
,
1020
0000
0130
0000
0101
0000
1000
0010
0100
M100
0100
0001
0000
1000
0001
0010
,
0100
0000
010M
0000
0100
0000
1000
0000
0000
0000
0001
0000
0000
0000
0010
0000
0000
0000
0100
0000
1000
0000
0100
0000
0010
0000
0100
0000
0001
0000
0000
0M00
,
0021
0000
0130
0000
1100
0000
0001
0010
0100
010M
0100
1000
0000
0001
0100
0010
,
0000
0000
0100
0000
0000
0000
1000
0000
0100
0000
0001
0000
0100
0000
0010
0000
1000
0000
0000
0000
0001
0000
0100
0000
0001
0000
0100
0000
1000
0000
0000
0M00
,
1020
0000
0130
0000
0101
0000
1000
0010
0100
M100
0100
0001
1000
0100
0010
0001
,
0100
0000
0000
0000
0000
0000
0000
0000
00M0
0000
0000
0000
0200
0000
0000
0000
0000
0000
0000
0000
0000
0000
0000
0000
1000
0000
0000
0000
0000
0000
0000
0000
0000
0000
0000
0000
0000
0000
0000
0000
0000
0000
0000
0000
0000
0000
0000
0000
0310
0000
0000
0000
0000
0000
0000
0000
0000
0000
0000
0000
0000
0000
0000
0000
0000
0000
0000
0000
0000
0000
0000
0000
0100
0000
0000
0000
0000
0000
0000
0000
00M0
0000
0000
0000
0100
0000
0000
0000
0000
0000
0000
0000
0000
0000
0000
0000
0001
0000
0000
0000
0000
0000
0000
0000
0000
0000
0000
0000
0000
0000
0000
0000
0000
0000
0000
0000
0000
0000
0000
0000
1000
0000
0000
0000
0000
0000
0000
0000
0000
0000
0000
0000
0100
0000
0000
0000
0000
0000
0000
0000
0000
0000
0000
0000
1000
0000
0000
0000
0000
0000
0000
0000
0000
0000
0000
0000
0100
0000
0000
0000
0000
0000
0000
0000
0000
0000
0000
0000
0001
0000
0000
0000
0000
0000
0000
0000
0000
0000
0000
0000
0000
0000
0000
0000
0000
0000
0M00
0000
0000
0000
0000
0000
,
0021
0000
0130
0000
1100
0000
0001
0010
0100
010M
0100
1000
0000
1000
0010
0000
,
0100
0000
0001
0000
0100
0000
0001
0000
0010
0000
0100
0000
0010
0000
0001
0000
0000
0000
0000
0000
1000
0000
0100
0000
1000
0000
0100
0000
0001
0000
0000
0M00
,
0021
0000
0130
0000
1100
0000
0001
0010
0100
010M
0100
1000
0000
0001
1000
0010
,
0100
0000
M100
0000
0100
0000
0001
0000
0000
0000
0001
0000
0010
0000
0000
0000
0100
0000
1000
0000
0100
0000
1000
0000
0010
0000
0100
0000
1000
000M
1000
0000
,
0020
0000
0130
0000
0101
0000
1000
0010
0100
010M
0100
0001
0000
0001
0010
0000
,
0100
0000
1000
0000
0100
0000
1000
0000
0010
0000
0100
0000
0010
0000
1000
0000
0000
0000
0000
0000
0001
0000
0100
0000
0001
0000
0100
0000
1000
0000
0000
0M00
,
1020
0000
0130
0000
0101
0000
1000
0010
0100
M100
0100
0001
0000
0000
1000
0010
,
0100
000M
0200
0000
1000
0000
0000
0000
0310
0000
0000
0000
0100
00M0
0100
0000
0001
0000
0000
0000
0000
0000
0000
0000
0000
0000
0000
0000
0000
0000
0000
0000
;

//---------------dance-single - ----------------
#NOTES:
     dance-single:
     :
     Hard:
     14:
     0.610797,0.565347,0.283818,0.311284,0.746166,467.000000,436.000000,31.000000,34.000000,0.000000,0.000000,0.610797,0.565347,0.283818,0.311284,0.746166,467.000000,436.000000,31.000000,34.000000,0.000000,0.000000:
0000
0000
0000
0000
,
0000
0000
0000
0000
,
0000
0000
0000
0000
,
0000
0000
0000
0000
0000
0000
0000
0000
0000
0000
0000
0000
0110
0000
0000
0001
,
1000
0000
1000
0000
0100
1000
0000
0020
0000
0000
0000
0000
0130
0001
1000
0100
,
0000
1000
0010
0000
0100
0001
0100
1000
0000
0100
0010
0000
0100
0000
0001
1000
,
0001
0000
0001
0000
0100
0001
0000
0020
0000
0000
0000
0000
0130
1000
0001
0100
,
0000
0001
0010
0000
0100
1000
0100
0001
0000
0100
0010
0000
0100
2000
0000
0000
,
3002
0000
0000
0010
0000
0000
2003
0000
0000
0100
0000
0000
3020
0000
0000
0130
,
0000
0001
1000
0000
0100
1000
0100
0001
0000
0100
0010
0000
0100
0000
1000
0001
,
2000
0000
0000
0010
0000
0000
3002
0000
0000
0100
0000
0000
0023
0000
0000
0130
,
0000
1000
0001
0000
0100
0001
0100
1000
0000
0100
0010
0000
0100
0001
1000
0001
,
1000
0000
0100
1000
0000
0010
0100
0000
0001
0000
0010
0001
0000
0100
0010
0000
,
1000
0000
0100
0000
1000
0000
0001
0000
1000
0010
1000
0010
0000
0000
0000
0000
,
0100
0001
0100
0001
0000
0000
0000
1000
0000
0100
0010
0000
0001
0000
1000
0000
,
0010
0000
1000
0000
0010
0000
0100
0001
0000
1000
0000
0000
0000
0001
0010
0001
,
0010
0000
0100
1000
0000
0100
1000
0000
0001
0000
1000
0010
0000
1000
0010
0000
,
0100
0000
0001
1000
0000
0001
1000
0000
0100
0000
0010
0001
0000
0010
0001
0000
,
1000
0010
1000
0000
0100
0000
0010
0000
0001
0010
0001
0000
0100
0000
0010
0000
,
1000
0001
1000
0001
1000
0000
0100
0010
0000
0001
0000
0000
1000
0000
0010
0000
,
0100
0000
0101
0000
1100
0000
0000
1000
0100
0000
0101
0000
0001
0000
0011
0000
,
0000
0000
1010
0000
1000
0000
0000
0001
0010
0000
0100
0000
1000
0000
0010
0000
,
0000
0000
1010
0000
0000
0011
0000
0000
1010
0000
0001
0000
0010
0000
0100
0000
,
1000
0000
0001
0100
0000
0001
0010
0000
0001
1000
0010
0100
0010
0100
0001
0000
,
1002
0000
0103
0000
2001
0000
3100
0000
0010
0001
0010
0001
0000
1000
0010
0000
,
0100
0000
0001
0000
1000
0001
1000
0001
0000
0000
0010
0100
0010
0100
1000
0000
,
2001
0000
3100
0000
1002
0000
0103
0000
0010
1000
0010
1000
0000
0001
0010
0000
,
0100
1000
0100
1000
0000
0001
0100
0000
0010
0000
0010
0000
1000
0001
1000
0001
,
2000
0000
3100
0000
1002
0000
0103
0000
0010
1000
0010
1000
0000
0001
0010
0000
,
0200
0000
0000
0000
0000
1300
0001
1000
0001
1000
0010
0100
0010
0100
0001
0000
,
1002
0000
0103
0000
2001
0000
3100
0000
0010
0001
0010
0001
0000
0000
1000
0010
,
0100
0001
0100
0000
0010
0000
0100
0001
0100
0000
0010
1000
0010
1000
0001
0000
,
0012
0000
0103
0000
2010
0000
3100
0000
0010
0001
0010
0001
0000
0000
1000
0010
,
0000
1000
0100
0000
0010
0001
0000
0001
0000
0000
0010
0001
0010
0001
1000
0000
,
2010
0000
3100
0000
0012
0000
0103
0000
0010
1000
0010
1000
0000
0001
0010
0000
,
0100
1000
0100
1000
0000
0001
0000
0100
0000
0010
1000
0000
0001
0010
0001
0000
,
0012
0000
0103
0000
2010
0000
3100
0000
0010
0001
0010
0001
0000
1000
0010
0100
,
0000
0001
0000
0010
0000
0001
1000
0100
0000
0000
0010
0001
0010
0001
1000
0000
,
2010
0000
3100
0000
0012
0000
0103
0000
0010
1000
0010
1000
0000
0000
0001
0010
,
0100
1000
0100
0000
0010
0000
0100
1000
0100
0000
1000
0010
1000
0010
0100
0000
,
0210
0000
0301
0000
0120
0000
1030
0000
0001
0010
0001
0010
0000
0100
1000
0000
,
0010
0000
1000
0000
0100
0010
0100
0010
0000
0000
0001
0010
0001
0010
0100
0000
,
0210
0000
1300
0000
0120
0000
0031
0000
1000
0010
1000
0010
0000
0100
0001
0000
,
1000
0100
1000
0100
0000
0010
0001
0000
1000
0000
0001
0000
1000
0010
1000
0020
,
0100
0000
1030
0000
0210
0000
0301
0000
1000
0100
1000
0100
0000
0010
0001
0000
,
1000
0000
0010
0000
0100
0001
0100
0001
0000
0000
1000
0100
1000
0100
0010
0000
,
0120
0000
0031
0000
0210
0000
1300
0000
0001
0100
0001
0100
0000
0000
0010
1000
,
0001
0010
0001
0000
0100
0000
0001
0010
0001
0000
0000
0000
0000
0000
0000
0000
;

//---------------dance-single - ----------------
#NOTES:
     dance-single:
     :
     Medium:
     11:
     0.451231,0.456626,0.283818,0.585946,0.306706,345.000000,314.000000,31.000000,64.000000,0.000000,0.000000,0.451231,0.456626,0.283818,0.585946,0.306706,345.000000,314.000000,31.000000,64.000000,0.000000,0.000000:
// measure 0
0000
0000
0000
0000
,  // measure 1
0000
0000
0000
0000
,  // measure 2
0000
0000
0000
0000
,  // measure 3
0000
0000
0000
0000
,  // measure 4
1000
0000
0001
0000
1000
0010
0000
0200
0000
0000
0000
0000
0301
0000
1000
0000
,  // measure 5
0010
0000
1000
0000
0100
0000
0010
0001
0000
0000
1000
0000
0010
0000
0100
0000
,  // measure 6
0001
0000
1000
0000
0001
0010
0000
0200
0000
0000
0000
0000
1300
0000
0001
0000
,  // measure 7
0010
0000
0001
0000
0100
0000
0010
1000
0000
0000
0001
0000
0010
0000
0100
0000
,  // measure 8
2000
0000
0000
3002
0000
0000
0203
0000
0000
0302
0000
0000
2003
0000
0000
3200
,  // measure 9
0000
0000
0310
0000
0001
0000
1000
0010
0000
0000
1000
0000
0100
0000
0010
0000
,  // measure 10
0002
0000
0000
2003
0000
0000
3200
0000
0000
2300
0000
0000
3002
0000
0000
0203
,  // measure 11
0000
0000
0310
0000
1000
0000
0001
0010
0000
0000
0001
0000
0100
0000
0010
0000
,  // measure 12
1000
0000
0000
0100
0000
0000
1000
0000
0010
0000
0000
0100
0000
0000
0010
0000
,  // measure 13
1000
0000
0001
0000
0010
0000
0100
0000
1000
0000
0001
0100
0000
0000
0000
0000
,  // measure 14
0001
0000
1000
0100
0000
0000
0000
0010
0000
0001
1000
0000
0010
0000
0100
0000
,  // measure 15
0001
0000
0010
0000
0001
0000
1000
0010
0000
0100
0000
0000
0000
0001
1000
0000
,  // measure 16
0010
0000
1000
0100
0000
1000
0001
0000
0010
0000
0001
0100
0000
0001
1000
0000
,  // measure 17
0100
0000
0010
0001
0000
0010
0001
0000
0100
0000
0010
1000
0000
0010
1000
0000
,  // measure 18
0001
0001
0010
0100
1000
1000
0000
0000
,  // measure 19
0001
0000
0100
0000
0001
0000
1000
0100
0000
0010
0000
0000
0000
0000
0000
0000
,  // measure 20
0001
0100
0101
0000
1000
1100
0001
0020
,  // measure 21
0000
0000
0130
0000
1000
0000
0000
0001
0100
0000
0010
0000
1000
0000
1010
0000
,  // measure 22
0000
0000
0011
0000
0000
1001
0000
0000
1010
0000
0001
0000
1000
0000
0200
0000
,  // measure 23
0010
0000
0000
0010
0000
0000
0310
0000
0000
0000
0001
0000
0100
0000
1000
0000
,  // measure 24
2200
0000
3300
0000
0202
0000
0303
0000
1000
0000
0100
0010
0000
0100
0010
0000
,  // measure 25
0001
0000
0001
0000
1000
0000
1000
0010
0000
0000
1000
0000
0100
0000
0001
0000
,  // measure 26
0202
0000
0303
0000
2200
0000
3300
0000
0001
0000
0100
0010
0000
0100
0010
0000
,  // measure 27
1000
0000
0100
0010
0000
0100
0010
0000
0001
0000
0001
0000
0100
0000
1000
0000
,  // measure 28
2200
0000
3300
0000
0202
0000
0303
0000
1000
0000
0100
0010
0000
0100
0010
0000
,  // measure 29
0001
0000
0000
0000
0000
1000
0001
0000
0001
0000
1000
0000
0100
0000
0001
0000
,  // measure 30
0202
0000
0303
0000
2200
0000
3300
0000
0001
0000
0100
0010
0000
0100
0010
0000
,  // measure 31
1000
1000
0010
0100
0100
0001
0010
1000
,  // measure 32
2020
0000
3030
0000
0022
0000
0033
0000
1000
0000
0010
0100
0000
0000
0000
0000
,  // measure 33
0001
0000
1000
0000
0001
0010
0000
0001
0000
0000
1000
0000
0010
0000
0001
0000
,  // measure 34
0022
0000
0033
0000
2020
0000
3030
0000
0001
0000
0010
0100
0000
0010
0100
0000
,  // measure 35
1000
0000
0010
0100
0000
0000
0000
0000
0001
0000
1000
0000
0010
0000
0001
0000
,  // measure 36
0022
0000
0033
0000
2020
0000
3030
0000
0001
0000
0010
0100
0000
0000
0000
0000
,  // measure 37
1000
0010
0001
0010
1000
0001
0010
1000
,  // measure 38
2020
0000
3030
0000
0022
0000
0033
0000
1000
0000
0010
0100
0000
0000
0001
0000
,  // measure 39
0010
0010
0100
1000
1000
0100
0001
1000
,  // measure 40
2020
0000
3030
0000
0022
0000
0033
0000
1000
0000
0010
0100
0000
0010
0100
0000
,  // measure 41
0001
0000
0001
0000
1000
0000
1000
0010
0000
0000
0100
0000
1000
0000
0001
0000
,  // measure 42
0022
0000
0033
0000
2020
0000
3030
0000
0001
0000
0010
0100
0000
0010
0100
0000
,  // measure 43
1000
0000
0010
0100
0000
0010
0100
0000
0001
0000
0010
0000
1000
0000
0001
0000
,  // measure 44
0202
0000
0303
0000
2200
0000
3300
0000
0001
0000
0100
0010
0000
0100
0010
0000
,  // measure 45
1000
0000
1000
0000
0001
0000
0001
0100
0000
0000
0010
0000
0001
0000
1000
0000
,  // measure 46
2200
0000
3300
0000
0202
0000
0303
0000
1000
0000
0100
0010
0000
0000
0001
0000
,  // measure 47
1000
1000
0100
0010
0110
0000
0000
0000
;
