#TITLE:Crazy Sprinkle Friends;
#SUBTITLE:;
#ARTIST:yuigot feat. YUC'e;
#TITLETRANSLIT:;
#SUBTITLETRANSLIT:;
#ARTISTTRANSLIT:;
#GENRE:KAWAII POP;
#CREDIT:;
#MUSIC:Crazy Sprinkle Friends.ogg;
#BANNER:Crazy Sprinkle Friends.png;
#BACKGROUND:Crazy Sprinkle Friends-bg.png;
#CDTITLE:cdtitle.png;
#SAMPLESTART:87.301;
#SAMPLELENGTH:14.545;
#SELECTABLE:YES;
#OFFSET:-0.028;
#BPMS:0.000=132.000;
#STOPS:;
#ORIGIN:;
#PREVIEWVID:;
#JACKET:Crazy Sprinkle Friends-jacket.png;
#CDIMAGE:;
#DISCIMAGE:;
#BGCHANGES:;
#FGCHANGES:;

//--------------- dance-single - MEGAtive ----------------
#NOTES:
     dance-single:
     MEGAtive:
     Beginner:
     3:
     0,0,0,0,0:
0000
0000
0000
0000
,
0000
0000
0000
0000
,
0000
0000
0000
0000
,
0000
0000
0000
0000
,
0000
0000
0000
0000
,
0000
0000
0000
0000
,
1000
0000
0000
0000
,
0001
0000
0000
0000
,
0100
0000
0000
0000
,
0010
0000
0000
0000
,
2000
0000
3000
0000
,
0002
0000
0003
0000
,
0020
0000
0030
0000
,
0200
0000
0300
0000
,
1000
0000
1000
0000
,
0010
0000
0010
0000
,
0100
0000
0100
0000
,
0001
0000
0001
0000
,
1000
0000
1000
0000
,
0100
0000
0100
0000
,
0010
0000
0010
0000
,
0001
0000
0001
0000
,
0200
0000
0310
0000
,
2000
0000
3100
0000
,
0020
0000
0031
0000
,
0200
0000
0310
0000
,
2000
0000
3001
0000
,
0020
0000
0130
0000
,
2000
0000
3001
0000
,
0200
0000
0300
0000
,
0002
0000
1003
0000
,
0200
0000
0310
0000
,
0200
0000
1300
0000
,
0002
0000
0103
0000
,
0020
0000
0130
0000
,
0002
0000
1003
0000
,
0200
0000
0310
0000
,
0002
0000
0003
0000
,
1001
0000
0110
0000
,
1001
0000
0000
0000
,
1001
0000
0110
0000
,
1001
0000
0000
0000
,
1000
0000
0100
0000
,
0010
0000
0001
0000
,
2002
0000
3003
0000
,
0220
0000
0330
0000
,
2000
0000
0000
0000
,
0000
0000
0000
3000
,
0001
0001
0001
0000
,
1000
0000
1000
0000
,
0200
0000
0300
0000
,
2000
0000
3000
0000
,
0010
0010
0010
0000
,
0100
0000
0100
0000
,
0002
0000
0003
0000
,
0020
0000
0030
0000
,
0100
0100
0100
0000
,
0010
0000
0010
0000
,
0002
0000
0003
0000
,
2000
0000
3000
0000
,
0010
0010
0010
0000
,
2002
0000
3003
0000
,
1000
1000
1000
0000
,
0100
0000
0010
0000
,
0000
2002
0000
0000
0000
0000
0000
0000
0000
0000
0000
0000
0000
3003
0000
0000
,
0000
0000
0000
0220
0000
0000
0330
0000
,
1000
0000
1000
0000
,
0010
0000
0010
0000
,
2001
0000
3000
0000
,
0200
0000
0300
0000
,
0020
0000
0030
0000
,
0002
0000
0003
0000
,
0100
0100
0100
0000
,
0010
0010
0010
0000
,
1000
1000
1000
0000
,
0002
0000
0013
0000
,
1001
0000
0000
0000
;

//--------------- dance-single - MEGAtive ----------------
#NOTES:
     dance-single:
     MEGAtive:
     Easy:
     7:
     0,0,0,0,0:
0000
0000
0000
0000
,
0000
0000
0000
0000
,
0000
0000
0000
0000
,
0000
0000
0000
0000
,
1000
0000
0000
0000
,
0001
0000
0000
0000
,
1000
0100
0020
0000
,
0130
1000
0002
0000
,
0103
0010
2000
0000
,
3010
0100
0002
0000
,
2003
3000
0000
0000
2000
3000
0000
0000
,
0002
0003
0000
0000
0002
0003
0000
0000
,
0020
0030
0000
0000
0020
0030
0000
0000
,
0200
0300
0000
0000
0200
0300
0000
0000
,
1000
0010
1000
0001
,
0010
0100
1000
0000
,
1000
0100
1000
0001
,
0100
0010
1000
0000
,
0001
0100
0001
1000
,
0100
0010
0001
0000
,
0001
0010
0001
1000
,
0010
0100
0001
0000
,
2000
3000
0000
0000
2000
3000
0000
0000
,
0200
0300
0000
0000
0200
0300
0000
0000
,
0020
0030
0000
0000
0020
0030
0000
0000
,
0002
0003
0000
0000
0002
0003
0000
0000
,
0100
0000
0010
0000
0200
0300
0000
0000
,
0001
0000
1000
0000
0002
0003
0000
0000
,
0010
0000
0100
0000
0020
0030
0000
0000
,
0002
0003
0000
0000
2002
3003
0000
0000
,
1000
0010
1000
0010
,
0200
0300
0000
0000
0002
0003
0000
0000
,
1000
0100
1000
0100
,
0020
0030
0000
0000
0200
0300
0000
0000
,
1000
0001
1000
0001
,
0200
0300
0000
0000
0020
0030
0000
0000
,
1000
0001
1000
0001
,
0020
0030
0000
0000
0200
0300
0000
0000
,
1001
0000
0000
0000
0022
0000
0000
0033
,
2200
0000
0000
3300
0000
0000
0000
0000
,
1001
0000
0000
0000
0202
0000
0000
0303
,
2020
0000
0000
3030
0000
0000
0000
0000
,
0010
0000
2000
0000
0000
0000
3100
0000
0020
0000
0000
0000
,
0130
0100
1001
0000
,
0001
0001
0012
0000
,
1003
1000
2010
0000
,
3002
0000
0000
0000
,
0000
0000
0000
0003
,
0001
0010
0100
0010
,
0001
1000
0200
0000
,
0310
0001
0100
0010
,
0100
0001
2000
0000
,
3001
0100
0010
0100
,
0001
0010
0200
0000
,
1300
0001
0010
0100
,
1000
0010
0200
0000
,
0310
1000
0001
0100
,
0010
1000
0200
0000
,
0310
0001
1000
0100
,
0010
0001
0200
0000
,
0310
0100
0001
1000
,
0100
0000
0000
0022
0000
0033
0000
0000
,
1000
0100
0010
0001
,
0100
0010
1000
0000
,
0000
1010
0000
0000
0000
0000
0000
1001
0000
0000
0000
0000
0000
0011
0000
0000
,
0000
0000
0000
2002
0000
0000
3003
0000
,
0001
0010
0200
0000
,
0310
0001
0100
0010
,
1000
1000
0100
0010
,
0001
0001
0100
0000
,
0010
0010
1000
0001
,
0010
0010
0100
0000
,
1000
1000
0001
0100
,
0010
0010
0100
0000
,
0001
0001
1000
0100
,
0010
0010
0100
0000
,
1001
0000
0000
0000
;

//--------------- dance-single - MEGAtive ----------------
#NOTES:
     dance-single:
     MEGAtive:
     Medium:
     12:
     0,0,0,0,0:
0000
0000
0000
0000
,
0000
0000
0000
0000
,
0000
0000
0000
0000
,
0000
0000
0000
0000
,
0001
0000
0000
0001
0000
0000
0001
0000
0000
1000
0000
0000
1000
0000
0100
0000
,
0010
0000
0000
0010
0000
0000
0010
0000
0100
0000
0000
0100
0000
0000
0100
0000
,
1000
0000
0001
0000
0100
0000
0000
0000
0010
0000
0000
0010
0000
0000
1000
0000
,
0001
0000
0010
0000
0100
0000
0000
0000
1000
0000
0000
1000
0000
0000
0001
0000
,
0001
0000
1000
0000
0010
0000
0000
0000
0100
0000
0000
0100
0000
0000
0001
0000
,
1000
0000
0100
0000
0010
0000
0000
0000
0001
0000
0000
0001
0000
0000
1000
0000
,
0010
0200
0300
0001
1000
0200
0300
0010
,
0001
2000
3000
0010
0100
0002
0003
1000
,
0100
0020
0030
0100
1000
0002
0003
0100
,
0010
2000
3000
0001
0010
0200
0300
0000
,
1000
0000
0001
0000
0010
0000
0000
0000
0100
0000
0000
2100
0000
0000
3001
0000
,
0001
0000
0100
0000
0010
0000
0000
0000
1000
0000
0000
2010
0000
0000
3001
0000
,
1000
0000
0010
0000
0100
0000
0000
0000
0001
0000
0000
0102
0000
0000
1003
0000
,
1000
0000
0100
0000
0010
0000
0001
0000
1000
0000
0000
1001
0000
0000
0001
0000
,
0001
0000
1000
0000
0010
0000
0000
0000
0100
0000
0000
0102
0000
0000
1003
0000
,
1000
0000
0100
0000
0010
0000
0000
0000
0001
0000
0000
0012
0000
0000
1003
0000
,
0001
0000
0010
0000
0100
0000
0000
0000
1000
0000
0000
2100
0000
0000
3001
0000
,
0001
0000
0100
0000
0010
0000
1000
0000
0001
0000
0000
1001
0000
0000
1000
0000
,
0001
0010
0001
0000
1000
0010
1000
0000
,
0001
0010
0100
1000
0001
0100
0010
0000
,
1000
0010
1000
0000
0001
0010
0001
0000
,
1000
0010
0100
0001
0010
0100
1000
0000
,
0100
0010
0001
0000
1000
0100
0010
0000
,
0001
0100
0010
0100
0001
1000
0100
0000
,
0010
0001
0100
0000
0010
1000
0001
0000
,
0011
1100
0011
0000
,
0001
0000
0010
0000
0001
0000
0010
0000
0100
0000
0000
0010
0000
0000
0100
0000
,
1000
0000
0010
0000
1000
0000
0010
0000
0100
0000
0000
0010
0000
0000
1000
0000
,
0001
0000
0100
0000
0001
0000
0100
0000
0010
0000
0000
0100
0000
0000
0010
0000
,
1000
0000
0100
0000
1000
0000
0100
0000
0010
0000
0000
0100
0000
0000
1000
0000
,
0001
0000
0010
0000
0001
0000
0010
0000
1000
0000
0000
0010
0000
0000
0001
0000
,
0001
0000
0100
0000
0001
0000
0100
0000
1000
0000
0000
0100
0000
0000
0010
0000
,
1000
0000
0100
0000
1000
0000
0100
0000
0001
0000
0000
0100
0000
0000
1000
0000
,
1010
0101
1010
0000
,
2001
0000
0000
0000
3010
0000
0000
0000
0100
0000
0000
0101
0000
0000
0001
0000
,
1000
0000
0000
1100
0000
0000
2002
0000
0000
0000
0000
0000
3003
0000
0000
0000
,
1002
0000
0000
0000
0013
0000
0000
0000
0100
0000
0000
1100
0000
0000
1000
0001
,
1000
0000
0000
1001
0000
0000
0001
0000
0200
0000
0000
0000
0320
0000
0000
0000
,
1030
0001
0010
0001
0000
0000
1000
0010
0100
0010
0000
0000
,
0100
0001
1000
0100
0000
0000
2002
0000
0000
3003
0000
0000
,
0001
0000
0000
0000
0011
0000
0000
0000
1001
0000
0000
1000
0000
0000
0010
0000
,
0110
0000
0000
0000
1010
0000
0000
0000
1001
0000
0000
0001
0000
0000
0010
0000
,
0200
0000
0000
0000
,
0000
0000
0000
1300
,
1000
0010
1000
0000
0001
0010
0100
1000
,
0002
0203
2300
0000
,
3100
0000
0010
1000
0100
0000
0010
0001
,
0100
0000
0000
0000
0020
0000
0000
0000
1030
0000
0000
1000
0001
0000
0000
0000
,
0001
0010
0001
0000
1000
0010
0100
0001
,
2000
3200
0302
0000
,
0103
0000
0010
0001
0100
0000
0001
0010
,
0100
0000
0000
1000
0200
0000
0000
0000
0310
0000
0000
0002
0000
0000
0000
0000
,
1003
0100
1000
0000
0001
0010
0100
1000
,
0002
0203
2300
0000
,
3100
0010
0100
0000
0001
1000
0001
0000
,
0010
0000
0000
0010
0002
0000
0000
0000
1003
0000
0000
1000
0020
0000
0000
0000
,
0130
0000
0001
1000
0100
0010
0001
0100
,
0020
0000
0000
0032
0000
0000
0023
0000
0000
0000
1000
0000
1030
0000
0000
0000
,
0010
1000
0001
1000
0100
0010
0001
0100
,
0010
0000
0000
0010
2000
0000
0000
0000
3100
0000
0000
0100
1000
0000
0001
0000
,
0000
0201
0000
0000
0310
1000
0001
0020
0000
0000
0130
1000
0001
0200
0000
0000
,
0310
0010
0010
2002
0000
0000
3003
0000
,
1000
0000
0010
0000
0100
0000
0001
0000
0010
0000
0000
0110
0000
0000
1000
0000
,
1001
0000
0000
0000
0001
0000
0100
0000
0010
0000
0000
0110
0000
0000
0000
0000
,
1000
0000
0001
0000
0100
0000
0001
0000
1000
0000
0000
1100
0000
0000
0001
0000
,
0001
0000
0010
0000
0001
0000
0000
0000
1000
0000
0000
1010
0000
0000
0001
0000
,
0001
0000
0100
0000
0010
0000
0100
0000
0001
0000
0000
0011
0000
0000
1000
0000
,
1000
0000
0100
0000
0010
0000
0001
0000
0100
0000
0000
0110
0000
0000
0010
0000
,
1001
0000
0000
0001
0010
0000
0000
0100
1000
0000
0000
1100
0000
0000
0100
0000
,
1000
0000
0001
0000
0100
0000
0000
0000
0010
0000
0000
0110
0000
0000
1000
0000
,
1000
0000
0000
1000
0010
0000
0000
0100
0001
0000
0000
0101
0000
0000
0100
0000
,
0001
1000
0100
0010
0001
0100
0010
0100
,
1001
0000
0000
0000
;

//--------------- dance-single - MEGAtive ----------------
#NOTES:
     dance-single:
     MEGAtive:
     Hard:
     15:
     0,0,0,0,0:
0000
0000
0000
0000
,
0000
0000
0000
0000
,
0000
0000
0000
0000
,
0000
0000
0000
0000
,
0001
0000
0000
0001
0000
0000
0001
0000
0000
0100
0000
0000
0100
0000
0010
0000
,
1000
0000
0000
1000
0000
0000
1000
0000
0100
0000
0000
0100
0000
0010
0100
0000
,
1000
0000
0001
0000
0000
0100
0000
0100
0001
0000
0000
0101
0000
0000
0100
0000
,
0001
0000
1000
0000
0000
0100
0000
0100
1000
0000
0000
1100
0000
0000
0100
0000
,
1000
0000
0001
0000
0000
0010
0000
0010
0001
0000
0000
0011
0000
0000
0010
0000
,
0001
0000
1000
0000
0000
0010
0000
0010
1000
0000
0000
1010
0000
0000
0010
0000
,
1000
1000
0001
0010
0100
0100
0010
0001
,
0100
0100
0010
1000
0001
0001
0010
0100
,
1000
1000
0001
0100
0010
0010
1000
0100
,
0010
0010
0100
1000
0001
0001
0100
0000
,
1001
0000
0001
0010
0001
0000
1000
0010
1000
0000
0000
0110
0000
0000
1010
0000
,
1001
0000
0001
0000
0010
0000
0100
0010
0100
0000
1000
0001
1000
0000
0010
0000
,
1001
0000
1000
0010
1000
0000
0001
0010
0001
0000
0000
0110
0000
0000
0011
0000
,
1001
0000
1000
0000
0010
0001
0010
0100
0001
0000
1000
0100
1000
0000
0100
0000
,
1001
0000
0001
0100
0001
0000
1000
0100
1000
0000
0000
0110
0000
0000
0011
0000
,
1001
0000
1000
0000
0010
0000
0100
0001
0010
0000
0100
1000
0100
0000
0010
0000
,
1001
0000
1000
0100
1000
0000
0001
0100
0001
0000
0000
0110
0000
0000
1010
0000
,
1001
0000
0001
0000
0010
1000
0010
0100
1000
0000
0001
0100
0001
0000
0001
0000
,
1000
0000
0010
0000
0100
0000
0001
0000
0010
0000
0000
0100
0010
0000
0100
0000
,
1000
0000
0000
0010
0100
0000
0010
0000
1000
0001
1000
0001
0010
0000
0100
0000
,
0100
0000
0010
0000
0001
0000
1000
0000
0010
0000
0000
0100
0010
0000
0100
0000
,
0001
0000
0000
0010
0100
0000
0010
0000
0001
0000
1000
0100
0010
0000
0001
0000
,
0001
0000
0010
0000
0100
0000
1000
0000
0010
0000
0000
0100
0010
0000
0100
0000
,
0001
0000
0000
0010
0100
0000
0010
0000
0001
1000
0001
1000
0010
0000
0100
0000
,
0100
0000
0010
0000
1000
0000
0001
0000
0010
0000
0000
0100
0010
0000
0001
0000
,
0201
0000
1300
0100
0101
0000
MMMM
0000
,
0001
0000
1000
0000
0100
0000
0010
0000
0001
0000
0200
1000
0000
0000
0010
0000
,
0301
0000
1000
0100
1000
0000
0010
0000
0100
0001
1000
0001
0010
0000
0100
0000
,
0100
0000
1000
0000
0010
0000
0100
0000
0001
0000
0020
1000
0000
0000
0100
0000
,
0031
0000
1000
0010
0100
0000
0010
0000
1000
0000
1000
0100
1000
0000
0001
0000
,
0001
0000
0100
0000
0010
0000
1000
0000
0001
0000
0020
1000
0000
0000
0100
0000
,
0031
0000
1000
0010
1000
0000
0001
0000
0100
0010
1000
0001
0010
0000
0100
0000
,
0100
0000
1000
0000
0100
0000
0010
0000
0001
0000
0200
1000
0000
0000
0310
0000
,
2010
0000
3001
0010
1010
0000
MMMM
0000
,
2001
0000
0000
3100
0010
0000
0001
0000
0101
0000
0000
0110
0000
0000
1010
0000
,
1100
0000
0000
0110
0000
0000
0012
0000
0000
0000
1003
0010
0200
0000
0300
0000
,
1002
0000
0000
0103
0010
0000
1000
0000
1100
0000
0000
0110
0000
0000
0010
0001
,
0100
0000
0000
0110
0000
0000
1010
0000
2001
0000
0000
3001
0010
0000
0100
0000
,
1100
1000
0001
0100
0010
1000
1010
0010
0100
0001
0010
0100
,
1000
1000
1000
0010
0010
0010
2002
0000
0000
3003
0000
0000
,
1001
0000
0001
0000
0100
0000
1000
0000
1100
0000
0000
0110
0000
0000
0101
0000
,
0001
0000
1000
0000
0100
0000
0001
0000
0101
0000
0000
0110
0000
0000
1100
0000
,
0002
0000
0000
0000
,
0000
0000
0003
1001
,
2001
0000
3010
0100
0010
0000
1000
0000
0010
0100
0010
1000
0001
1000
0100
0010
,
0002
0000
0000
0103
0020
0000
0001
0000
0230
0000
0000
0010
0000
0310
1000
0000
,
0001
0000
1000
0100
1000
0000
0001
0000
0100
0010
1000
0000
0001
0010
0100
0000
,
1100
0000
1000
0000
0001
0010
0001
1000
0020
0000
0000
0130
0001
0000
1000
0000
,
2001
0000
3100
0010
0100
0000
1000
0000
0100
0010
0100
1000
0001
0100
0010
1000
,
0002
0000
0000
1003
0200
0000
0001
0000
0320
0000
0000
0001
0000
0031
1000
0000
,
0010
0000
0100
0001
0100
0000
0010
0000
1000
0100
0010
0000
0001
0100
0010
0000
,
0200
0000
0000
1300
0100
0000
0010
0000
2000
0000
0000
0100
0000
0000
3100
0000
,
2100
0000
3001
0010
0001
0000
1000
0000
0001
0010
0001
1000
0010
0100
0010
0100
,
0002
0000
0000
0013
0200
0000
0001
0000
2300
0000
0000
0010
0000
3010
0100
0000
,
0001
0000
0010
0100
0010
0000
0001
0000
0100
0010
1000
0000
0001
0010
0100
0000
,
2100
0000
0000
3100
1000
0001
0100
0010
0200
0000
0000
1300
0100
0000
0010
0000
,
0120
0000
1030
0001
1000
0000
0100
0000
0010
0001
0100
0000
0010
1000
0100
0000
,
1100
0000
0000
0110
0000
0000
0201
0000
0000
0000
0301
0000
0100
0000
1000
0000
,
2001
0000
3010
0000
0100
0000
0010
0000
0100
0000
1000
0100
0000
0100
0001
0000
,
0020
0000
0000
0130
1000
0000
0001
0000
0010
0001
1000
0010
0000
0000
1010
0000
,
0000
1002
0000
0000
0013
1000
0010
0002
0000
0000
0103
1000
0100
0002
0000
0000
,
0013
0010
0010
2002
0000
0000
3003
0000
,
1002
0000
0013
0000
0100
0000
0010
0000
0100
0000
0001
0100
0000
0100
1000
0000
,
0020
0000
0000
0130
0001
0000
1000
0000
0010
1000
0002
0010
0000
0000
0013
0000
,
1001
0000
1000
0100
1000
0000
0001
0010
0001
0000
1000
0010
0100
0000
0110
0000
,
1001
0000
0001
0100
0010
0000
1000
0100
0010
0000
0100
1000
0100
0000
1100
0000
,
1001
0000
0001
0100
0001
0000
1000
0010
1000
0000
0001
0010
0100
0000
0110
0000
,
1001
0000
1000
0001
0100
1000
0100
0010
1000
0000
0001
0010
0100
0000
0110
0000
,
1002
0000
0013
0100
1000
0000
0001
0010
0100
0000
0001
0100
0010
0100
1000
0001
,
0100
0000
0010
0000
1001
0000
1000
0100
0010
0000
0001
0010
0100
0000
1100
0000
,
1002
0000
0103
0010
1000
0000
0001
0100
0010
0000
0001
0010
0100
0010
1000
0001
,
0010
0000
0100
0000
0001
0100
1000
0001
0100
0000
0010
0100
0010
0000
0110
0000
,
1001
0000
0000
0000
;

//--------------- dance-single - Prototype of ESP ----------------
#NOTES:
     dance-single:
     Prototype of ESP:
     Edit:
     16:
     0,0,0,0,0,0,0,0,0,8,0,0,0,0,0,0,0,0,0,0,0,0,0,8,0,0,0,0:
0000
0000
0000
0000
,
0000
0000
0000
0000
,
0000
0000
0000
0000
,
0000
0000
0000
0000
,
1000
0000
0000
1000
0000
0000
1000
0000
0000
0010
0000
0000
0010
0000
0100
0000
,
0001
0000
0000
0001
0000
0000
0001
0000
0010
0000
0000
0010
0000
0010
0100
0000
,
1000
0000
0010
0000
0100
0001
0100
0001
1000
0000
0000
1010
0000
0010
1000
0001
,
0010
0000
0100
0000
0010
0001
0010
0001
1000
0000
0000
1100
0000
0100
1000
0001
,
0100
0000
0010
0000
1000
0010
0100
0010
0100
0000
0000
0101
0000
0001
0010
0100
,
1000
0000
0100
0000
0010
0100
1000
0100
1000
0000
0001
0100
0010
0100
0010
1000
,
0001
0000
0001
0000
1000
0010
1000
0010
0100
0000
0100
0000
0001
0010
0001
0010
,
0100
0000
0100
0000
0010
0001
0010
0001
1000
0000
1000
0000
0010
0100
0010
0100
,
0001
0000
0001
0000
1000
0100
1000
0100
0010
0000
0010
0000
0100
1000
0100
1000
,
0001
0000
0001
0000
0100
0010
0100
0010
1000
0000
1000
0000
0100
0000
0000
0000
,
1100
0000
1000
0010
0100
0000
0001
0010
0100
0000
0010
0001
0100
0010
0100
0010
,
1000
0000
0001
0000
0011
0000
0010
0001
0100
0000
0010
1000
0100
0000
1000
0000
,
0101
0000
0001
0010
0100
0000
1000
0010
0100
0000
0010
1000
0100
0010
0100
0010
,
0001
0000
0000
0000
0000
0000
0100
0000
0000
0010
0000
0000
0100
0000
0001
0000
1000
0000
0001
0000
0010
0000
0100
0000
1000
0000
0000
0000
0000
0000
0010
0000
0000
0100
0000
0000
0001
0000
0000
0000
0000
0000
0010
0000
0000
0000
0000
0000
,
0102
0000
1003
0100
001M
0000
1000
0100
0010
0000
0001
0010
0100
1000
0010
0100
,
0001
0000
1000
0000
1010
0000
0010
1000
0100
0000
0010
0001
0100
0000
0010
0000
,
0102
0000
1003
0010
010M
0000
1000
0010
0100
0000
0001
0100
0010
1000
0100
0010
,
0001
0000
0000
0000
0000
0000
1000
0000
0000
0100
0000
0000
0010
0000
0001
0000
1000
0000
0001
0000
0100
0000
0010
0000
1000
0000
0000
0000
0000
0000
0010
0000
0000
1000
0000
0000
0100
0000
0000
0000
0000
0000
0010
0000
0000
0000
0000
0000
,
1100
0000
1000
0000
0001
0000
1000
0000
0100
0000
0010
0001
0200
0000
0010
0000
,
0310
0000
1000
0000
0001
0000
0010
0000
0100
1000
0001
0200
0000
0000
0010
0000
,
0310
0000
1000
0000
0001
0000
1000
0000
0010
0000
0100
0001
0010
0000
0100
0000
,
0100
0000
0010
0001
1000
0000
0010
0000
0100
0000
0100
0001
2000
0000
0100
0000
,
3100
0000
0010
0000
0001
0000
0010
0000
0100
0000
1000
0010
0200
0000
0001
0000
,
0301
0000
0100
0000
0010
0000
1000
0000
0001
0010
0100
2000
0000
0000
0010
0000
,
3010
0000
0100
0000
0001
0000
0100
0000
0010
0000
1000
0100
0010
0000
0100
0000
,
1100
0000
1100
0010
1001
0000
MMMM
0000
,
2100
0000
3001
0000
0100
0000
0010
0000
1000
0000
0100
0010
0000
0M00
0010
1000
,
0100
0000
0010
0000
0001
0000
1000
0000
0010
0100
0010
1000
0001
0000
1001
0000
,
0012
0000
1003
0000
0100
0000
0010
0000
0001
0000
0100
0010
0000
0M00
0010
0001
,
1000
0000
0010
0100
0010
0000
1000
0000
0100
0000
0010
0001
0100
0000
0010
0000
,
2010
0000
3001
0000
0010
0000
0100
0000
1000
0000
0010
0100
0000
00M0
0100
1000
,
0010
0000
0100
0000
0001
0000
1000
0000
0100
0010
0100
1000
0001
0000
1001
0000
,
2010
0000
3001
0000
0100
0000
0010
0000
1000
0000
0100
0010
0000
0M00
0010
0000
,
1010
0001
0011
1000
1100
0000
MMMM
0000
,
2001
0000
0000
3010
0100
0000
0001
0000
0011
0000
0000
0110
0000
0000
1100
0000
,
1010
0000
0000
0110
0000
0000
0102
0000
0000
0000
1003
0001
2000
0000
3000
0000
,
1002
0000
0000
0103
0010
0000
1000
0000
1010
0000
0000
0110
0000
0000
0100
0001
,
0010
0000
0000
0110
0000
0000
1100
0000
1001
0000
0001
0100
0010
0000
0110
0000
,
1000
0010
0100
1000
0100
0010
1010
1000
0100
0001
1000
0010
,
0011
0001
0001
0100
0100
0100
2002
0000
0000
3003
0000
0000
,
0001
0000
0100
0010
1000
0000
0100
0000
0210
0000
0000
0001
0000
0000
0010
0000
,
1300
0000
0100
0010
0001
0000
0100
0000
0120
0000
0000
0001
0000
0000
0100
0000
,
2030
0000
0000
0000
0000
0000
0000
0000
0000
0000
0000
0000
0000
0000
0000
0000
0000
0000
0000
0000
0000
0000
0000
0000
0000
0000
0000
0000
0000
0000
0001
0000
0000
0000
0000
0000
0000
0000
0000
0001
0000
0000
0000
0000
0000
0000
0000
0000
0000
0000
0000
0000
0100
0000
0000
0000
0000
0000
0000
0000
0000
0000
0000
0000
,
0001
0000
0000
0000
0000
0000
0000
0000
0001
0000
0000
0000
0000
0000
0000
0000
0010
0000
0000
0000
0000
0000
0000
0000
0001
0000
0000
0000
0000
0001
0000
0000
0000
0000
0000
0000
0100
0000
0000
0000
0000
0000
0000
0000
0000
0000
0000
0000
3001
0000
0000
0000
0000
0000
0000
0000
0000
0000
0000
0000
0000
0000
0000
0000
,
0012
0000
1003
0100
0010
0000
0001
0000
0100
1000
00M0
1000
0100
0010
0001
1000
,
0200
0000
0310
0001
0100
0000
0010
0000
2001
0000
3100
0010
0000
0100
1000
0000
,
1001
0000
0001
0100
0010
0000
1000
0000
0100
0000
0100
0000
0001
0000
0100
0000
,
1000
0000
1000
0000
0010
0100
0001
1000
0100
0000
0010
0001
0010
0000
0100
0000
,
2100
0000
3001
0010
0100
0000
1000
0000
0010
0001
0M00
0001
0010
0100
1000
0001
,
0020
0000
0130
1000
0010
0000
0100
0000
1002
0000
0013
0100
0000
0010
0001
0000
,
1001
0000
1000
0010
0100
0000
0001
0000
0010
0000
0010
0000
1000
0000
0010
0000
,
0002
0000
0000
0100
0003
0010
0100
0001
1000
0000
0100
0010
0001
0000
0010
0000
,
2001
0000
3010
0100
0001
0000
1000
0000
0100
0001
00M0
0001
0010
0100
1000
0001
,
0200
0000
0310
1000
0001
0000
0010
0000
2100
0000
3010
0100
0001
1000
0100
0000
,
0012
0000
1003
0010
0100
0000
0001
0000
1001
0000
1000
0000
0100
0000
0001
0000
,
0201
0000
0000
0301
0100
0000
1000
0001
0100
0000
0010
0100
0010
0000
1000
0000
,
2001
3010
0100
0001
0010
0100
1000
0010
,
0011
0000
0000
0110
0000
0000
2010
0000
0000
3001
0010
0000
0012
0000
0000
0000
,
1003
0000
0100
0010
0100
0000
1000
0000
0001
0000
0100
0010
0000
1000
0100
0000
,
1100
0000
1000
0001
0100
0000
0010
0000
0100
0001
1000
0100
0000
0000
1100
0000
,
0000
0011
0000
0000
0001
0100
0010
1010
0000
0000
1000
0100
0010
0011
0000
0000
,
0100
0100
0100
2002
0000
0000
0003
0000
,
3010
0000
0100
0001
0100
0000
0010
0000
0001
0000
0000
0011
0000
0000
0110
0000
,
1001
0000
1000
0100
0010
0000
1000
0010
0001
1000
0000
1010
0000
0000
0001
0000
,
2001
0000
3010
0100
0002
0000
0013
0100
2000
0000
3100
0010
0001
0100
0010
1000
,
0020
0000
0130
0001
0020
0000
0130
1000
0020
0000
0130
0001
2000
0000
3100
0000
,
0011
0000
1000
0100
0020
0000
0130
1000
0020
0000
0130
0001
1000
0001
0010
0100
,
2000
0000
0000
0000
0000
0000
3010
0000
0000
0100
0000
0000
0001
0000
0010
0000
0100
0000
1000
0000
0001
0000
1000
0000
0020
0000
0000
0000
0000
0000
0130
0000
0000
0001
0000
0000
2000
0000
0000
0000
0000
0000
3100
0000
0000
0000
0000
0000
,
0011
0000
1000
0100
001M
0000
1000
0100
0010
0000
0100
1000
0010
0100
1000
0100
,
0001
0000
0100
0001
M010
0000
0100
0001
0010
0000
0001
0010
0100
0001
0100
1000
,
0010
0000
1000
0010
010M
0000
1000
0010
0100
0000
0010
1000
0100
0010
1000
0010
,
0001
0000
0000
0000
0000
0000
0010
0000
0000
0100
0000
0000
1000
0000
0001
0000
1000
0000
0010
0000
0100
0000
0001
0000
1000
0000
0000
0000
0000
0000
0100
0000
0000
0010
0000
0000
0001
0000
0000
0000
0000
0000
1100
0000
0000
0000
0000
0000
,
1001
0000
0000
0000
;
