#TITLE:Cloud 9;
#SUBTITLE:;
#ARTIST:雄之助;
#TITLETRANSLIT:;
#SUBTITLETRANSLIT:;
#ARTISTTRANSLIT:Yunosuke;
#GENRE:;
#CREDIT:;
#MUSIC:Cloud 9.ogg;
#BANNER:Cloud 9.png;
#BACKGROUND:Cloud 9-bg.png;
#CDTITLE:;
#SAMPLESTART:78.092;
#SAMPLELENGTH:15.000;
#SELECTABLE:YES;
#OFFSET:-0.053;
#BPMS:0.000=153.000;
#STOPS:;
#BGCHANGES:;
#FGCHANGES:;

//--------------- dance-single - chrononical ----------------
#NOTES:
     dance-single:
     chrononical:
     Beginner:
     3:
     0,0,0,0,0:
0000
0000
0000
0000
,
0000
0000
0000
0000
,
0000
0000
0000
0000
,
0000
0000
0000
0000
,
0000
0000
0000
0000
,
0000
0000
0000
0000
,
1000
0000
0100
0000
,
0010
0000
0001
0000
,
1000
0000
0010
0000
,
0100
0000
0100
0000
,
0001
0000
0010
0010
,
0100
0000
1000
0000
,
0001
0000
0100
0100
,
0010
0000
1000
0001
,
1000
0000
0100
0100
,
0010
0000
0001
0000
,
1000
0000
0010
0010
,
0100
0000
0001
0001
,
1000
0000
0100
0100
,
0010
0000
0001
0000
,
1000
0000
0010
0010
,
0100
0000
0001
1000
,
0002
0000
0000
0003
,
2000
0000
0000
3000
,
0100
0000
0010
0000
,
0001
0000
1000
0000
,
2002
0000
0000
0000
,
0000
0000
3003
2000
,
0000
0000
3200
0300
,
0200
0300
2000
0000
,
3002
0000
0203
0000
,
0320
0000
2030
0000
,
3002
0000
2003
0000
,
3002
0000
0023
0000
,
0031
0000
0010
0000
,
0100
0000
1000
0000
,
0001
0000
0100
0000
,
0010
0000
1000
0000
,
0001
0000
0001
0000
,
1000
0000
1000
0000
,
0001
0000
0100
0000
,
0001
0000
1000
1000
,
0100
0000
0000
0000
,
0010
0000
0001
0000
,
1000
0000
0001
0000
,
1000
0000
0001
1000
,
0010
0000
0000
0000
,
0100
0000
0001
0000
,
2002
0000
0000
3003
,
1000
0000
0100
0000
,
0002
0000
0103
0000
,
1000
0000
0010
0000
,
0100
0000
0100
0000
,
0001
0000
0100
0000
,
2000
0000
3100
0000
,
0010
0000
1000
0000
,
0001
0000
1000
0000
,
0100
0010
0100
0000
,
1000
0000
0001
0000
,
0100
0000
0010
0100
,
0010
0000
1000
0000
,
0001
0000
0010
0100
,
0010
0000
0010
0000
,
0001
0000
0100
0000
,
0010
0010
0010
0000
,
1000
0000
0100
0000
,
0010
0000
0020
0000
,
0000
0000
0030
0000
,
0001
0000
0002
0000
,
0000
0000
0003
0000
,
1000
0000
0010
0000
,
0100
0000
0001
0000
,
1000
0000
0100
0000
,
0010
0000
0001
0000
,
0200
0300
0000
0000
;

//--------------- dance-single - chrononical ----------------
#NOTES:
     dance-single:
     chrononical:
     Easy:
     7:
     0,0,0,0,0:
0000
0000
0000
0000
,
0000
0000
0000
0000
,
0000
0000
0000
0000
,
0000
0000
0000
0000
,
0000
0000
0000
0000
,
0000
0000
0000
0000
,
0001
0000
0000
0010
0000
0000
0100
0000
,
0000
1000
0000
0000
0001
0000
1000
0000
,
0002
0103
0010
0100
,
0001
0010
0100
1001
,
2000
3100
0010
1000
,
0010
0001
1000
1001
,
0000
0001
0100
0000
1000
0000
0100
0000
,
0001
1000
1100
0120
,
0032
0103
0010
0001
,
0010
1000
0001
1000
,
2000
3100
0010
1000
,
0020
0000
0031
0200
0000
0301
0020
0000
,
0031
1000
0001
0000
0100
0000
1000
0000
,
0100
0000
0001
0000
0010
0000
0100
2000
,
3000
1000
0010
0000
0001
0000
0010
0000
,
1000
0001
0011
0110
,
2200
0000
0000
0000
0300
0000
3020
0030
,
0202
0000
0300
1003
,
1100
0000
0000
0110
0000
0000
0012
0000
,
0203
0000
0310
2000
0000
3001
0020
0000
,
0031
0000
0000
0000
0100
0000
0000
0010
,
0000
0000
0000
2000
0000
0000
3200
0000
,
0000
0000
0000
0000
0320
0000
0000
0032
,
0000
0000
2003
0000
0000
3020
0000
0000
,
2030
3200
0320
0032
,
2003
3020
0230
0302
,
0023
0000
0230
0000
,
2300
0000
3002
2003
,
3001
0001
0010
0100
,
1000
1000
0010
0100
,
0001
0001
0010
0100
,
1000
1000
0010
0100
,
0010
0010
1000
1000
,
0100
0100
0010
0010
,
0001
0100
0010
1000
,
0200
0000
1300
0002
0000
1003
0020
0000
,
0130
0100
0000
0000
0000
0000
0000
0001
,
0010
0000
0010
0000
0000
0000
0000
0000
0100
0000
0000
1000
0000
0000
0010
0000
,
1000
1000
0000
0000
0001
0001
0000
0000
,
0020
0000
0000
0130
0000
0000
0200
0000
0000
1300
0000
0000
1000
0000
0000
0000
,
0010
0010
0000
0000
0000
0000
0000
1000
,
0100
0000
0100
0000
0000
0000
0000
0000
0010
0000
0000
0001
0000
0000
0100
0000
,
0010
1000
0001
0020
,
0031
0010
0100
1200
,
0302
0103
0020
0032
,
1003
0010
0001
0010
,
1000
0100
0010
0001
,
0100
0010
1000
1020
,
0032
0013
2000
3010
,
0100
0001
0010
0100
,
2000
3010
0020
0130
,
0200
0302
2003
3002
,
1003
0000
0000
0100
0000
0000
0001
0000
,
0000
0010
0000
0000
1000
0000
1000
0000
,
0001
0000
0000
0100
0000
0000
1000
0000
,
0000
0010
0000
0000
0001
0000
0001
0000
,
1000
0010
0100
0001
,
0010
0100
1000
2100
,
3001
0200
0000
0000
0310
0000
0001
0000
,
0010
1000
0001
1001
,
0000
0000
1000
0000
0000
0100
0000
0000
0020
0000
0000
0000
0000
0000
0000
0000
,
0000
0000
0031
0000
,
0000
0000
0001
0000
0000
0100
0000
0000
0020
0000
0000
0000
0000
0000
0000
0000
,
0100
0000
0000
0000
0000
0000
0000
0000
1030
0000
0000
0001
0000
0000
1000
0000
,
0001
0000
0000
0100
0000
0000
0010
0000
,
0000
1000
0000
0000
0001
0000
1000
0000
,
0002
0013
0100
0010
,
0001
0100
0010
1001
,
0200
0300
0000
0000
;

//--------------- dance-single - chrononical ----------------
#NOTES:
     dance-single:
     chrononical:
     Medium:
     11:
     0,0,0,0,0:
0000
0000
0000
0000
,
0000
0000
0000
0000
,
0000
0000
0000
0000
,
0000
0000
0000
0000
,
0000
0000
0000
0000
,
0000
0000
0000
0000
,
1000
0000
0000
0010
0000
0000
0200
0000
0000
1000
0000
0000
0301
0000
0000
0010
,
0000
0000
0200
0000
0000
0001
0000
0000
0310
0000
0000
0000
0110
0000
0000
0000
,
1001
0000
2000
0000
3010
0000
0000
1000
0000
0200
0000
0310
0000
0100
0000
0100
,
1000
0000
0010
0000
0100
0001
2001
0000
,
3002
0000
0000
0000
0013
0000
0000
0100
0000
0100
0000
1000
0000
0020
0000
0000
,
1030
0000
0001
0000
0000
0000
0100
0000
0010
0000
0001
0000
0020
0000
0000
1000
,
0000
0000
0100
0000
0130
0000
0001
0000
0000
0020
0000
0000
0130
0000
0000
1000
,
0000
0001
0000
0100
0000
0000
0010
0000
0110
0000
0000
0000
1001
0000
0000
0000
,
2100
0000
0000
0000
3001
0000
0000
0010
0000
0010
0000
0001
0000
0200
0000
0000
,
0301
1000
0000
0010
0100
1000
0100
0100
,
0002
0000
0000
0000
1003
0000
0000
0010
0000
0010
0000
1000
0000
0200
0000
0000
,
0310
0001
0001
0100
0001
0001
1002
0000
,
0013
0000
0010
0000
0001
0000
0000
0100
0000
0100
0000
0001
0000
0020
0000
0000
,
0031
0000
1000
0010
0000
0000
0100
0000
0010
0000
0001
0000
0010
0000
0200
0000
,
0301
0000
0010
0000
0100
0000
1000
0000
0000
0020
0000
0000
0130
0000
0000
0001
,
0000
0001
0000
0010
0000
0000
0100
0000
1100
0000
0000
0000
1010
0000
0000
0000
,
0101
0100
0001
1000
0100
1000
0020
0030
,
0010
0010
1000
0001
0010
0001
0100
0010
,
1000
0000
0001
0020
0000
0031
2000
0000
3001
0200
0000
0301
1000
0000
0100
0000
,
0010
0010
0001
0100
0100
0001
1001
0000
,
1000
0000
0100
0000
0010
0001
0000
0100
,
0000
0010
1000
0002
0000
0000
0023
0000
,
0000
0130
1000
0000
0020
0000
0000
0031
,
0010
0000
0100
0001
0000
0010
0000
0000
,
0002
0023
0230
2300
,
3002
0203
0320
2030
,
3200
0000
0320
0000
,
0032
0000
0000
1003
0010
0000
0100
0000
,
0001
0000
0000
0010
0000
0000
0010
0000
0000
0100
0000
0000
1000
0000
0000
0010
,
0000
0000
0010
0000
0000
0100
0000
0000
0001
0000
0000
0010
0000
0000
0100
0000
,
1000
0000
0000
0010
0000
0000
0010
0000
0000
0100
0000
0000
0001
0000
0000
0010
,
0000
0000
0010
0000
0000
0100
0000
0000
1000
0000
0000
0010
0000
0000
0100
0000
,
0001
0010
0110
1001
,
1000
0010
0110
1001
,
1000
0010
0100
0010
1000
0100
0010
0001
,
0100
0100
0001
0010
0010
0001
1002
0000
,
0103
0000
0100
0000
1000
0000
0000
0100
0000
0001
0000
0010
0000
0000
0100
0000
,
0010
0000
0010
0000
1000
0000
0000
0000
0010
0000
0000
0001
0000
0000
1000
0000
,
0010
0000
0020
0000
0000
1000
0000
0000
0130
0000
0200
0000
0000
0001
0000
0000
,
0310
0000
0000
1001
0000
0000
0010
0000
0000
1001
0000
0000
2100
0000
0000
0000
,
3100
0000
0100
0000
0001
0000
0000
0100
0000
1000
0000
0010
0000
0000
0100
0000
,
0010
0000
0010
0000
0001
0000
0000
0000
0010
0000
0000
1000
0000
0000
0001
0000
,
0010
0000
0010
0000
0100
0000
0100
0000
1000
0001
1000
0000
0020
0000
0000
0000
,
1030
0000
0010
0000
0100
0010
0210
0000
,
2300
0000
3100
0001
1000
0100
0010
0200
,
0000
0301
0100
1000
0001
0100
1000
0100
,
0010
0000
0000
0010
1000
0000
0000
1000
0100
0000
0100
0000
1000
0000
0010
0000
,
0000
0010
0100
0001
0101
0000
0120
0000
,
0032
0000
1003
0100
0002
0000
1003
0100
,
0010
1000
0010
0001
1000
0010
0001
0010
,
1000
0100
0010
0001
0100
0010
1000
0100
,
0010
0010
0001
1000
0001
0100
0010
1000
,
0200
0310
0001
0200
0310
1000
0200
0310
,
0001
0200
0310
0100
1000
0100
0001
1000
,
0020
0130
0001
0020
0130
1000
0020
0130
,
0001
0010
0010
0100
1000
0010
0001
0010
,
0100
0000
0000
0100
0001
0000
0000
0001
0010
0000
0010
0000
0001
0000
0100
0000
,
0000
0100
0010
1000
1010
0000
0110
0000
,
2001
0000
0100
0000
0100
0000
3100
0000
0010
0000
0000
0001
0000
0200
0000
0000
,
0301
0000
1000
0000
0000
0000
0100
0000
0010
0000
0000
0010
0002
0000
0000
0000
,
0103
0000
0101
0000
0000
0110
0000
0000
2010
0000
0000
0000
0000
0000
0000
0000
,
0000
0000
0000
0000
0000
0000
0000
0000
3001
0000
0000
0010
0000
0000
0200
0000
,
1300
0000
1100
0000
0000
0110
0000
0000
0012
0000
0000
0000
0000
0000
0000
0000
,
0100
0000
0000
0000
0000
0000
0000
0000
1003
0000
0000
0010
0000
0000
0100
0000
,
0001
0000
0000
0010
0000
0000
0200
0000
0000
0001
0000
0000
1300
0000
0000
0010
,
0000
0000
0200
0000
0000
1000
0000
0000
0310
0000
0000
0000
0110
0000
0000
0000
,
1001
0000
0002
0000
0013
0000
0000
0001
0000
0200
0000
0310
0000
0100
0000
0100
,
0001
0000
0010
0000
0100
1000
1002
0000
,
0203
0300
0000
0000
;

//--------------- dance-single - chrononical ----------------
#NOTES:
     dance-single:
     chrononical:
     Hard:
     16:
     0,0,0,0,0:
0000
0000
0000
0000
,
0000
0000
0000
0000
,
0000
0000
0000
0000
,
0000
0000
0000
0000
,
0000
0000
0000
0000
,
0000
0000
0000
0000
,
0001
0000
0100
0010
0000
0000
1000
0001
0000
0010
0000
0100
1000
0000
0010
0100
,
0000
0000
0001
1000
0000
0100
0000
0010
0002
0000
0000
0000
0010
0000
0000
0000
,
1003
0000
0020
0000
0130
0000
0001
0100
0000
1000
0100
0000
0010
1000
0000
1000
,
0001
0000
0000
0010
0100
0000
0010
0000
0001
1000
0010
0100
0001
0010
0100
0010
,
0002
0000
0000
0000
0013
0000
0100
1000
0000
1000
0000
0010
0000
0001
0010
0100
,
0000
0010
0000
0100
0000
0001
0010
0000
0100
0000
0001
0000
0101
0000
0000
0110
,
0000
0000
2100
0000
3001
0100
0010
0100
0000
1000
0100
0010
0000
1000
0000
0100
,
0000
0010
0000
0100
0000
1000
0010
0000
1010
0000
0000
0000
0110
0000
0000
0000
,
0102
0000
0013
0000
0200
0000
1300
0001
0000
0001
0000
0100
0000
1000
0100
0010
,
0000
0100
0000
0010
0000
1000
0100
0000
0010
0000
1000
0000
0010
0001
0000
1000
,
0002
0000
0000
0000
0103
0000
0010
1000
0000
1000
0000
0100
0000
0001
0100
0010
,
0200
0000
1300
0001
1000
0001
0200
0000
0301
1000
0001
1000
0020
0000
0000
0000
,
0130
0000
0100
0000
0001
1000
0001
0100
0000
0010
0000
0100
0000
1000
0100
0010
,
1000
0000
0010
0100
0000
0001
0010
0000
0100
0000
0001
0000
0100
0000
2000
0000
,
3010
0000
0100
0000
0001
1000
0001
0010
0000
1000
0010
0100
1000
0001
0000
0001
,
0000
0100
0010
1000
0000
1000
0010
0000
0210
0000
1300
0000
0210
0000
0001
0000
,
0310
1000
0001
0010
0100
1000
0100
0010
0001
1000
0010
0100
0020
0000
0030
0000
,
0100
0001
1000
0100
0010
0001
0010
0100
1000
0001
0100
0010
0100
0010
1000
0001
,
2000
0000
3100
0020
0000
0130
2000
0000
3100
0002
0000
0103
1000
0010
0100
0010
,
1000
0010
0100
0001
1000
0010
1000
0100
0010
0001
1000
0100
1000
0001
0100
0010
,
1000
0000
0010
0000
0100
0001
0000
0010
,
0000
0100
1000
0002
0000
0000
0203
0000
,
0000
0310
1000
0000
0200
0000
0000
0301
,
0100
0000
0010
0001
0000
0100
0000
0000
,
0002
0203
0320
2030
,
3002
0023
0230
2300
,
3020
0000
0230
0000
,
0302
0000
0000
0000
0000
0000
1003
0000
0100
0000
0000
0000
0010
0100
1000
0001
,
1000
0000
0000
0010
0100
0000
0010
0000
1000
0001
0000
0000
0010
0000
0000
0100
,
0010
0000
0100
0000
1000
0001
0000
0000
0100
0000
0000
0010
0100
0000
0001
0000
,
1000
0000
0000
0100
0010
0000
0100
0000
1000
0001
0000
0000
0100
0000
0000
0010
,
0100
0000
0010
0000
1000
0001
0000
0000
0010
0000
0000
0100
0010
0000
0001
0000
,
0011
0000
0110
0100
1100
0000
1001
0000
,
0101
0000
0000
0000
0000
0000
0110
0000
0000
0010
0000
0000
1010
0000
0000
0000
0000
0000
1001
0000
0000
1000
0001
1000
,
0001
0010
0100
0010
0100
1000
0001
1000
0001
0100
0010
1000
0001
0010
0100
1000
,
0200
0000
1300
0001
1000
0001
0200
0000
0301
1000
0001
1000
0020
0000
0030
0000
,
0110
0000
0110
0000
0100
0001
1000
0100
0000
0001
0000
1000
0010
0000
0100
0000
,
0110
0000
0110
0000
0010
0001
1000
0010
0100
0000
1000
0100
0000
0001
0010
0000
,
0011
0000
0012
0000
0000
1003
0010
0000
1010
0000
2010
0000
0000
3001
0010
0000
,
0012
0000
0000
0103
0000
0000
2010
0000
0000
3100
0000
0010
0001
1000
0100
0000
,
0110
0000
0110
0000
0010
0001
1000
0010
0000
0001
0000
1000
0100
0000
0010
0000
,
0110
0000
0110
0000
0100
0001
1000
0100
0010
0000
1000
0010
0000
0000
0100
0000
,
1000
0100
0010
0001
1000
0100
0010
0001
1000
0010
0100
0001
0020
0000
0000
0000
,
0031
0000
0000
0100
0010
0000
0100
0000
0001
0000
0010
0000
0100
1000
0001
0100
,
2000
0000
0000
0000
3100
0001
1000
0100
0002
0000
2003
0000
3020
0000
0032
0000
,
0103
0000
2000
0000
3100
0010
1000
0010
1000
0100
0010
0001
0100
0010
1000
0010
,
0100
0000
0000
0100
1000
0000
0000
1000
0001
0000
0010
0000
0100
0000
0001
0000
,
1000
0100
0010
0100
2000
0010
3002
0023
,
2030
0000
0000
0000
3010
0001
1000
0010
0002
0000
0000
0000
0013
1000
0001
0010
,
2000
0000
3002
0000
0103
0010
0001
0010
0001
0100
0010
1000
0100
0010
0001
0010
,
0100
1000
0001
0100
0010
0000
0010
1000
0001
0010
0100
0000
0100
1000
0001
0100
,
2000
0000
0000
0000
0000
0000
3002
0000
0000
0000
0000
0000
0023
0000
0000
0000
0000
0000
1030
0000
0000
0001
0000
0000
0010
0000
0100
0000
1000
0000
0001
0000
0000
1000
0000
0000
0001
0000
0000
0100
0000
0000
0010
0000
0000
1000
0000
0000
,
0200
0000
0310
0100
0010
0001
0200
0000
0310
0100
0010
1000
0200
0000
0310
0100
,
0010
0001
0200
0000
0310
0100
0001
0010
2000
0000
3020
0000
0032
0000
0203
0000
,
0320
0000
0130
0010
0100
0001
0020
0000
0130
0010
0100
1000
0020
0000
0130
0010
,
0100
0000
0000
0001
0000
0000
0020
0000
0000
0130
0000
0000
1000
0000
0000
0100
0000
0000
1000
0000
0100
0000
0010
0000
0001
0000
0000
0000
0000
0000
0100
0000
0000
0000
0000
0000
1000
0000
0000
0000
0000
0000
0100
0000
0000
0000
0000
0000
,
0001
0010
0100
0010
0001
1000
0001
1000
0001
0100
0010
0100
0001
1000
0001
1000
,
0001
0100
0010
0100
0001
1000
0001
1000
0001
0010
0100
0010
0001
0010
0100
1000
,
0020
0000
0001
0000
0001
0000
0031
0010
0100
0001
0000
0010
0000
1000
0010
0100
,
0000
0010
0000
0100
0000
1000
0010
0000
0110
0000
0000
0100
0001
1000
0000
1000
,
0100
0000
1100
0000
0000
0110
0000
0000
2001
0000
0000
0000
0000
0000
0000
0000
,
0000
0000
0000
0000
0000
0000
0000
0000
0000
0000
0000
0000
0000
0000
0000
0000
0000
0000
3001
0000
0100
0000
0010
0000
0100
0000
0000
0000
0000
0000
1000
0000
0000
0100
0000
0000
0000
0000
0000
0100
0000
0000
0001
0000
0000
0000
0000
0000
,
0100
0000
0101
0000
0000
0110
0000
0000
1002
0000
0000
0000
0000
0000
0000
0000
,
0010
0000
0000
0000
0000
0000
0000
0000
0000
0000
0000
0000
0000
0000
0000
0000
0000
0000
1003
0000
0100
0000
0010
0000
0100
0000
0000
0000
0000
0000
1000
0000
0000
0100
0000
0000
0000
0000
0000
1000
0000
0000
0010
0000
0000
0000
0000
0000
,
1000
0000
0010
0100
0000
0000
0001
1000
0000
0100
0000
0010
0001
0000
0100
0010
,
0000
0000
1000
0001
0000
0010
0000
0100
2000
0000
0000
0000
0100
0000
0000
0000
,
3001
0000
0200
0000
0310
0000
1000
0010
0000
0001
0010
0000
0100
0001
0000
0001
,
1000
0000
0000
0100
0010
0000
0100
0000
1000
0001
0100
0010
1000
0100
0010
0100
,
2000
3000
0000
0000
;
