#VERSION:0.83;
#TITLE:Charlatan;
#SUBTITLE:;
#ARTIST:煮ル果実×びす;
#TITLETRANSLIT:;
#SUBTITLETRANSLIT:;
#ARTISTTRANSLIT:NILFRUITS×Bis;
#GENRE:;
#CREDIT:;
#MUSIC:Charlatan.ogg;
#BANNER:Charlatan.png;
#BACKGROUND:Charlatan-bg.png;
#CDTITLE:;
#SAMPLESTART:82.719;
#SAMPLELENGTH:15.000;
#SELECTABLE:YES;
#OFFSET:1.656;
#BPMS:0.000=145.000;
#STOPS:;
#BGCHANGES:;
#FGCHANGES:;

//--------------- dance-single - ----------------
#NOTEDATA:;
#STEPSTYPE:dance-single;
#DESCRIPTION:;
#DIFFICULTY:Hard;
#METER:12;
#RADARVALUES:0,0,0,0,0;
#CREDIT:Talkion;
#NOTES:
0000
0000
0000
0000
,
0000
0000
0000
0000
,
0000
0000
0000
0000
,
0000
0000
0000
0000
,
0000
0000
0000
0000
0000
0000
0000
1000
,
2001
0000
0000
0100
0000
0000
3001
0000
0000
0000
0100
0000
0010
0000
0100
0000
,
0002
0000
0000
1000
0000
0000
0013
0000
0000
0000
0010
0000
0100
0000
1000
0000
,
0001
0000
0110
0000
1001
0000
0001
0100
,
0000
0100
2000
0000
3000
0100
0010
1000
,
0002
0000
0000
0100
0000
0000
1003
0000
0000
0000
0001
0000
0010
0000
0100
0000
,
2000
0000
0000
0001
0000
0000
3010
0000
0000
0000
0010
0000
0100
0000
0001
0000
,
1000
0000
0110
0000
1001
0000
1000
0100
,
0000
0100
0002
0000
0103
0100
1000
0000
,
0001
0000
0100
0000
0100
0000
0100
0000
0100
0000
0000
0100
0000
0000
0100
0000
,
0010
1000
0001
1000
0100
0100
0010
0100
,
0002
0000
0103
0000
0020
0000
0000
0100
0000
0000
0031
0000
2000
0000
0000
0010
,
0000
0000
3001
0000
2000
0000
0000
0100
0000
0000
3001
0000
2000
0000
0000
0010
,
0000
0000
3001
0000
0200
0000
0000
0010
0000
0000
0301
0000
1000
0000
0000
0000
,
0001
0010
0100
0010
1000
1000
0010
0100
,
0000
1000
0001
1000
0010
0100
0010
1000
,
0100
0100
0010
0010
0000
0010
0000
0010
,
0000
0000
0000
0000
,
0000
0000
0000
0000
,
0001
0000
0010
0000
1000
0000
0010
0000
0001
0000
0000
0001
0000
0000
0001
0000
,
1000
0000
0010
0000
0100
0000
0010
0000
1000
0000
0000
1000
0000
0000
1000
0000
,
0001
0000
0020
0000
0000
0100
0000
0000
0001
0000
0000
0100
0000
0000
0031
0000
,
1000
0000
0010
0000
0100
0000
0010
0000
1000
0000
0000
0001
0000
0001
0000
0000
,
1000
0000
0100
0000
0001
0000
0100
0000
1000
0000
0000
1000
0000
0000
1000
0000
,
0001
0000
0100
0000
0010
0000
0100
0000
0001
0000
0000
0001
0000
0000
0001
0000
,
1000
0000
0100
0000
0010
0000
0200
0000
0001
0000
0000
0010
0000
0000
1300
0000
,
0000
0000
0001
0000
0100
0000
0020
0000
0001
0000
0000
0100
0000
0000
1030
0000
,
0002
0000
0000
0013
0000
0011
0000
1010
,
0000
1100
0000
0101
0000
0011
0000
0010
,
0100
1000
0100
0010
0000
0011
0000
0101
,
0000
1100
0000
1010
0000
0010
0001
0000
,
1000
0000
0000
0100
0000
0000
0001
0000
0000
0100
0000
0000
1000
0000
0000
0010
,
0000
0000
0001
0000
0000
0010
0000
0000
1000
0000
0000
0100
0000
0000
0001
0000
,
0000
0100
0000
0000
1000
0000
0001
0000
1000
0000
0010
0000
0100
0000
0010
0000
,
1000
1000
0001
0001
0010
0100
0010
1000
,
0001
0000
0000
0000
0000
0000
0100
0000
0010
0000
0000
0010
0000
0000
0010
0000
,
0001
1000
0010
0100
0001
1000
0010
0100
,
0001
1000
0100
1000
0001
0001
0010
0000
,
0100
0000
0010
0000
0100
0000
0001
0000
0001
0000
0000
0001
0000
0000
0001
0000
,
0100
0000
0010
0000
0001
0000
0000
1000
0000
0000
0001
0000
0200
0000
0000
0000
,
0310
1010
0011
2010
,
3001
0010
0001
1000
0010
0010
0100
0100
,
0001
1000
0100
0010
0001
1000
0100
0010
,
0001
1000
0010
0100
0001
1000
0010
0100
,
0001
0010
0100
1000
0020
0000
0230
0000
,
0300
0000
0000
0000
,
0001
0000
0002
0100
1003
0000
0000
0000
,
1100
0000
0101
0100
0010
0001
0010
0100
,
0002
0000
1003
0100
0010
1000
0010
0100
,
2000
0000
3001
0100
0010
0001
0010
0100
,
1000
0000
0110
0000
1000
0001
0100
0010
,
1010
0000
0011
0010
0100
0001
0100
0010
,
0002
0000
1003
0010
0100
1000
0100
0010
,
2000
0000
3001
0010
0100
0001
0100
0010
,
1000
0000
0000
0000
0110
0000
0000
0000
1000
0000
0000
1000
0000
0000
1000
0000
,
1100
0000
0101
0001
1000
0010
0100
1000
,
0000
0001
0010
0200
0000
0301
0001
0000
,
0101
0000
1100
1000
0001
0010
0100
0001
,
0000
1000
0010
0200
0000
1300
1000
0000
,
0011
0000
1010
1000
0001
0100
0010
0002
,
0000
1003
0100
0010
0100
0001
1000
0000
,
2001
0000
3200
0000
0301
1000
0010
0002
,
0000
1003
0010
0001
1000
0100
0001
0000
,
0101
0000
1100
0000
1000
0100
0010
1000
,
0000
0001
0100
0010
0001
2000
0000
3000
,
0001
0100
0010
0000
1000
0010
0100
0000
,
1000
0001
0010
0200
0000
0302
0000
0003
,
1010
0000
0011
0000
0001
0010
0100
0001
,
0000
1000
0010
0100
0010
0001
1000
0000
,
1010
0000
0011
0001
1000
0010
0100
2000
,
0000
3001
0010
0100
0001
0010
0100
0001
;

//--------------- dance-single - ----------------
#NOTEDATA:;
#STEPSTYPE:dance-single;
#DESCRIPTION:;
#DIFFICULTY:Challenge;
#METER:16;
#RADARVALUES:0,0,0,0,0;
#CREDIT:Talkion;
#NOTES:
0000
0000
0000
0000
,
0000
0000
0000
0000
,
0000
0000
0000
0000
,
0000
0000
0000
0000
,
0000
0000
0000
0000
0000
0000
0000
1000
,
2001
0000
3100
0010
0000
0010
0001
0000
0000
0000
0010
0000
0100
0000
1000
0000
,
2001
0000
0000
0010
0000
0000
3001
0000
0000
0000
0100
0000
0001
0000
0100
0000
,
0010
0000
0000
0010
0001
0000
0000
0001
0100
0000
0000
0100
1000
0000
2001
0000
,
0000
0000
3100
0010
0002
0000
0000
0000
0003
0000
0001
0000
0010
0000
0001
0000
,
1002
0000
0000
0100
0000
0000
1003
0000
0000
0000
0100
0000
0010
0000
0001
0000
,
1002
0000
0000
0010
0000
0000
1003
0000
0000
0000
0010
0000
1000
0000
0010
0000
,
0100
0000
0000
0100
1000
0000
0000
1000
0010
0000
0000
0010
0001
0000
1002
0000
,
0000
0000
0013
0000
0100
0000
0000
0100
1000
0000
1000
0000
0001
0000
0100
0000
,
0010
0100
1000
0000
1000
0000
1000
0000
1000
0000
0000
1100
0000
0000
0101
0000
,
0100
0010
0000
0010
1000
0001
1000
0100
0010
0000
0001
0010
0100
0000
0010
0000
,
2000
0000
3001
0000
0100
0010
0100
2000
0000
0000
3001
0000
0100
0000
0100
2000
,
0000
0000
3001
0000
0010
0000
0010
2000
0000
0000
3001
0000
0010
0000
0010
2000
,
0000
0000
3010
0000
0100
0010
0100
2000
0000
0000
0100
0000
3001
0000
0000
0000
,
1000
0000
1000
0010
0100
0000
0100
0010
1000
0001
0010
0001
1000
0000
1100
0000
,
0000
0000
0001
0000
0102
0000
1003
0000
0010
0100
0001
0100
0010
0100
0001
0000
,
1000
0110
0001
0110
0000
0110
0000
0110
,
1000
0000
1000
0000
0001
0010
0100
0000
1000
0001
0010
0001
1000
0010
0100
0000
,
0002
0000
0100
0000
0013
0000
0002
0000
0010
0000
0103
0010
1000
0000
0000
0000
,
0001
0000
0100
0010
1000
0000
0100
0010
1000
0000
0010
0100
0000
0100
1000
0000
,
0000
0000
0001
0000
0001
0000
0100
0010
1000
0001
0000
0012
0000
0000
1003
0000
,
0010
0000
0010
0000
0100
0001
0000
1000
0001
0000
0100
0001
0000
1000
0001
0010
,
0100
0000
0100
0000
1000
0010
0100
0000
0001
0100
0010
1000
0000
0200
0000
0000
,
0310
0000
0100
0010
0001
0000
0100
0010
0001
0000
0010
0100
0000
0100
0001
0000
,
0000
0000
1000
0000
1000
0000
0001
0000
0001
0000
0010
0100
0000
0100
1000
0000
,
0000
0001
0100
0010
0001
0010
0100
0001
2000
0000
0000
3100
0000
0000
1001
0000
,
0000
0000
1000
0100
0000
0100
0010
1000
0001
0100
0010
0002
0000
0000
0013
0100
,
2000
0000
0000
3001
1000
0010
1000
0001
,
0000
0000
0001
0010
0000
0000
0010
0100
0000
0000
0100
1000
0000
0000
0001
0000
,
1002
0000
0103
0000
0010
0100
0001
0000
0000
0000
1001
0000
0000
0000
1000
0100
,
0000
0000
0100
0010
0000
0000
0010
0001
0000
0000
0002
0000
0010
0000
1003
0000
,
0001
0000
0001
0100
0000
0100
1000
0000
1000
0010
0000
0010
0001
0000
0001
0010
,
0000
0010
1000
0000
1000
0100
0000
0100
0001
0000
0001
0100
0000
0100
1000
0000
,
1000
0010
0000
0000
0010
0001
1000
0001
0100
0010
1000
0001
0010
0100
0010
0001
,
1000
0010
0100
0010
1000
0001
0010
0000
0100
0010
0100
0010
2000
0000
3001
0000
,
0110
0000
0000
0000
0000
0000
0001
0000
1001
0000
0000
1000
0000
0010
0000
0010
,
0100
0001
1000
0010
0100
0001
1000
0001
0010
0100
1000
0001
0010
0100
1000
0000
,
0001
0100
0010
1000
0001
1000
0100
1000
0001
0010
0001
1000
0001
0100
0000
0100
,
0010
0000
1000
0010
0100
0000
1000
0100
0001
0000
0000
0001
0000
0000
0001
0000
,
0020
0000
0230
0000
1300
0001
0100
0010
0000
1000
0001
1000
0100
0020
0000
0000
,
0031
0000
0000
0000
1000
1000
0000
0000
0001
0001
0000
0000
0100
0000
0100
0010
,
2000
0000
3002
0000
0013
0100
1000
0001
1000
0001
1000
0001
0100
0000
0100
0000
,
0010
1000
0001
0100
0010
1000
0001
1000
0100
0010
0001
1000
0100
0010
0001
0000
,
1000
0010
0100
0001
1000
0010
0100
0002
0010
0000
1003
0100
0010
0100
1000
0000
,
0001
1000
0001
1000
0010
0100
0010
0100
0002
0000
0000
0000
2003
0000
0000
0000
,
3000
0000
0000
0000
,
1100
0000
0000
0100
0020
0000
1000
0000
0130
0000
0000
0000
1002
0000
0000
0000
,
0203
0000
0001
1000
0000
0000
0310
0000
0021
0000
0130
0000
1020
0000
0130
0000
,
2002
3003
0001
0100
0201
0310
1200
0310
,
2002
3003
0001
0010
0021
0130
1020
0130
,
2000
0000
3100
0010
0200
0000
0301
1000
0002
0000
0013
0000
2001
0000
3100
0000
,
0020
0000
0001
1000
0000
0000
0130
0000
0201
0000
0310
0000
1200
0000
0310
0000
,
2002
3003
0001
0010
0021
0130
1020
0130
,
2002
3003
0001
0100
0201
0310
1200
0310
,
2000
0000
3010
0100
0020
0000
0031
1000
0001
0100
0010
1000
0100
0010
0001
0000
,
1002
0000
0100
0010
0000
0000
0013
0000
0100
0000
0001
1000
0001
0000
0010
0000
,
0000
0010
2100
3020
0000
0130
0100
0001
,
2000
0000
0100
0010
0000
0000
3010
0000
0100
0000
1000
0001
1000
0000
0010
0000
,
0000
0010
0102
0023
0000
0130
0100
1000
,
2001
0000
0010
0100
0000
0000
3100
0000
0010
0000
1000
0001
1000
0000
0200
0000
,
0000
0310
2001
3020
0000
0130
0200
0000
,
0302
0000
0010
0100
0000
0000
0103
0000
0010
0000
0001
1000
0001
0000
0200
0000
,
0000
0000
0310
0000
0100
0000
0001
0000
1000
0100
0010
0001
0100
0010
1000
0000
,
2001
0000
0100
0010
0000
0000
3010
0000
0000
0000
0010
0000
0100
0000
1000
0000
,
0001
0000
0100
0000
2010
0000
3200
0000
0000
0000
0310
0100
0000
0100
1000
0000
,
0001
0000
0100
0000
0010
0100
0010
0000
1000
0000
1000
0000
0001
0000
0001
0010
,
0100
0010
2100
3020
0000
0130
0100
0001
,
1002
0000
0010
0100
0000
0000
0103
0000
0000
0000
0100
0000
0010
0000
0001
0000
,
0000
0001
0201
0310
1200
0310
0002
0000
,
2003
0000
0010
0100
0000
0000
3100
0000
0010
0000
1000
0001
1000
0000
0100
0000
,
0000
0000
0100
0000
0012
0000
0103
0000
0010
0100
0001
1000
0100
0010
1000
0000
;
