#TITLE:Canvas;
#SUBTITLE:(feat. Nicole Curry);
#ARTIST:aran;
#TITLETRANSLIT:;
#SUBTITLETRANSLIT:;
#ARTISTTRANSLIT:;
#CREDIT:;
#BANNER:;
#BACKGROUND:;
#LYRICSPATH:;
#CDTITLE:;
#MUSIC:Canvas (feat. Nicole Curry).ogg;
#OFFSET:0.183;
#SAMPLESTART:66.617;
#SAMPLELENGTH:12.800;
#SELECTABLE:YES;
#BPMS:0.000=150.000;
#STOPS:;
#BGCHANGES:;

//---------------dance-single - ----------------
#NOTES:
     dance-single:
     :
     Hard:
     14:
     0.640,0.707,0.363,0.053,0.325:
0000
0000
0000
0000
,
0000
0000
0000
0000
,
0000
0000
0000
0000
,
0000
0000
0000
0000
,
0000
0000
0000
0000
,
0000
0000
0000
1002
,
0010
0000
1000
0000
0103
0001
0010
0000
,
0000
0100
0020
0000
0030
0100
0101
0100
,
2000
0000
0000
0000
3000
0001
0100
1000
,
0000
0000
1000
0100
0000
0000
0101
0100
,
0001
0000
0001
1000
0100
0010
0100
0000
,
0100
1000
0010
0000
0001
0000
1000
0100
,
0001
0000
0001
1000
0100
0000
0110
0010
,
0001
0000
0001
1000
0010
0000
0000
0010
,
0100
0000
0001
0000
0000
0001
0010
0000
0100
0000
0010
0000
0000
0000
0001
0000
,
1000
0000
0010
0000
0000
0010
0100
0000
0001
0000
1000
0000
0000
1000
0010
0000
,
0100
0000
0001
0000
0000
0001
0010
0000
0100
0000
1000
0000
0000
0010
0100
0000
,
0001
0000
1000
0000
0000
0100
0010
0000
0001
0000
0100
0000
0010
0000
1000
0000
,
0100
0000
0000
0010
0000
0100
0000
0000
0010
0100
0000
0000
1000
0000
0000
0000
0000
0000
0001
0000
0000
1000
0000
0000
,
0010
0000
0000
0100
0000
0010
0000
0000
0100
0010
0000
0000
1000
0000
0000
0000
0000
0000
0001
0000
0000
0010
0000
0000
,
0100
0000
0000
1000
0000
0001
0000
0000
1000
0001
0000
0000
0100
0000
0000
0000
0000
0000
0010
0000
0000
0100
0000
0000
,
0001
0000
0000
1000
0000
0001
0000
0000
1000
0001
0000
0000
0010
0000
0000
0000
0000
0000
0100
0000
0000
0100
0000
0000
,
1000
0000
0000
1000
0000
0010
0000
0000
0100
0010
0000
0000
0100
0000
0000
0100
0000
0000
0001
0000
0000
0001
0000
0000
,
1000
0000
0000
1000
0000
0100
0000
0000
0010
0100
0000
0000
0001
0000
0000
0001
0000
0000
1000
0000
0010
1000
0000
0010
,
0100
0000
0010
0100
0000
0010
0001
0000
0010
0001
0000
0010
0001
0000
0100
0010
0000
0100
0010
0000
0000
1000
0000
0000
,
0001
0100
0010
1000
0100
0000
0110
0001
,
1000
0010
1000
0001
0010
0100
1000
0001
,
0100
0001
1000
0001
0100
0010
1000
0001
,
1000
0100
1000
0010
0100
0001
0010
0001
,
1000
0010
0100
0001
1000
1000
0001
0010
,
0100
0000
0000
1000
0000
0010
0000
0000
1000
0010
0000
0000
0100
0000
0000
0001
0000
0000
1000
0000
0000
0100
0000
0000
,
0010
0000
0000
0001
0000
0010
0000
0000
0001
0010
0000
0000
0100
0000
0000
1000
0000
0000
0001
0000
0000
0100
0000
0000
,
0010
0000
0000
1000
0000
0100
0000
0000
1000
0100
0000
0000
0010
0000
0000
0001
0000
0000
1000
0000
0000
0010
0000
0000
,
0100
0000
0000
0001
0000
0100
0000
0000
0001
0100
0000
0000
0110
0000
0000
0000
0000
0000
1001
0000
0000
0001
0000
0000
,
0011
0000
0000
0010
0000
0100
0000
0000
1000
0100
0000
0000
0010
0000
0000
0001
0000
0000
1000
0000
0000
0010
0000
0000
,
0100
0000
0000
0001
0000
0100
0000
0000
0010
0100
0000
0000
0001
0000
0000
1000
0000
0000
0100
0000
0000
0001
0000
0000
,
0100
0000
0000
1000
0000
0100
0000
0000
0010
0100
0000
0000
1000
0000
0000
0001
0000
0000
0100
0000
0000
0010
0000
0000
,
1000
0000
0000
0010
0000
0100
0000
0000
0010
1000
0000
0000
0001
0000
0000
1000
0000
0000
0010
0000
0000
0100
0000
0000
,
0001
0000
0000
0010
0000
0100
0000
0000
0010
1000
0000
0000
0010
0000
0000
0100
0000
0000
1000
0000
0000
0001
0000
0000
,
0100
0000
0000
0010
0000
0001
0000
0000
0010
0100
0000
0000
0001
0000
0000
1000
0000
0000
0100
0000
0000
0001
0000
0000
,
0100
0000
0000
0010
0000
0100
0000
0000
0001
0100
0000
0000
1000
0000
0000
0000
0000
0000
1010
0000
0000
0010
0000
0000
,
0011
0000
1100
0100
0101
0000
1001
0000
,
1100
0100
0010
0000
0001
0100
1100
0000
,
0100
0010
1010
0000
1001
0001
0011
0010
,
0100
0000
1000
0001
0100
0010
1010
0001
,
0010
0000
0000
0000
1100
0000
0000
1001
0000
0000
0101
0000
0110
0000
0000
0000
,
1010
0000
1001
0000
0011
0010
0110
0000
,
0100
1000
0001
0000
0001
0100
1100
0100
,
0001
0000
1000
0100
0010
0100
0101
0100
,
1000
0000
0000
0000
1001
0000
0000
0101
0000
0000
0110
0000
0000
0000
1010
0000
,
1001
0000
0011
0000
0110
0100
1000
0000
,
0001
0100
0010
0000
0011
0000
1010
1000
,
1100
0000
0100
0010
1000
0000
1010
0010
,
0011
0000
0101
0100
1100
0000
1100
0100
,
0001
0000
1000
0000
0000
0100
0010
0000
0100
0000
0001
0000
0000
0100
0010
0000
,
0100
0000
1000
0000
0000
0100
0010
0000
0001
0000
0100
0000
0000
0010
0100
0000
,
1000
0000
0100
0000
0000
0010
0100
0000
0001
0000
1000
0000
0000
0010
0001
0000
,
0010
1000
0100
0000
0001
0000
0201
0000
,
0000
0010
0000
1000
0000
0010
0000
0301
,
0000
0000
0001
0100
1000
0010
0002
0000
,
0000
0010
0000
1000
0000
0010
0000
1003
,
0001
0010
1000
0100
0001
0000
0201
0000
,
0000
0010
0000
1000
0000
0010
0000
0301
,
0000
0000
0001
0100
1000
0001
0200
0000
,
0000
1000
0000
0010
0000
1000
0000
0301
,
1000
0100
0001
0100
0010
0000
0010
0001
,
0000
0000
0000
1000
0000
0010
0000
0000
0100
0010
0000
0000
1000
0000
0000
0000
0000
0000
0001
0000
0000
0010
0000
0000
,
0000
0000
0000
0100
0000
0010
0000
0000
0100
1000
0000
0000
0000
0000
0000
0000
0000
0000
0010
0000
0000
0100
0000
0000
,
0000
0000
0000
1000
0000
0100
0000
0000
0010
0100
0000
0000
0001
0000
0000
0000
0000
0000
0010
0000
0000
0100
0000
0000
,
0000
0000
0000
1000
0000
0100
0000
0000
0010
0100
0000
0000
1000
0000
0000
0000
0000
0000
0001
0000
0000
0100
0000
0000
,
0000
0000
0000
1000
0000
0100
0000
0000
0100
0001
0000
0000
0000
0000
0000
0000
0000
0000
1000
0000
0000
0001
0000
0000
,
0000
0000
0000
0001
0000
0010
0000
0000
0010
1000
0000
0000
0000
0000
0000
0000
0000
0000
0010
0000
0000
0100
0000
0000
,
0000
0000
0000
1000
0000
0010
0000
0000
0010
0001
0000
0000
0000
0000
0000
0000
0000
0000
0001
0000
0000
1000
0000
0000
,
0100
0001
0010
1000
0010
0000
0110
0100
,
1000
0000
0000
0001
0000
0100
0000
0000
0100
1000
0000
0000
0100
0000
0000
0010
0000
0000
0100
0000
0000
0001
0000
0000
,
1000
0000
0000
0100
0000
0001
0000
0000
0001
1000
0000
0000
0010
0000
0000
0001
0000
0000
1000
0000
0000
0010
0000
0000
,
0100
0000
0000
0001
0000
0100
0000
0000
0100
1000
0000
0000
0001
0000
0000
0010
0000
0000
0100
0000
0000
0010
0000
0000
,
1000
0000
0000
0001
0000
0010
0000
0000
0010
1000
0000
0000
0001
0000
0000
0100
0000
0000
1000
0000
0000
0001
0000
0000
,
0100
0000
0000
1000
0000
0100
0000
0000
0100
0001
0000
0000
1000
0000
0000
0100
0000
0000
0010
0000
0000
0100
0000
0000
,
1000
0000
0000
0010
0000
0001
0000
0000
0001
1000
0000
0000
0100
0000
0000
0001
0000
0000
1000
0000
0000
0100
0000
0000
,
0001
0000
0000
1000
0000
0010
0000
0000
0001
1000
0000
0000
0010
0000
0000
0100
0000
0000
0001
0000
0000
1001
0000
0000
,
0000
0000
0000
0000
0000
0010
0000
0000
0010
0000
0000
0000
0000
0000
0000
0000
0000
0000
0000
0000
0000
0000
0000
0000
;

//---------------dance-single - ----------------
#NOTES:
     dance-single:
     :
     Easy:
     7:
     0.295,0.308,0.068,0.008,0.008:
0000
0000
0000
0000
,
0000
0000
0000
0000
,
0000
0000
0000
0000
,
0000
0000
0000
0000
,
0000
0000
0000
0000
,
0000
0000
0000
1001
,
1000
0100
0010
0100
,
0000
1000
0000
1000
,
0001
0000
0000
0001
,
0100
0010
0000
1010
,
1000
0100
0010
0100
,
0000
1000
0000
0001
,
0100
0000
0000
0010
,
0100
0001
1000
0100
,
0000
0010
0000
0001
,
0000
1000
0000
0010
,
0000
0100
0000
0001
,
0000
1000
0100
1000
,
0000
1000
1000
0001
,
0000
0001
0001
0100
,
0000
0100
0100
0010
,
0000
0010
0010
1000
,
0000
1000
1000
0100
,
0000
0100
0100
0010
,
0000
0010
0010
0001
,
0000
0000
0000
0001
,
0100
0001
0100
0010
,
1000
0010
1000
0100
,
0010
0100
0010
0001
,
1000
0001
1000
0010
,
0010
0100
0100
0001
,
0001
1000
1000
0100
,
0100
0010
0010
0001
,
0001
1000
1000
0010
,
0100
0001
0100
0010
,
1000
0100
0010
0100
,
1000
0001
0100
0001
,
0010
0100
1000
0100
,
0001
0100
1000
0100
,
0010
0001
0100
0001
,
1000
0010
0001
0010
,
1000
0000
0001
0001
0001
0000
0010
0000
,
0100
1000
0001
0100
,
0010
1010
0000
1000
,
0100
0010
0000
0011
,
0001
1000
0010
0100
,
0001
1000
0100
0110
,
0000
0100
0000
1000
,
0001
0100
0010
1000
,
0100
0000
0000
0000
0020
0000
0000
0030
0000
0000
0010
0000
0000
0000
0010
0000
,
0010
0001
1000
0010
,
0100
0001
1000
0100
,
0010
0100
1000
0010
,
0100
0001
0101
0000
,
0100
0000
0001
1000
,
1000
0100
0010
0100
,
0000
1000
0000
0001
,
0100
0010
1000
0100
,
0000
0100
0000
0010
0000
0001
0000
1000
,
0000
0010
0100
0001
,
0000
0001
0000
0010
0000
0100
0000
0000
,
1000
0001
0100
0110
,
0000
0010
0000
1000
0000
0100
0000
0010
,
0000
0001
0100
0010
,
0000
0010
0000
1000
0000
0001
0000
0000
,
0010
0100
1000
1001
,
0000
0001
0000
0100
0000
0010
0000
1000
,
0000
0001
0010
0100
,
0000
0100
0000
1000
0000
0100
0000
0000
,
0010
0001
1000
0010
,
0000
0100
0000
0001
0000
0010
0000
0100
,
0000
1000
0100
0010
,
0000
1000
0000
0010
0000
0001
0000
0000
,
1000
0010
0100
0001
,
0010
1000
0001
0100
,
1000
0001
0100
1000
,
0001
0010
1000
0100
,
0010
1000
0001
0110
,
0010
0001
1000
0010
,
0100
1000
0001
0010
,
1000
0000
0001
0000
0010
0000
0100
0001
,
0000
0000
0000
0000
0000
0001
0000
0000
0001
0000
0000
0000
0000
0000
0000
0000
0000
0000
0000
0000
0000
0000
0000
0000
;

//---------------dance-single - Copied from ----------------
#NOTES:
     dance-single:
     Copied from:
     Medium:
     11:
     0.570,0.584,0.257,0.061,0.166: // measure 1
0000
0000
0000
0000
,  // measure 2
0000
0000
0000
0000
,  // measure 3
0000
0000
0000
0000
,  // measure 4
0000
0000
0000
0000
,  // measure 5
0000
0000
0000
0000
,  // measure 6
0000
0000
0000
1002
,  // measure 7
0010
0000
0100
0000
1003
0001
0010
0000
,  // measure 8
0000
0100
0020
0000
0030
0100
0010
0100
,  // measure 9
2000
0000
0000
0000
3000
0001
0100
1000
,  // measure 10
0000
0000
1000
0100
0000
0000
0102
0000
,  // measure 11
0010
0000
1000
0000
0103
0010
0100
0000
,  // measure 12
0100
0001
0010
0000
0100
0000
1000
0100
,  // measure 13
0001
0000
0001
0100
0010
0000
0010
0001
,  // measure 14
0100
0000
0100
0010
1000
0000
0000
0010
,  // measure 15
0100
0000
0001
0000
0000
0001
0010
0000
0100
0000
0010
0000
0000
0000
0001
0000
,  // measure 16
1000
0000
0010
0000
0000
0010
0100
0000
0001
0000
1000
0000
0000
1000
0010
0000
,  // measure 17
0100
0000
0001
0000
0000
0001
0010
0000
0100
0000
1000
0000
0000
0010
0100
0000
,  // measure 18
0001
0000
1000
0000
0000
0100
0010
0000
0001
0000
0100
0000
0010
0000
1000
0000
,  // measure 19
0100
0010
0001
0001
1000
0000
0001
1000
,  // measure 20
0010
0100
0001
0001
1000
0000
0001
0010
,  // measure 21
0100
1000
0001
0001
0100
0000
0010
0100
,  // measure 22
0001
1000
0001
0001
0010
0000
0100
0100
,  // measure 23
1000
1000
0010
0010
0100
0100
0001
0001
,  // measure 24
1000
1000
0100
0100
0001
0001
1000
1000
,  // measure 25
0010
0010
0001
0001
0001
0100
0010
1000
,  // measure 26
0001
0100
0010
1000
0100
0000
0110
0001
,  // measure 27
1000
0010
1000
0001
0010
0100
1000
0001
,  // measure 28
0100
0001
1000
0001
0100
0010
1000
0001
,  // measure 29
1000
0100
1000
0010
0100
0001
0010
0001
,  // measure 30
1000
0010
0100
0001
1000
1000
0001
0010
,  // measure 31
0100
1000
1000
0010
0100
0000
0001
1000
,  // measure 32
0100
0010
0001
0001
1000
0000
0001
0100
,  // measure 33
0010
1000
1000
0100
0010
0000
0001
1000
,  // measure 34
0010
0100
0100
0001
0100
0000
1001
0001
,  // measure 35
0010
1000
0010
0100
0010
0001
1000
0010
,  // measure 36
0100
0001
0100
0010
0100
0001
1000
0100
,  // measure 37
0010
0100
1000
0001
1000
0010
0100
0010
,  // measure 38
1000
0010
0100
1000
0001
1000
0000
0001
,  // measure 39
0010
0100
0010
1000
0010
0100
1000
0001
,  // measure 40
0100
0010
0001
0010
0100
0001
1000
0001
,  // measure 41
0010
0100
0010
0001
1000
0000
1000
0001
,  // measure 42
0011
0000
0001
0100
0101
0000
1001
0000
,  // measure 43
1100
0100
0010
0000
0001
0100
1000
0000
,  // measure 44
0100
0010
1000
0000
1001
0001
0010
0100
,  // measure 45
1000
0000
1000
0001
0100
0010
1000
0001
,  // measure 46
0010
0000
0000
0000
1100
0000
0000
1001
0000
0000
0101
0000
0110
0000
0000
0000
,  // measure 47
1010
0000
1001
0000
0001
0010
0110
0000
,  // measure 48
0100
1000
0001
0000
0001
0100
1000
0100
,  // measure 49
0001
0000
1000
0100
0010
0100
0001
0100
,  // measure 50
1000
0000
0000
0000
1001
0000
0000
0101
0000
0000
0110
0000
0000
0000
1010
0000
,  // measure 51
1001
0000
0011
0000
0110
0100
1000
0000
,  // measure 52
0001
0100
0010
0000
0011
0000
1010
1000
,  // measure 53
1100
0000
0100
0010
1000
0000
1010
0010
,  // measure 54
0011
0000
0101
0100
1100
0000
1100
0100
,  // measure 55
0001
0000
1000
0000
0000
0100
0010
0000
0100
0000
0001
0000
0000
0100
0010
0000
,  // measure 56
0100
0000
1000
0000
0000
0100
0010
0000
0001
0000
0100
0000
0000
0010
0100
0000
,  // measure 57
1000
0000
0100
0000
0000
0010
0100
0000
0001
0000
1000
0000
0000
0010
0001
0000
,  // measure 58
0010
1000
0100
0000
0001
0000
0201
0000
,  // measure 59
0000
0010
0000
1000
0000
0010
0000
0301
,  // measure 60
0000
0000
0001
0100
1000
0010
0002
0000
,  // measure 61
0000
0010
0000
1000
0000
0010
0000
1003
,  // measure 62
0001
0010
1000
0100
0001
0000
0201
0000
,  // measure 63
0000
0010
0000
1000
0000
0010
0000
0301
,  // measure 64
0000
0000
0001
0100
1000
0001
0200
0000
,  // measure 65
0000
1000
0000
0010
0000
1000
0000
0301
,  // measure 66
1000
0100
0001
0100
0010
0000
0010
0001
,  // measure 67
0000
0000
0000
1000
0000
0010
0000
0000
0100
0010
0000
0000
0000
0000
0000
0000
0000
0000
0000
0000
0000
0001
0000
0000
,  // measure 68
0000
0000
0000
0010
0000
0100
0000
0000
0010
1000
0000
0000
0000
0000
0000
0000
0000
0000
0000
0000
0000
0100
0000
0000
,  // measure 69
0000
0000
0000
1000
0000
0100
0000
0000
0010
0100
0000
0000
0000
0000
0000
0000
0000
0000
0000
0000
0000
0001
0000
0000
,  // measure 70
0000
0000
0000
1000
0000
0010
0000
0000
0010
0100
0000
0000
1000
0000
0000
0000
0000
0000
0000
0000
0000
0010
0000
0000
,  // measure 71
0000
0000
0000
0100
0000
0010
0000
0000
0010
0001
0000
0000
0000
0000
0000
0000
0000
0000
0000
0000
0000
0001
0000
0000
,  // measure 72
0000
0000
0000
0001
0000
0010
0000
0000
0010
1000
0000
0000
0000
0000
0000
0000
0000
0000
0000
0000
0000
0001
0000
0000
,  // measure 73
0000
0000
0000
1000
0000
0100
0000
0000
0100
0001
0000
0000
0000
0000
0000
0000
0000
0000
0001
0000
0000
0100
0000
0000
,  // measure 74
0010
0100
1000
0001
0100
0000
0110
0000
,  // measure 75
1000
0000
0000
0001
0000
0100
0000
0000
0100
1000
0000
0000
0100
0000
0000
0000
0000
0000
0100
0000
0000
0000
0000
0000
,  // measure 76
0001
0000
0000
0100
0000
0001
0000
0000
0001
1000
0000
0000
0100
0000
0000
0000
0000
0000
0001
0000
0000
0000
0000
0000
,  // measure 77
1000
0000
0000
0001
0000
0100
0000
0000
0100
1000
0000
0000
0001
0000
0000
0000
0000
0000
0100
0000
0000
0000
0000
0000
,  // measure 78
1000
0000
0000
0001
0000
0010
0000
0000
0010
1000
0000
0000
0001
0000
0000
0000
0000
0000
1000
0000
0000
0001
0000
0000
,  // measure 79
0100
0000
0000
1000
0000
0100
0000
0000
0100
0001
0000
0000
1000
0000
0000
0000
0000
0000
0100
0000
0000
0000
0000
0000
,  // measure 80
0010
0000
0000
0001
0000
0100
0000
0000
0001
1000
0000
0000
0100
0000
0000
0000
0000
0000
0010
0000
0000
0000
0000
0000
,  // measure 81
0001
0000
0000
1000
0000
0010
0000
0000
1000
0001
0000
0000
0010
0000
0000
0100
0000
0000
1000
0000
0000
0010
0000
0000
,  // measure 82
0000
0000
0000
0000
0000
0100
0000
0000
0100
0000
0000
0000
0000
0000
0000
0000
0000
0000
0000
0000
0000
0000
0000
0000
;
