#TITLE:Calamity Fortune;
#SUBTITLE:;
#ARTIST:LeaF;
#TITLETRANSLIT:;
#SUBTITLETRANSLIT:;
#ARTISTTRANSLIT:;
#GENRE:;
#CREDIT:;
#MUSIC:Calamity Fortune.ogg;
#BANNER:Calamity Fortune.png;
#BACKGROUND:Calamity Fortune-bg.png;
#CDTITLE:;
#SAMPLESTART:100.826;
#SAMPLELENGTH:15.000;
#SELECTABLE:YES;
#OFFSET:-0.026;
#BPMS:0.000=200.000
,8.000=100.000
,9.500=200.000
,14.000=100.000
,16.000=200.000
,24.000=400.000
,28.000=200.000
,64.000=100.000
,67.500=200.000
,68.000=100.000
,71.500=200.000
,100.000=400.000
,104.000=200.000
,112.000=100.000
,113.500=200.000
,118.000=400.000
,122.000=200.000
,126.000=400.000
,130.000=200.000
,134.000=400.000
,138.000=100.000
,156.000=200.000
,215.000=400.000
,218.000=200.000
,224.000=400.000
,228.000=200.000
,232.000=400.000
,234.500=200.000
,252.000=400.000
,260.000=100.000
,267.500=200.000
,271.000=400.000
,272.000=200.000
,275.000=400.000
,276.000=200.000
,277.000=400.000
,278.000=200.000
,279.000=400.000
,280.000=200.000
,285.000=400.000
,288.000=200.000
,324.000=400.000
,328.000=200.000
,356.000=400.000
,360.000=100.000
;
#STOPS:9.500=0.150
,24.000=0.113
,24.750=0.037
,25.000=0.075
,25.500=0.075
,26.000=0.150
,27.000=0.075
,27.500=0.075
,67.500=0.150
,71.500=0.150
,100.000=0.113
,100.750=0.037
,101.000=0.075
,101.500=0.075
,102.000=0.150
,103.000=0.075
,103.500=0.075
,113.500=0.150
,118.000=0.037
,118.250=0.075
,118.750=0.037
,119.000=0.075
,119.500=0.075
,120.000=0.075
,120.500=0.037
,120.750=0.037
,121.000=0.037
,121.250=0.037
,121.500=0.037
,121.750=0.037
,126.000=0.150
,127.000=0.150
,128.000=0.150
,129.000=0.150
,134.000=0.075
,134.500=0.037
,134.750=0.037
,135.000=0.075
,135.500=0.037
,135.750=0.075
,136.250=0.075
,136.750=0.037
,137.000=0.075
,137.500=0.075
,215.000=0.075
,215.500=0.150
,216.500=0.150
,217.500=0.075
,224.000=0.150
,225.000=0.150
,226.000=0.150
,227.000=0.150
,232.000=0.150
,233.000=0.150
,234.000=0.075
,252.000=0.075
,252.500=0.075
,253.000=0.037
,253.250=0.037
,253.500=0.037
,253.750=0.037
,254.000=0.037
,254.250=0.037
,254.500=0.037
,254.750=0.037
,255.000=0.075
,255.500=0.075
,256.000=0.075
,256.500=0.037
,256.750=0.037
,257.000=0.075
,257.500=0.037
,257.750=0.075
,258.250=0.075
,258.750=0.037
,259.000=0.075
,259.500=0.075
,267.500=0.150
,271.000=0.150
,275.000=0.150
,277.000=0.150
,279.000=0.150
,285.000=0.037
,285.250=0.037
,285.500=0.037
,285.750=0.037
,286.000=0.037
,286.250=0.037
,286.500=0.037
,286.750=0.037
,287.000=0.037
,287.250=0.037
,287.500=0.037
,287.750=0.037
,324.000=0.037
,324.250=0.037
,324.500=0.075
,325.000=0.075
,325.500=0.037
,325.750=0.075
,326.250=0.075
,326.750=0.037
,327.000=0.075
,327.500=0.075
,356.000=0.037
,356.250=0.037
,356.500=0.075
,357.000=0.075
,357.500=0.037
,357.750=0.075
,358.250=0.075
,358.750=0.037
,359.000=0.075
,359.500=0.075
;
#DISPLAYBPM:100.000:200.000;
#BGCHANGES:-4.250=Calamity Fortune.avi=1.000=0=0=0=StretchNoLoop====,
99999.000=-nosongbg-=1.000=0=0=0=StretchNoLoop====
;
#FGCHANGES:;

//--------------- dance-single - ----------------
#NOTES:
     dance-single:
     :
     Beginner:
     9:
     0,0,0,0,0:
0000
0000
0000
0000
,
1000
0100
1000
0100
,
1000
0000
0000
MMMM
0001
0000
0100
0000
,
0001
0100
0001
0000
,
1000
0010
1000
0010
,
0001
0010
0001
0010
,
1000
0001
0010
1000
,
0010
0001
1000
0001
,
1000
0100
0001
0010
,
0100
0010
0001
0100
,
1000
0010
0001
1000
,
0100
0001
0010
0100
,
1000
0010
0001
0100
,
0010
0100
0001
0010
,
1000
0001
0010
1000
,
0001
0100
1000
0001
,
1000
1000
1000
1000
,
0001
0000
0001
0000
0001
0000
0001
MMMM
,
0100
0100
0010
0010
,
1000
0100
0001
1000
,
0001
0100
1000
0001
,
0100
1000
0001
0010
,
1000
0100
0010
0001
,
1000
0010
0001
1000
,
0001
0010
1000
0001
,
1000
0100
0001
0100
,
1000
0010
0100
0001
,
1000
0010
1000
0010
,
1000
0000
0000
MMMM
0001
0000
0010
0000
,
0001
0010
0001
0001
,
0001
0001
1000
0100
,
1000
0100
0001
0001
,
0001
0001
0100
0001
,
0100
1000
0001
0100
,
0010
1000
0001
0000
,
1000
0000
0100
0000
,
0010
0000
0001
0000
,
0010
0000
0100
0000
,
1000
0000
0000
0000
,
0001
0010
0001
0100
,
0010
1000
0100
1000
,
0001
0010
0100
1000
,
0010
0100
0001
0000
1000
0100
0010
0000
,
0001
0100
0001
0010
,
0100
1000
0010
1000
,
0001
0100
0010
1000
,
0100
0010
0001
0000
1000
0010
0100
0000
,
0001
0010
1000
0010
,
0001
0100
1000
0100
,
0001
0010
1000
0010
,
0001
1000
0010
0100
,
0001
0010
0001
0010
,
0100
1000
0100
1000
,
0010
0000
0100
0000
0010
0000
0100
0001
,
0000
1000
0000
0100
0010
0000
0001
0000
,
1000
0010
0001
0010
,
1000
1000
1000
MMMM
,
0010
0100
0001
1000
,
0100
0100
0100
0000
,
1000
0001
0100
1000
,
0100
0001
1000
0100
,
0001
0100
1000
0001
,
0100
1000
0100
0001
,
1000
0100
1000
0010
,
0100
0001
0010
0001
,
1000
0000
0010
0000
,
0100
0000
0000
0000
0001
0000
0000
MMMM
,
1000
1000
1000
1000
,
0100
0100
0100
0100
,
0010
0010
0001
0001
,
1000
0001
1000
0001
,
1000
0000
0001
0010
0001
0100
0010
1000
,
0100
0010
0001
1000
,
0100
0010
0002
0003
,
1000
0010
0001
0100
,
1000
0100
0001
0010
,
1000
0100
1000
0010
,
0100
0001
0100
0001
,
1000
0100
0001
1000
,
0001
0100
1000
0001
,
0100
1000
0100
0001
,
1000
0000
0000
0000
0010
0000
0000
0100
0000
0100
0000
0000
0001
0000
0001
0000
,
1000
0100
0001
0010
,
1000
0010
0001
0100
,
1000
0010
1000
0100
,
0010
0001
0010
0001
,
1000
0010
0001
1000
,
0100
0001
0010
0100
,
1000
0010
0100
0001
,
1000
0000
0000
0000
0100
0000
0000
0010
0000
0010
0000
0000
0001
0000
0001
0000
,
1000
0000
0000
0000
,
0000
0000
0000
0000
,
0000
0000
0000
0000
,
0000
0000
0000
0000
,
0001
0000
0000
0000
;

//--------------- dance-single - ----------------
#NOTES:
     dance-single:
     :
     Easy:
     13:
     0,0,0,0,0:
0000
0000
0000
0000
,
1000
0000
0100
0000
1000
0010
0100
0000
,
0001
1000
0001
MMMM
0100
0000
0010
0000
,
0100
0001
1000
0000
0200
0302
0203
0000
,
1300
0000
0010
0000
1000
0100
0010
0001
,
0010
0100
1000
0001
,
1000
0000
0010
0100
1000
0000
0100
0001
,
1000
1000
1000
0000
1000
0000
0001
1000
,
0001
0000
0000
0010
0000
0000
0100
0000
0000
0010
0000
0000
0001
0000
1000
0000
,
0010
0000
0000
0001
0000
0000
0010
0000
0000
0000
1000
0000
0001
0000
0010
0000
,
0100
0000
0000
0001
0000
0000
0100
0000
0000
0000
1000
0000
0010
0000
0100
0000
,
0001
0010
0001
0100
0010
0000
1000
0001
,
1000
0000
0000
0010
0000
0000
0100
0000
0000
0010
0000
0000
1000
0000
0001
0000
,
0010
0000
0000
1000
0000
0000
0010
0000
0000
0000
0001
0000
1000
0000
0010
0000
,
0100
0000
0000
1000
0000
0000
0100
0000
0000
0000
0001
0000
0010
0000
0100
0000
,
1000
0010
0100
0001
0010
0200
0000
0000
,
1300
0010
0001
1000
0100
0001
1000
0000
,
0001
0010
1000
0001
0100
1000
0001
MMMM
,
1000
0100
1000
0010
0100
0001
0010
0001
,
1000
0000
0000
0010
0000
0000
0001
0000
0000
0010
0000
0000
1000
0000
0001
0000
,
0010
0000
0000
0100
0000
0000
0001
0000
0000
0100
0000
0000
1000
0000
0001
0000
,
0100
0000
0000
1000
0000
0000
0001
0000
0000
1000
0000
0000
0100
0000
0001
0000
,
1000
0100
0010
0100
1000
0010
0100
0001
,
1000
0000
0000
0100
0000
0000
0001
0000
0000
0100
0000
0000
1000
0000
0001
0000
,
0100
0010
0001
0010
1000
0001
1000
0001
,
0010
0000
1000
0010
0001
0000
1000
0010
,
0100
0100
0100
0000
0100
0000
0001
1000
,
0001
0000
0010
0000
0001
1000
0010
0000
,
0100
0100
0100
0000
0100
0000
MMMM
0000
0001
0000
0000
0000
1000
0000
0000
0000
,
0100
0010
0100
0000
1000
0000
0010
0100
,
0001
0010
0100
1000
0001
0000
0100
0000
,
0010
0001
0010
0000
1000
0000
0100
0000
,
0010
0000
0001
0000
1000
0010
0100
0001
,
1000
0000
0100
0000
0010
0000
0001
0000
1000
0000
0100
0000
1000
0000
0000
0010
,
0000
0010
0000
0000
0100
0000
0100
0000
0001
0000
0000
0000
0000
0000
0000
0000
,
1000
0000
0100
0001
,
0100
0000
1000
0010
,
0100
0000
0001
0000
1000
1000
0100
0100
,
0010
0010
0001
0001
0000
0000
0000
0000
,
1000
0100
1000
0010
0100
0001
0010
0001
,
1000
0010
1000
0100
0010
0001
0100
0001
,
1000
0100
0010
0100
1000
0100
0010
0001
,
1000
0001
0010
1000
0010
0001
0010
0100
,
1000
0010
1000
0100
0010
0001
0100
0001
,
1000
0100
1000
0010
0100
0001
0010
0001
,
1000
0010
0100
0010
1000
0010
0100
0001
,
1000
0001
0100
1000
0100
0001
0100
0010
,
1000
0100
1000
0001
0100
0001
1000
0100
,
1000
0010
1000
0001
0010
0001
1000
0010
,
1000
0001
0010
1000
0001
0100
1000
0001
,
0100
0010
0100
0010
1000
0001
0010
0100
,
1000
0010
1000
0010
0100
0010
0100
0001
,
0010
0001
0100
0010
1000
0100
1000
0001
,
0100
0010
1000
0001
0010
0100
0010
0001
,
0000
1000
0000
0010
0100
0001
1000
0000
,
0200
0000
0000
0000
0000
0000
0300
0010
,
0001
0001
0001
MMMM
,
1000
0010
1000
0010
1000
0000
0001
0000
,
0010
0000
0010
0000
0010
0100
0100
0000
,
1000
0000
0100
0000
0010
0100
1000
0100
,
0010
0000
0001
0000
0010
0100
0010
0001
,
1000
0000
0010
0000
0100
0010
1000
0010
,
0100
0000
0001
0000
0100
0010
0100
0001
,
1000
0100
1000
0001
0100
1000
0100
0001
,
1000
0000
0100
0000
0010
0000
0000
1000
0000
1000
0000
0000
0010
0000
0010
0000
,
0001
1000
0010
0001
,
0010
0000
1000
0000
0001
0000
1000
MMMM
,
1000
0100
1000
0100
1000
0100
1000
0000
,
0001
0100
0001
0100
0001
0100
0001
0000
,
1000
0010
1000
0000
0001
0010
0001
0000
,
1000
0001
1000
0001
1000
0001
1000
0001
,
0000
0000
1000
0100
0001
1000
0010
0001
,
1000
0010
1000
0100
0010
0001
0100
0001
,
1000
0100
0010
0001
1000
0000
0000
0000
,
0001
0000
0000
0100
0000
0000
1000
0000
0100
0000
0010
0000
1000
0000
0100
0000
,
0001
0000
0000
0100
0000
0000
1000
0000
0001
0000
0100
0000
0001
0000
1000
0000
,
0001
0000
0000
0010
0000
0000
0100
0000
0001
0000
0100
0000
1000
0000
0010
0000
,
1000
0100
0010
0001
,
1000
0000
0000
0010
0000
0000
0001
0000
0010
0000
0100
0000
0010
0000
1000
0000
,
0001
0000
0000
0010
0000
0000
0100
0000
0001
0000
0100
0000
1000
0000
0001
0000
,
0100
0000
0000
1000
0000
0000
0100
0000
0001
0000
1000
0000
0100
0000
0010
0000
,
0001
0000
0001
0000
1000
0000
0000
0010
0000
0010
0000
0000
0100
0000
0100
0000
,
0001
0000
0000
1000
0000
0000
0100
0000
0001
0000
0100
0000
1000
0000
0001
0000
,
0100
0000
0000
0010
0000
0000
0001
0000
0010
0000
1000
0000
0001
0000
0010
0000
,
1000
0000
0000
0010
0000
0000
0100
0000
0010
0000
0001
0000
1000
0000
0010
0000
,
0100
0001
1000
0100
,
0010
0001
0010
0001
1000
0010
1000
0010
,
0100
0001
0100
0001
1000
0100
1000
0100
,
1000
0010
0001
0010
1000
0100
0001
0100
,
1000
0000
1000
0000
0010
0000
0000
0100
0000
0100
0000
0000
0001
0000
0001
0000
,
1000
0000
0000
0000
,
0000
0000
0000
0000
,
0001
0000
0000
0000
,
0000
0000
0000
0000
,
1001
0000
0000
0000
;

//--------------- dance-single - ----------------
#NOTES:
     dance-single:
     :
     Medium:
     16:
     0,0,0,0,0:
0000
0000
0000
0000
,
1000
0100
1000
0010
0100
0001
0010
0001
,
1000
0000
0000
0000
1100
0000
0000
0000
1000
0100
1000
0000
MMMM
0000
0000
0000
0001
0000
0000
0000
0100
0000
0000
0000
0001
0000
0000
0000
0010
0000
0000
0000
,
0100
0000
1000
0000
0010
0000
1000
0000
0002
0023
0230
2300
3002
0000
0003
0000
,
1000
0100
1000
0010
0100
0001
0010
0001
,
0100
0001
0010
0100
1000
0001
0100
0010
,
1000
0000
0000
1000
0100
0000
0010
0000
0001
0000
0000
0000
0100
0000
0010
0000
,
1000
0000
1000
0000
1000
0000
0000
0000
1000
0000
0000
0000
0001
0100
0010
1000
,
0001
0000
0000
0010
0000
0000
1000
0000
0010
0000
0001
0000
1000
0000
0010
0000
,
0100
0000
0000
0001
0000
0000
0010
0000
0100
0000
0001
0000
0100
0000
1000
0000
,
0001
0000
0000
0100
0000
0000
0010
0000
0000
0000
0100
0000
0001
1000
0100
0010
,
0001
0000
1000
0000
0010
0000
1000
0000
0100
0000
0000
0000
1000
0001
0100
0010
,
1000
0000
0000
0100
0000
0000
0001
0000
0100
0000
1000
0000
0001
0000
0100
0000
,
0010
0000
0000
0001
0000
0000
0010
0000
1000
0000
0001
0000
0010
0000
0001
0000
,
1000
0000
0000
0010
0000
0000
0100
0000
0000
0000
0010
0000
1000
0001
0010
0000
,
1000
0000
0010
0000
0001
0000
1000
0000
0010
0100
0001
0000
0000
0000
0000
0000
,
1000
0000
0100
0000
1000
0001
0100
0001
0000
0010
0100
1000
0001
0000
0000
0000
,
1000
0000
0010
0000
0100
0010
1000
0001
0000
0010
0001
1000
0010
0000
MMMM
0000
,
1000
0100
1000
0000
0001
0100
0001
0000
1000
0010
1000
0000
0001
0010
0001
0000
,
1000
0000
0000
0010
0000
0000
0001
0000
0000
0010
0000
0000
1000
0000
0001
0000
,
0010
0000
0000
0100
0000
0000
0001
0000
0000
0100
0000
0000
1000
0000
0010
0000
,
0100
0000
0000
1000
0000
0000
0100
0000
0000
0001
0000
0000
1000
0000
0100
0000
,
1000
0000
0010
0000
0100
0000
0001
0000
0010
0001
1000
0000
0010
0000
0100
0000
,
0001
0000
0000
0010
0000
0000
1000
0000
0000
0010
0000
0000
0001
0000
1000
0000
,
0010
0000
0100
0001
1000
0000
0100
0000
0001
0000
0100
0000
1000
0000
0001
0000
,
0100
0000
0000
0100
0010
0000
1000
0000
0001
0000
0000
0000
0010
0000
0100
0000
,
1000
0000
0001
0000
0100
0000
0010
0000
1000
0000
0000
0000
0001
1000
0001
1000
,
0001
0100
0001
0100
0010
1000
0010
1000
,
0001
0001
0001
0001
0001
0000
MMMM
0000
1000
0000
0100
0000
1000
0000
0100
0000
,
0010
0000
0001
0000
0010
0000
0001
0000
1000
0010
0000
0100
0001
0000
0010
0000
,
0100
1000
0001
0100
0010
1000
0100
1000
,
0001
0100
0010
1000
0001
0000
0010
0000
,
0100
0000
1000
0000
0001
0100
1000
0100
,
0001
0000
0010
0000
1000
0000
0010
0000
0001
0000
1000
0010
0100
0000
0001
0010
,
0000
0010
0000
0010
0100
0000
0100
0000
1000
0000
0000
0000
0010
0000
0000
0000
,
0100
0001
1000
0100
,
0010
0000
0001
0000
1000
0010
0100
0010
,
1000
0001
0010
0001
1000
0100
0010
0100
,
1000
0001
0100
0001
0000
0000
0000
0000
,
1000
0000
0100
0000
1000
0000
0010
0000
0100
0000
0001
0000
0010
0000
0001
1000
,
0001
0000
0010
0000
0001
0000
0100
0000
0010
0000
1000
0000
0100
0000
1000
0001
,
1000
0100
0010
0100
1000
0100
0010
0001
,
0100
0001
0100
0000
0010
0100
0010
0000
1000
0010
1000
0000
0001
1000
0001
0000
,
1000
0000
0010
0000
1000
0000
0100
0000
0010
0000
0001
0000
0100
0000
0001
1000
,
0001
0000
0100
0000
0001
0000
0010
0000
0100
0000
1000
0000
0010
0000
1000
0001
,
1000
0010
0100
0010
1000
0010
0100
0001
,
0010
0001
0010
0000
0100
0010
0100
0000
1000
0100
1000
0000
0001
1000
0001
0000
,
1000
0000
0100
0000
0001
0000
1000
0000
0010
0000
0001
0000
1000
0010
1000
0000
,
0001
0000
0010
0000
1000
0000
0001
0000
0100
0000
1000
0000
0001
0100
0001
0000
,
1000
0100
0001
0100
1000
0001
0100
1000
,
0100
0000
0001
0000
1000
0000
0100
0000
0010
0000
0001
0000
1000
0010
0100
0001
,
1000
0000
0010
0000
0001
0000
1000
0000
0100
0000
0001
0000
1000
0100
1000
0000
,
0001
0000
0100
0000
1000
0000
0001
0000
0010
0000
1000
0000
0001
0010
0001
0000
,
1000
0010
0001
0010
1000
0001
0010
0100
,
0000
0100
0000
0100
1000
0001
1000
0000
,
0002
0000
0010
0000
1000
0000
0103
0010
,
1000
1000
1000
MMMM
,
0001
0010
0001
0010
0001
0100
0100
0010
,
1000
0000
1000
0000
1000
0001
0001
0000
,
0100
0000
0010
0000
1000
0000
0001
0000
0010
0000
0100
0000
0010
0000
0001
1000
,
0010
0000
0100
0000
0001
0000
1000
0000
0100
0000
0010
0000
0100
0000
1000
0001
,
0100
0000
0010
0000
0100
0000
0001
0000
1000
0000
0100
0000
0010
0000
0001
1000
,
0010
0000
0100
0000
0010
0000
1000
0000
0001
0000
0010
0000
0100
0000
1000
0001
,
1000
0000
0100
0000
0001
0000
0100
0000
1000
0001
1000
0001
1000
0000
0100
0000
,
0010
0000
0001
0100
0010
0000
1000
0100
0000
0100
0000
0100
0010
0000
0001
0000
,
1000
0010
0001
0010
,
1000
0001
0010
0100
1000
0000
0000
MMMM
,
1000
0100
0010
0100
0010
0001
1000
0000
,
0001
0100
0010
0100
0010
1000
0001
0000
,
1000
0100
0010
0001
1000
0000
0000
0000
0001
0100
0010
1000
0001
0000
0000
0000
,
1000
0100
0001
0100
1000
0010
0001
0010
,
1000
0000
0000
0000
0001
0010
0001
0010
0100
1000
0100
1000
0001
1000
0001
1000
,
0001
0010
0001
0100
0010
1000
0100
1000
,
0001
0000
0100
0000
0010
0000
1000
0000
0001
0000
0010
0100
1000
0000
0000
0000
,
0001
0000
0010
0001
0000
0000
1000
0000
0010
0000
0100
0000
1000
0000
0100
0000
,
0001
0000
1000
0010
0000
0000
0100
0001
0100
0000
1000
0000
0100
0000
0001
0000
,
1000
0000
0100
1000
0000
0000
0010
0000
0100
0000
0001
0000
0010
0000
1000
0000
,
0010
0001
0100
0010
1000
0100
1000
0000
,
0001
0000
0100
0001
0000
0000
1000
0000
0100
0000
0001
0000
0100
0000
1000
0000
,
0001
0000
0100
0010
0000
0000
0100
0001
1000
0000
0100
0000
0010
0000
0100
0000
,
1000
0000
0001
0100
0000
0000
0010
0000
0100
0000
0001
0000
1000
0000
0100
0000
,
0010
0001
1000
0000
0010
0000
0100
0001
0000
0001
0000
0001
0010
0000
0100
0000
,
1000
0000
0010
1000
0000
0001
0010
0000
0100
0000
0010
0000
0001
0000
1000
0000
,
0010
0000
0100
0001
0000
0000
0010
0001
0100
0000
0010
0000
1000
0000
0100
0000
,
1000
0000
0001
0010
0000
0000
0001
0000
1000
0000
0010
0000
0001
0000
0010
0000
,
1000
0000
0001
0000
0010
0100
1000
0100
0010
0000
0000
0000
0001
0000
0000
0000
,
1000
0010
0001
0010
1000
0100
0010
0001
,
1000
0100
0001
0100
1000
0010
0100
0001
,
1000
0100
1000
0010
0100
0001
0010
0001
,
1000
0010
1000
0000
0001
0000
0010
0100
0000
0100
0000
0100
1000
0000
0001
0000
,
0100
0010
1000
0001
,
0010
1000
0010
0001
,
1000
0010
0001
0010
,
1000
0100
0010
0001
,
1000
0000
0000
0000
;

//--------------- dance-single - ----------------
#NOTES:
     dance-single:
     :
     Hard:
     18:
     0,0,0,0,0:
0000
0000
0000
0000
,
1000
0100
1000
0001
1000
0010
1000
0001
,
1000
0000
0000
0000
1100
0000
0000
0001
0010
0001
0000
0000
MMMM
0000
0000
0000
0001
0000
0000
0000
0010
0000
0000
0000
0001
0000
0000
0000
1000
0000
0000
0000
,
0001
0000
0000
0000
0100
0000
0000
0000
0001
0000
0000
0000
1000
0000
0000
0000
0200
0000
0302
0000
0203
0000
2300
0000
3002
0000
0000
0000
0000
0000
1003
0001
,
1000
0100
1000
0010
0100
0001
0010
0001
,
0100
0010
1000
0100
1000
0001
0100
0010
,
1000
0000
0000
0100
0001
0000
0100
0000
1000
0000
0000
0000
0010
0000
0100
0000
,
0001
0000
0001
0000
0001
0000
0000
0000
0001
0000
0000
0000
1000
0100
0010
0001
,
1000
0000
0100
1000
0000
0010
1000
0000
0001
0000
0010
0000
0001
0100
0010
0000
,
1000
0000
0100
1000
0000
0001
0100
0000
0010
0000
0001
0000
0010
1000
0001
0010
,
0100
0000
0010
0001
0000
1000
0010
0000
0100
0000
0001
0000
1000
0100
0010
0100
,
1000
0000
0001
0000
0100
0000
1000
0000
0100
0000
0000
0000
0001
0010
0100
1000
,
0001
0000
0010
0001
0000
1000
0010
0000
0001
0000
0010
0000
1000
0001
0010
0000
,
0100
0000
0010
0001
0000
1000
0010
0000
0100
0000
0001
0000
0100
0010
0100
0000
,
0001
0000
0010
0001
0000
0100
0010
0000
1000
0000
0001
0000
0010
1000
0010
0000
,
0001
0000
1000
0010
1000
0000
0001
0000
0010
0100
2000
0000
0000
0000
3000
0000
,
0001
0010
0001
1000
0010
1000
0001
0100
0001
1000
0100
1000
0010
0000
0000
0000
,
1000
0100
0010
1000
0010
0001
1000
0100
0001
0100
0010
0001
1000
0000
MMMM
0000
,
1000
0100
1000
0100
0010
0001
0010
0001
1000
0010
1000
0010
0100
0001
0100
0001
,
1000
0000
0100
1000
0000
0001
0100
0000
0001
0010
0000
0000
0100
0000
0010
0000
,
0001
0000
1000
0010
0000
0100
0001
0000
1000
0100
0000
0010
0100
0000
1000
0000
,
0001
0000
0100
1000
0000
0100
0010
0000
1000
0100
0000
0010
0001
0000
1000
0000
,
0010
0000
0001
0000
0010
0000
1000
0000
0001
0010
0001
0000
1000
0000
0010
0000
,
1000
0000
0100
1000
0000
0001
0100
0000
0010
0001
0000
0000
0010
0000
1000
0000
,
0001
0000
0010
0001
1000
0010
0100
0001
1000
0000
0100
0000
0001
0000
0100
0000
,
1000
0000
0000
0001
0100
0000
1000
0000
0100
0000
0000
0000
0010
0000
1000
0000
,
0001
0000
0001
0000
0001
0000
0000
0000
0001
0000
0000
0000
1000
0001
1000
0001
,
1000
0100
0010
0100
0001
0100
0010
0100
,
1000
0000
0010
1000
0010
0000
1000
0000
0010
0000
0000
0000
MMMM
0000
0000
0000
1000
0000
0000
0000
0001
0000
0000
0000
0010
0000
0000
0000
0001
0000
0000
0000
,
1000
0000
0001
0000
0100
0000
0001
0000
1000
0100
0000
0010
0001
0000
0100
0000
,
0010
0000
0100
0001
0010
0100
1000
0001
0100
0000
0010
0000
1000
0000
0001
0000
,
0010
0000
0100
0000
0010
0000
0001
1000
0001
0000
0000
0000
0100
0000
0000
0000
,
0010
0000
1000
0000
0100
0001
0100
1000
,
0001
0000
0100
0000
1000
0000
0100
0000
0001
0000
1000
0100
1000
0000
0010
0100
,
0000
0000
0001
0000
0000
0000
1000
0000
0100
0000
0000
0000
0010
0000
0000
0000
0001
0000
0000
0000
0000
0000
0000
0000
1000
0000
0000
0010
0000
0000
0100
0000
,
0010
0000
0000
0000
0000
0000
0000
0000
1000
0000
0000
0001
0000
0000
0010
0000
0100
0000
0000
0000
0001
0000
0000
0000
0100
0000
0000
0000
1000
0000
0000
0000
,
0001
0000
0000
0000
0000
0000
0000
0000
0000
0000
0000
0000
0000
0000
0000
0000
0100
0000
0000
0000
0000
0000
0000
0000
0010
0000
0000
1000
0000
0000
0001
0000
,
0010
0000
0000
0000
0000
0000
0000
0000
1000
0000
0000
0010
0000
0000
0001
0000
0100
0000
0000
0000
0010
0000
0000
0000
1000
0000
0000
0000
0001
0000
0000
0000
,
0010
0000
0100
0010
0001
0000
1000
0000
0000
0000
0000
0000
0000
0000
0000
0000
,
0001
0010
0001
0010
0001
0000
1000
0000
0010
0000
1010
0000
1000
0000
0001
0000
,
0100
0010
0100
0000
0001
0010
0000
0000
0001
1000
0010
0000
0100
0001
0100
0000
,
0001
0000
0010
0000
1001
0000
1000
0000
0010
0000
0100
0001
1000
0000
0100
0000
,
0010
0001
1000
0010
0100
0001
1000
0100
0010
0100
1000
0001
0100
0010
1000
0001
,
1000
0100
1000
0100
1000
0000
0000
0001
0100
0001
1000
0000
0100
0010
0100
0000
,
0010
0001
0000
0000
1000
0010
0000
0000
0100
0001
0000
0001
1000
0100
1000
0000
,
0001
0100
0010
0000
0100
0000
0001
0000
1000
0100
0010
0100
0010
0001
1000
0000
,
0001
0010
0001
1000
0010
0100
0010
1000
0001
0010
0100
1000
0001
0100
0001
1000
,
0100
0000
1000
0001
0100
0000
0010
0000
0100
0001
0100
0000
0010
1000
0010
0000
,
1000
0000
0001
0010
0100
0000
0010
0000
0001
1000
0010
0000
0100
0001
1000
0000
,
0100
0000
0010
0000
0100
0000
1000
0000
0001
0100
0001
0000
1000
0010
1000
0000
,
0001
0000
0010
0001
0010
0000
0100
0010
0100
0000
1000
0000
0001
0000
0100
0000
,
0010
0000
0100
0001
1000
0000
0100
0000
0010
0100
1000
0000
0001
0100
0010
0000
,
0100
0000
0001
1000
0100
0000
0001
0000
0100
1000
0001
0000
0100
0010
0100
0000
,
0001
0000
0010
0000
0001
0000
0100
0000
0010
1000
0100
0000
1000
0000
0001
0000
,
0000
0001
0000
0001
0100
0010
1000
0000
,
0002
0000
0000
0000
1000
0000
0000
0000
0100
0000
0000
0000
0013
0000
0100
1000
,
0100
0100
0100
MMMM
,
1000
0000
0010
1000
0001
0000
0010
0000
0100
0000
0010
0001
1000
0000
0010
0000
,
0100
0000
0000
0000
0100
0000
0000
0000
0100
0000
0001
0000
0001
0000
1000
0001
,
1000
0000
0100
0000
0010
0000
0100
0000
1000
0100
0010
0001
0010
0100
0010
0001
,
1000
0000
0010
0000
0100
0000
0010
0000
1000
0010
0100
0001
0100
0010
0100
0001
,
1000
0000
0100
0000
0010
0000
0100
0000
1000
0010
0100
0001
0010
0100
0010
0001
,
1000
0000
0010
0000
0100
0010
1000
0100
0010
0001
0100
0010
0100
0001
0010
0100
,
1000
0000
0001
0000
0100
0010
0100
0010
1000
0001
0010
0100
0010
0000
0001
0000
,
1000
0000
0010
0001
0010
0000
1000
0001
0000
0010
0000
0100
1000
0000
0001
0000
,
1000
0000
0000
0000
0000
0000
0000
0000
0100
0000
0000
1000
0000
0000
0001
0000
0100
0000
0000
0000
0000
0000
0000
0000
0001
0000
0000
0010
0000
0000
1000
0000
,
0010
0001
0100
0010
1000
0000
0000
MMMM
,
0001
0100
0001
0100
0010
1000
0010
1000
0001
1000
0001
1000
0001
0000
0000
0000
,
1000
0100
1000
0100
0010
0001
0010
0001
1000
0001
1000
0001
1000
0000
0000
0000
,
0001
0100
0010
1000
0001
0000
0000
0000
1000
0100
0010
0001
1000
0000
0000
0000
,
0001
1000
0001
1000
0001
1000
0001
1000
0001
1000
0001
1000
0001
1000
0001
1000
,
0001
0000
0000
0000
1000
0100
1000
0010
0100
0001
0010
0001
0100
0010
1000
0100
,
1000
0000
0010
0100
0001
1000
0100
0010
0001
1000
0010
0000
0100
0001
0000
1000
,
0100
0010
0100
1000
0001
0100
0010
0100
0002
0000
0000
0000
0003
0000
0000
0000
,
1000
0000
0100
0001
0000
0100
1000
0000
0010
0000
0100
0000
0001
0000
0010
0000
,
0001
0000
0100
1000
0000
0000
0100
0001
1000
0000
0100
0000
0010
0000
0100
0000
,
1000
0000
0001
0100
0000
0000
0010
0000
0001
0000
0010
0000
1000
0000
0001
0000
,
0010
0000
0001
1000
0010
0000
0100
0001
1000
0000
0100
0010
0001
0000
0000
0000
,
1000
0000
0010
0001
0000
0010
1000
0000
0100
0000
0010
0000
0001
0000
0100
0000
,
0001
0000
0010
1000
0000
0000
0010
0001
1000
0000
0010
0000
0100
0000
0010
0000
,
1000
0000
0001
0010
0000
0000
0100
0000
0001
0000
0100
0000
1000
0000
0001
0000
,
0100
0010
1000
0000
0001
0000
0010
1000
0000
0010
0000
0100
1000
0000
0001
0000
,
1000
0000
0100
1000
0000
0001
0100
0000
1000
0000
0100
0000
0001
1000
0100
0010
,
0001
0000
0100
0010
0000
0000
0100
0001
1000
0000
0100
0000
0010
0100
1000
0000
,
0001
0000
0100
1000
0000
0100
0010
0000
1000
0000
0001
0000
0010
0000
0100
0000
,
0010
0000
0001
1000
0010
0100
0010
1000
0001
0000
0000
0000
0010
0000
0000
0000
,
0100
0000
1000
0001
0000
0100
0010
0000
0100
0001
1000
0100
1000
0010
0100
0001
,
0010
0000
0001
0100
0000
0000
0001
0010
0001
0000
1000
0000
0010
0100
0001
1000
,
0100
0000
0001
0100
0000
0010
0001
0000
0100
0010
1000
0001
0010
0100
0010
0001
,
1000
0010
1000
0000
0001
0000
0010
1000
0000
0010
0000
0001
1000
0000
0010
0000
,
0100
0000
0000
0001
0000
0000
0010
0000
0001
0000
1000
0000
0010
0000
0100
0000
0001
0000
0000
0010
0000
0000
1000
0010
0001
0000
1000
0000
0010
0000
0100
0000
,
0010
0000
0000
1000
0000
0000
0100
0000
0001
0000
0100
0000
1000
0000
0010
0000
0100
0000
0001
1000
0100
0000
0010
0001
1000
0000
0010
0000
0100
0000
0000
0000
,
0001
0000
0000
0010
0001
0100
0010
1000
0100
0000
0100
1000
0001
0100
1000
0100
,
0001
0000
0000
0000
1000
0000
0100
0000
1000
0000
0010
0000
0100
0000
0001
0000
0010
0000
0000
0001
1000
0000
0000
0010
0100
0000
0001
0000
1000
0000
0000
0000
,
0100
0000
0000
0000
;

//--------------- dance-single - ----------------
#NOTES:
     dance-single:
     :
     Challenge:
     19:
     0,0,0,0,0:
0000
0000
0000
0000
,
1000
0000
0001
0100
0001
0100
0000
0001
0000
0010
0000
1000
0010
0000
0001
0000
,
1000
0000
0000
0000
1100
0000
0010
0001
0010
0001
0010
0000
MMMM
0000
0000
0000
0001
0000
0100
0000
0001
0000
0000
0000
1000
0000
0000
0000
0100
0000
0010
0000
,
0000
0000
1000
0000
0000
0000
0010
0000
0001
0000
0000
0000
1000
0000
0000
0000
0002
0000
0203
0000
2300
0000
3200
0000
0302
0000
0000
0000
0000
0000
1003
0001
,
1000
0000
0010
0100
0010
0000
1000
0000
0001
0010
0000
1000
0010
0000
0001
0000
,
1000
0010
1000
0000
0001
0000
0010
0001
0010
0001
0010
0001
1000
0000
0001
0000
,
1100
0000
0000
0001
0100
0000
0001
0000
1001
0000
0000
0000
0010
0000
0010
0000
,
1001
0000
1001
0000
1001
0000
0000
0000
1001
0000
0000
0000
1000
0100
0010
0001
,
1000
0000
0010
0100
0000
0010
0001
0000
0010
0000
0100
0000
0001
1000
0100
0000
,
1000
0000
0001
0100
1000
0000
0100
0000
0010
0000
0100
0000
0001
0010
0100
1000
,
0001
0000
0100
0010
0000
0000
0001
0000
0010
0000
1000
0000
0001
0010
0100
0000
,
1000
0000
0010
0000
0001
0000
0010
0000
1000
0000
0000
0000
0001
0010
0100
1000
,
0001
0000
0100
0010
0000
0100
1000
0000
0100
0000
0010
0000
1000
0001
0010
0000
,
0001
0000
1000
0010
0001
0000
0010
0000
0100
0000
0010
0000
1000
0100
0010
0001
,
1000
0000
0010
0100
0000
0000
1000
0000
0100
0000
0001
0000
1000
0100
1000
0000
,
0001
0000
0100
0001
0010
0000
0100
0000
1000
0001
2000
0000
0001
0000
3000
0000
,
0001
0000
0000
0000
0011
0000
0000
0000
1000
0000
0010
1000
0010
0000
1000
0000
0000
0000
0001
0000
0010
0100
1000
0100
0010
0001
1000
0000
0000
0000
0000
0000
,
1000
0000
0010
0000
1010
0000
0000
0000
0001
0000
0010
0001
0010
0000
0001
0000
0000
0000
1000
0000
0010
0100
0010
1000
0001
0010
0100
0000
MMMM
0000
0000
0000
,
1000
0100
1000
0010
0100
0001
0010
0001
1000
0100
1000
0010
0100
0001
0010
0001
,
1000
0000
0100
0010
0000
0100
0001
0000
0100
0010
0000
0000
0100
0000
1000
0000
,
0001
0000
0100
0010
0000
0000
0001
0000
0010
1000
0001
0000
1000
0000
1000
0000
,
0001
0000
0100
1000
0000
0100
0010
0000
1000
0001
0000
0010
0100
0000
0010
0000
,
0001
0000
1000
0000
0010
0000
0001
0000
0010
1000
0001
0000
0010
0000
0100
0000
,
1000
0000
0001
0100
0000
0010
0100
0000
1000
0100
0001
0000
1000
0000
0100
0000
,
1000
0000
0001
0100
0001
0010
0100
1000
0010
0000
0100
0000
0001
0000
0010
0000
,
0011
0000
0000
1000
0010
0000
0100
0000
1001
0000
0000
0000
1000
0000
0001
0000
,
1000
0000
0100
0000
0010
0000
0001
0000
1000
0000
0000
0000
0001
1000
0001
1000
,
0001
0000
0100
0000
0010
0000
0100
0000
0010
1000
0100
1000
0001
0000
1000
0000
,
0001
0000
0010
0001
0010
0000
0001
0000
0010
0001
0010
0000
MMMM
0000
0000
0000
0001
0000
0000
0000
1000
0000
0000
0000
0010
0000
0000
0000
1000
0000
0000
0000
,
0001
0010
0100
0010
0001
0000
1000
0000
0010
0001
0000
0010
1000
0000
0001
0000
,
1000
0000
0100
1000
0010
0100
0001
0010
0001
0000
1000
0000
0010
0000
1000
0001
,
0010
0100
1000
0000
0001
0000
1000
0010
1000
0000
0000
0000
0100
0000
0000
0000
,
0010
0000
0000
0000
0001
0000
0000
0000
1000
0010
1000
0010
0100
0001
0100
0001
,
1000
0100
0010
0001
0010
0100
0010
0001
1000
0000
0100
1000
0001
0000
0100
0010
,
0000
0100
0000
0001
1000
0000
0100
0000
1000
0000
0000
0000
0000
0000
0000
0000
,
0001
0000
0100
0010
,
1000
0000
0000
0000
0000
0000
0000
0000
0000
0000
0000
0000
0000
0000
0000
0000
1000
0100
1000
0100
1000
0100
1000
0100
0010
0001
0010
0001
0010
0001
0010
0001
,
1000
0010
1000
0010
1000
0010
1000
0010
0100
0001
0100
0001
0100
0001
0100
0001
1000
0100
1000
0100
0010
0100
0010
0100
0010
0001
0010
0001
1000
0000
0000
0000
,
1100
0000
0000
0000
0011
0000
0001
0000
0110
0000
0000
0000
1001
0000
0000
0000
0001
0100
0001
1000
0100
1000
0010
0100
0001
1000
0100
0010
0001
0000
0000
0000
,
1000
0100
1000
0010
0100
0010
0100
0001
0010
0001
1000
0010
0100
0001
0010
0001
,
1000
0010
1000
0100
0010
0100
1000
0001
0100
0010
0100
0010
0100
0001
1000
0000
,
0001
1000
0100
1000
0010
0100
0001
0010
0001
1000
0010
1000
0010
0100
0001
1000
,
0001
0010
0100
0010
0001
0010
0100
1000
0001
0010
0100
0010
0100
1000
0001
0000
,
1000
0100
0010
0100
1000
0001
0100
0001
1000
0010
0100
0001
0010
0001
1000
0010
,
0100
0001
0010
0001
1000
0100
0010
0001
1000
0010
0100
0010
0100
0001
0010
0000
,
0001
1000
0010
1000
0100
0010
0001
0100
0001
1000
0001
1000
0100
0010
0001
0010
,
0100
0010
0100
1000
0001
0100
0010
0100
0010
1000
0001
0010
0100
1000
0100
0000
,
1000
0010
1000
0010
1000
0000
0001
0010
0100
0010
0001
0000
0100
0010
0100
0000
,
0001
0010
0001
0010
0001
0000
1000
0010
0100
0010
1000
0000
0100
0010
0100
0000
,
1000
0001
1000
0001
1000
0000
0100
0010
0001
0010
0100
0000
1000
0010
1000
0000
,
0001
0010
0100
1000
0001
0100
0010
0100
0010
0000
1000
0000
0100
1000
0001
0000
,
0100
0010
1000
0001
0010
0100
0010
0001
1000
0010
0100
0001
0010
0001
0100
0010
,
1000
0001
0010
0100
1000
0100
0010
0001
1000
0010
1000
0010
0100
0001
1000
0100
,
0010
0100
1000
0001
0100
0010
1000
0001
0010
0100
0010
0001
1000
0000
1100
0000
,
0000
0011
0000
1001
0001
0010
0200
0300
,
2000
0000
0000
0000
0010
0000
0000
0000
0001
0000
0000
0000
3100
0000
0010
0001
,
0010
0010
0010
MMMM
,
0001
0000
0000
0000
0000
0000
1000
0000
0000
0010
0000
0000
1000
0000
0000
0000
0000
0000
0001
0000
0000
0000
0000
0000
0010
0000
0000
0000
0000
0000
0100
0000
1000
0000
0100
0000
1000
0000
0000
0000
0000
0000
0001
0000
0000
0000
0000
0000
,
0100
0000
0000
0000
0000
0000
0100
0000
0000
0000
0000
0000
0100
0000
0000
0001
0000
0000
0001
0000
0000
1000
0001
1000
,
0001
0000
1000
0100
1000
0001
0100
0010
0100
0001
1000
0100
0010
0001
0010
0100
,
1000
0000
0001
0000
0100
0010
0100
0001
0010
0001
0010
0001
1000
0010
0100
0001
,
1000
0000
0100
0000
0010
0100
1000
0001
0100
0010
1000
0100
1000
0010
0100
0001
,
1000
0000
0001
0010
0001
0100
0010
1000
0100
1000
0001
0100
0001
0010
0100
1000
,
0001
0000
0200
0000
0320
2030
3020
2030
3001
0010
0001
0010
0100
0000
0100
0000
,
1000
0000
0010
0001
0010
0000
1000
0001
0000
0010
0000
1000
0010
0000
0001
0000
,
1000
0000
0000
0000
1010
0000
0000
0000
0001
0010
0001
0000
0010
0000
0010
0000
0002
0000
0000
0000
1003
0000
0000
0000
0010
0100
0010
0000
1000
0000
0000
0000
,
0100
0000
0100
0000
0010
0000
0010
0000
0001
0000
1000
0000
0010
0000
0010
0000
0100
0000
0000
0000
0101
0000
0000
0000
0001
1000
0001
0000
MMMM
0000
0000
0000
,
1000
0100
1000
0100
0010
0001
0010
0001
0100
0010
0100
0010
1000
0000
0000
0000
,
0001
0100
0001
0100
0010
1000
0010
1000
0100
0010
0100
0010
0001
0000
0000
0000
,
1000
0100
0010
0001
1000
0000
0000
0000
0001
0100
0010
1000
0001
0000
0000
0000
,
1000
0001
1000
0001
1000
0001
1000
0001
1000
0001
1000
0001
1000
0001
1000
0001
,
1000
0000
0000
0000
0001
0010
0001
0100
0010
1000
0100
1000
0010
0100
0001
0010
,
0001
1000
0010
1000
0100
0010
0001
0100
0001
1000
0100
1000
0010
0100
0001
0010
,
0001
0000
0000
1000
0000
0000
0010
0000
0000
0100
0000
0000
0001
0000
0000
1000
0000
0000
0100
0000
0000
0010
0000
0000
0002
0000
0000
0000
0000
0000
1003
0000
0100
0000
0010
0000
0001
0000
0000
0000
0000
0000
0000
0000
0000
0000
0000
0000
,
1000
0000
0100
1000
0000
0100
0001
0000
0100
0000
0010
0000
0001
0000
1000
0000
,
0010
0000
0000
0000
0000
0000
0100
0000
0000
0001
0000
0000
1000
0000
0000
0000
0000
0000
0100
0000
1000
0000
0001
0000
0100
0000
0000
0000
0000
0000
1000
0000
0000
0000
0000
0000
0100
0000
0000
0000
0000
0000
0001
0000
0000
0000
0000
0000
,
1000
0000
0100
0010
0000
1000
0010
0000
0001
0000
1000
0000
0010
0000
0100
0000
,
0001
0000
0000
0000
0000
0000
0010
0000
0001
0000
1000
0000
0010
0000
0000
0000
0000
0000
0100
0000
0001
0000
1000
0000
0100
0000
0000
0010
0000
0000
0001
0000
0000
0010
0000
0000
0001
0000
0000
1000
0000
0000
0001
0000
0000
1000
0000
0000
,
0001
0000
0100
0010
0000
0001
0010
0000
1000
0000
0100
0000
1000
0000
0010
0000
,
0100
0000
0000
0000
0000
0000
0001
0000
0000
1000
0000
0000
0001
0000
0000
0000
0000
0000
0010
0000
0001
0000
1000
0000
0010
0000
0000
0000
0000
0000
0001
0000
0000
0000
0000
0000
0010
0000
0000
0000
0000
0000
1000
0000
0000
0000
0000
0000
,
0001
0000
0010
0001
0000
0010
1000
0000
0010
0001
0010
0001
1000
0010
1000
0010
,
1000
0001
0010
0000
0011
0000
0001
1000
0000
0010
0000
0001
0010
0000
1000
0000
,
0001
0000
0100
0010
0100
0001
1000
0000
0100
0010
0100
1000
0001
0000
0100
0000
,
1000
0000
0000
0000
0000
0000
0100
0000
0000
0001
0000
0000
1000
0000
0000
0000
0000
0000
0100
0000
1000
0000
0001
0000
0100
0000
0000
0000
0000
0000
0010
0000
0000
0100
0000
0000
0001
0000
0000
1000
0000
0000
0100
0000
0000
0010
0000
0000
,
0001
0000
1000
0010
1000
0100
0010
0100
0010
0000
0001
0000
1000
0010
0100
0001
,
1000
0000
0000
0000
0000
0000
0100
0000
0000
1000
0000
0000
0001
0000
0100
0000
0010
0000
0100
0000
0001
0000
0100
0000
0010
0000
0000
0000
0000
0000
0000
0000
0000
0000
0000
0000
1000
0000
0000
0001
0000
0000
1000
0000
0000
0001
0000
0000
,
0100
0010
1000
0001
0010
0100
0010
0001
1000
0010
0100
0010
1000
0001
0010
0001
,
1000
0100
1000
0010
0100
0001
0010
0001
0100
0010
0100
0010
1000
0001
0010
0100
,
0010
0001
1000
0010
0100
0001
0010
0001
1000
0010
1000
0100
0010
0001
0100
0001
,
1000
0100
0001
0000
0100
0000
1000
0001
0000
0100
0000
1000
0100
0000
0001
0000
,
2000
0000
3200
0000
,
0320
0000
0000
0000
,
0032
0000
0203
0000
,
0310
1000
0100
1000
0010
0100
0001
0010
0001
1000
0010
0100
0001
0100
0010
0100
0001
1000
0100
0010
0001
1000
0010
0100
0001
1000
0001
1000
0001
1000
0001
1000
,
0002
0000
0000
0000
,
0000
0000
0000
0000
0000
0000
0000
0000
0000
0000
0000
0000
0000
0000
0000
0000
0000
0000
0000
0000
0000
0000
0000
0000
0000
0000
0000
0000
0000
0000
0000
0003
0000
0000
0000
0000
0000
0000
0000
0000
0000
0000
0000
0000
0000
0000
0000
0000
0000
0000
0000
0000
0000
0000
0000
0000
0000
0000
0000
0000
0000
0000
0000
0000
;
