#VERSION:0.83;
#TITLE:ぼくの夢、メチャクソ無限湧き;
#SUBTITLE:;
#ARTIST:ARuFa & t+pazolite & かめりあ;
#TITLETRANSLIT:Boku no Yume, Mecha Kuso Mugen Waki;
#SUBTITLETRANSLIT:;
#ARTISTTRANSLIT:ARuFa & t+pazolite & Camellia;
#GENRE:;
#ORIGIN:;
#CREDIT:;
#BANNER:Boku no Yume Mecha Kuso Mugen Waki.png;
#BACKGROUND:Boku no Yume Mecha Kuso Mugen Waki-bg.png;
#PREVIEWVID:;
#JACKET:Boku no Yume Mecha Kuso Mugen Waki-jacket.png;
#CDIMAGE:;
#DISCIMAGE:;
#LYRICSPATH:;
#CDTITLE:cdtitle.png;
#MUSIC:Boku no Yume Mecha Kuso Mugen Waki.ogg;
#OFFSET:0.324100;
#SAMPLESTART:48.852123;
#SAMPLELENGTH:18.731709;
#SELECTABLE:YES;
#DISPLAYBPM:80.000000:205.000000;
#BPMS:0.000=205.000,
232.000=200.000,
233.500=180.500,
236.000=140.000,
300.000=130.000,
301.000=120.000,
302.000=100.000,
303.000=80.000,
304.000=90.000,
306.000=205.000;
#STOPS:;
#DELAYS:;
#WARPS:;
#TIMESIGNATURES:0.000=4=4;
#TICKCOUNTS:0.000=4;
#COMBOS:0.000=1;
#SPEEDS:0.000=1.000=0.000=0;
#SCROLLS:0.000=1.000;
#FAKES:;
#LABELS:0.000=Song Start;
#BGCHANGES:;
#KEYSOUNDS:;
#ATTACKS:
;

//---------------dance-single - ----------------
#NOTEDATA:;
#CHARTNAME:;
#STEPSTYPE:dance-single;
#DESCRIPTION:;
#CHARTSTYLE:;
#DIFFICULTY:Hard;
#METER:13;
#RADARVALUES:0.625533,0.754395,0.468121,0.871425,0.057615,608.000000,543.000000,65.000000,121.000000,0.000000,0.000000,0.000000,0.000000,0.000000,0.625533,0.754395,0.468121,0.871425,0.057615,608.000000,543.000000,65.000000,121.000000,0.000000,0.000000,0.000000,0.000000,0.000000;
#CREDIT:;
#OFFSET:0.324100;
#BPMS:0.000000=205.000000
,232.000000=200.000000
,233.500000=180.500000
,236.000000=140.000000
,300.000000=130.000000
,301.000000=120.000000
,302.000000=100.000000
,303.000000=80.000000
,304.000000=90.000000
,306.000000=205.000000
;
#STOPS:;
#DELAYS:;
#WARPS:;
#TIMESIGNATURES:0.000000=4=4
;
#TICKCOUNTS:0.000000=4
;
#COMBOS:0.000000=1
;
#SPEEDS:0.000000=1.000000=0.000000=0
;
#SCROLLS:0.000000=1.000000
,232.000000=1.025000
,233.500000=0.775623
,236.000000=1.000000
,304.000000=0.888888
,306.000000=1.000000
;
#FAKES:;
#LABELS:0.000000=Song Start
;
#DISPLAYBPM:140.000000:205.000000;
#NOTES:
// measure 0
0000
0000
0000
0000
,  // measure 1
0000
0000
0000
0000
,  // measure 2
0000
0000
0000
0000
,  // measure 3
0000
0000
0000
0000
,  // measure 4
0000
0000
0000
0000
,  // measure 5
1000
0000
0100
0000
1000
0000
0100
1000
,  // measure 6
0001
0000
0100
0000
0001
0000
0100
0001
,  // measure 7
1000
0100
0010
0001
0010
0100
1000
0001
,  // measure 8
2000
0000
0000
0000
3010
0100
0001
0000
,  // measure 9
1002
0000
1003
0100
0010
0100
0001
0000
,  // measure 10
0001
0100
0010
0100
1000
0001
1000
0000
,  // measure 11
2001
0000
3001
0100
0010
0100
1000
0000
,  // measure 12
1000
0100
0001
1000
0010
0000
0110
0000
,  // measure 13
2001
0000
3001
0010
0100
0010
1000
0000
,  // measure 14
1000
0010
0100
0010
0001
1000
0001
0000
,  // measure 15
1002
0000
1003
0010
0001
1000
0100
0001
,  // measure 16
0000
0000
1000
0001
1000
0000
0000
0000
0101
0000
0000
0000
1100
0000
0000
0000
,  // measure 17
2002
3003
1200
0010
,  // measure 18
0001
0001
0010
1300
,  // measure 19
2002
3003
1020
0100
,  // measure 20
0001
0001
0100
1030
,  // measure 21
2002
3003
0021
0100
,  // measure 22
1000
1000
0100
0031
,  // measure 23
1002
0203
0320
0230
,  // measure 24
2300
0000
0000
0000
3001
0010
1000
0000
,  // measure 25
0001
0010
0001
0010
0100
1000
0001
0000
,  // measure 26
0001
0010
1000
0010
0001
0100
0010
0000
,  // measure 27
1000
0010
2020
3030
0001
0010
0022
0033
,  // measure 28
1000
0010
0100
0001
0010
0000
2002
3003
,  // measure 29
1000
0010
1000
0010
0100
0001
1000
0000
,  // measure 30
1000
0010
0001
0010
1000
0100
0010
0000
,  // measure 31
0001
0010
0220
0330
1000
0010
0220
0330
,  // measure 32
0001
0000
0010
0000
0001
0000
0010
0000
1000
0000
0000
1000
0010
0000
0001
0000
,  // measure 33
1000
0000
0010
0000
1000
0010
0000
0200
,  // measure 34
0000
0000
0301
0000
0010
0001
0010
0200
,  // measure 35
0000
0000
2300
0000
3020
0032
0000
0023
,  // measure 36
0000
0000
2030
0000
3200
0302
0203
2300
,  // measure 37
3002
0000
0103
0000
0100
0010
0000
2000
,  // measure 38
0000
3100
0010
0100
0010
0001
0100
0010
,  // measure 39
2000
3002
0023
0230
,  // measure 40
1300
1100
0000
0000
0001
0101
0000
0000
,  // measure 41
1001
0000
1001
0000
0001
1000
0001
1000
,  // measure 42
0001
0010
0001
0010
1000
0002
0000
1003
,  // measure 43
0010
1000
0010
0001
2000
0000
3001
0100
,  // measure 44
0010
1000
0010
1000
0100
0010
0001
1000
,  // measure 45
0010
0101
0011
1100
,  // measure 46
0001
0100
0001
0100
1000
0002
0000
1003
,  // measure 47
0100
1000
0100
0001
2000
0000
3001
1000
,  // measure 48
0100
0010
0001
1000
0100
0001
0100
1000
,  // measure 49
0002
2003
3002
0000
0203
0000
0310
0000
,  // measure 50
1000
0010
1000
0010
0001
2000
0000
3001
,  // measure 51
0010
0001
0010
1000
0002
0000
1003
0100
,  // measure 52
0010
0001
0010
0001
0100
0010
1000
0001
,  // measure 53
0020
0100
0000
0100
0000
0100
0130
0000
,  // measure 54
1000
0100
1000
0100
0001
2000
0000
3001
,  // measure 55
0100
0000
0000
0000
0000
0000
0000
0000
0000
0010
0000
0000
0000
0000
0000
0000
0000
0000
0100
0000
0000
0000
0000
0000
1000
0000
0000
0000
0001
0000
0000
0000
1000
0000
0000
0000
0001
0000
0000
0000
0000
0000
0000
0000
0000
0000
0000
0000
,  // measure 56
2002
3003
0220
0330
,  // measure 57
2010
0002
3003
0012
2000
0000
3003
0000
,  // measure 58
2000
0000
0000
0002
0000
0000
3003
0000
,  // measure 59
0100
0100
0100
2002
,  // measure 60
3003
0000
1000
1000
0001
0001
1000
0100
,  // measure 61
0010
0000
0000
0000
0000
0000
0000
0000
0000
0000
0000
0000
0000
0000
0100
0000
0000
0000
0000
0000
0000
0000
0000
0000
0010
0000
0000
0000
0000
0000
0000
0000
0000
0000
0000
0000
0000
0000
0100
0000
0000
0000
0000
0000
0000
0000
0000
0000
0020
0000
0000
0000
0000
0000
0000
0000
0000
0000
0000
0000
0000
0000
0000
0000
0000
0000
0000
0000
0000
0000
0000
0000
0000
0000
0000
0000
0000
0000
0000
0000
0000
0000
0000
0000
0000
0000
0000
0000
0000
0000
0000
0000
0000
0000
0000
0000
0031
0000
0000
0000
0000
0000
0000
0000
0000
0000
0000
0000
0000
0000
0000
0000
0000
0000
0000
0000
0000
0000
0000
0000
1000
0000
0000
0000
0000
0000
0000
0000
0000
0000
0000
0000
0000
0000
0000
0000
0000
0000
0000
0000
0000
0000
0000
0000
0010
0000
0000
0000
0000
0000
0000
0000
0000
0000
0000
0000
0000
0000
0000
0000
0000
0000
0000
0000
0000
0000
0000
0000
0100
0000
0000
0000
0000
0000
0000
0000
0000
0000
0000
0000
0000
0000
0000
0000
0000
0000
0000
0000
0000
0000
0000
0000
,  // measure 62
0201
0000
0310
0010
0100
0100
0001
1000
,  // measure 63
0200
0000
0302
0000
0103
0000
1000
0000
0001
0100
0001
0100
1000
0000
0000
0000
,  // measure 64
0210
0000
0301
0001
1000
1000
0001
0010
,  // measure 65
0100
0000
0000
0000
0000
0000
0000
0000
0000
0000
0000
0000
0000
0000
0010
0000
0000
0000
0000
0000
0000
0000
0000
0000
0100
0000
0000
0000
0000
0000
0000
0000
0000
0000
0000
0000
0000
0000
0010
0000
0000
0000
0000
0000
0000
0000
0000
0000
0100
0000
0000
0000
0000
0000
0000
0000
0000
0000
0000
0000
0000
0000
0000
0000
0000
0000
0000
0000
0000
0000
0000
0000
1000
0000
0000
0000
0000
0000
0000
0000
0000
0000
0000
0000
0000
0000
0000
0000
0000
0000
0000
0000
0000
0000
0000
0000
0020
0000
0000
0000
0000
0000
0000
0000
0000
0000
0000
0000
0000
0000
0000
0000
0000
0000
0000
0000
0000
0000
0000
0000
0000
0000
0000
0000
0000
0000
0000
0000
0000
0000
0000
0000
0000
0000
0000
0000
0000
0000
0000
0000
0000
0000
0000
0000
0030
0000
0000
0000
0000
0000
0000
0000
0000
0000
0000
0000
0000
0000
0000
0000
0000
0000
0000
0000
0000
0000
0000
0000
0000
0000
0000
0000
0000
0000
0000
0000
0000
0000
0000
0000
0000
0000
0000
0000
0000
0000
0000
0000
0000
0000
0000
0000
,  // measure 66
2010
0000
3001
0001
0012
0000
1003
1000
,  // measure 67
2010
3001
0012
1003
1001
0000
1001
0000
,  // measure 68
0001
0000
0100
0000
,  // measure 69
0010
0000
1000
0000
,  // measure 70
0010
0000
0100
0000
,  // measure 71
0001
0000
2000
3200
,  // measure 72
0302
0000
2003
0000
,  // measure 73
3020
0000
0032
0203
,  // measure 74
2300
3002
0023
2030
,  // measure 75
3001
0100
0010
1000
0001
1000
0100
0010
,  // measure 76
0220
0000
0330
0000
,  // measure 77
0001
0011
0000
0000
1000
1010
0000
0000
,  // measure 78
1001
0000
1001
0000
0001
1000
0001
1000
,  // measure 79
0200
0000
0000
0000
0000
0000
0000
0310
,  // measure 80
0010
0110
0000
0010
1001
0000
0001
0100
,  // measure 81
0020
0000
0000
0000
0000
0000
0000
0000
0000
0000
0000
0000
0000
0000
0130
0010
,  // measure 82
0100
0000
0000
1010
0000
0000
0001
0000
0001
0000
0000
0011
0000
0000
1000
0000
,  // measure 83
1000
0010
0100
0001
,  // measure 84
1000
0100
0010
0001
,  // measure 85
1000
0010
0100
0001
1000
0100
0010
0001
,  // measure 86
0200
0320
0230
0000
0320
0000
1030
0000
,  // measure 87
0001
0010
0001
0010
1000
0002
0000
1003
,  // measure 88
0010
1000
0010
0001
2000
0000
3001
0100
,  // measure 89
0010
1000
0010
1000
0100
0010
0001
1000
,  // measure 90
0020
0100
0000
0100
0000
0100
0130
0000
,  // measure 91
0001
0100
1000
0100
0001
2000
0000
3100
,  // measure 92
0001
0100
1000
0001
0100
0010
1000
0000
,  // measure 93
2002
3003
0220
0330
,  // measure 94
0012
2000
3003
2010
0002
3003
1000
0100
,  // measure 95
0220
0330
2002
3003
,  // measure 96
1010
1001
0000
0011
2002
0000
3003
0000
,  // measure 97
2001
0000
3001
0100
0010
0100
1000
0000
,  // measure 98
1000
0100
0010
0100
0001
1000
0001
0000
,  // measure 99
1002
0000
1003
0100
0010
0100
0001
0000
,  // measure 100
0001
0100
1000
0001
0010
0000
0110
0000
,  // measure 101
1002
0000
0103
0010
1000
0010
1000
0000
,  // measure 102
0001
0000
0000
1000
0100
0000
0010
0000
0001
0000
0010
0000
0001
0000
0000
0000
,  // measure 103
2001
0000
3001
0100
1000
0001
0010
1000
,  // measure 104
0000
0000
0001
1000
0001
0000
0000
0000
1100
0000
0000
0000
0101
0000
0000
0000
;

//---------------dance-single - ----------------
#NOTEDATA:;
#CHARTNAME:;
#STEPSTYPE:dance-single;
#DESCRIPTION:;
#CHARTSTYLE:;
#DIFFICULTY:Medium;
#METER:10;
#RADARVALUES:0.460919,0.565796,0.525736,0.489727,0.000000,448.000000,375.000000,73.000000,68.000000,0.000000,0.000000,0.000000,0.000000,0.000000,0.460919,0.565796,0.525736,0.489727,0.000000,448.000000,375.000000,73.000000,68.000000,0.000000,0.000000,0.000000,0.000000,0.000000;
#CREDIT:;
#OFFSET:0.324100;
#BPMS:0.000000=205.000000
,232.000000=200.000000
,233.500000=180.500000
,236.000000=140.000000
,300.000000=130.000000
,301.000000=120.000000
,302.000000=100.000000
,303.000000=80.000000
,304.000000=90.000000
,306.000000=205.000000
;
#STOPS:;
#DELAYS:;
#WARPS:;
#TIMESIGNATURES:0.000000=4=4
;
#TICKCOUNTS:0.000000=4
;
#COMBOS:0.000000=1
;
#SPEEDS:0.000000=1.000000=0.000000=0
;
#SCROLLS:0.000000=1.000000
,232.000000=1.025000
,233.500000=0.775623
,236.000000=1.000000
,304.000000=0.888888
,306.000000=1.000000
;
#FAKES:;
#LABELS:0.000000=Song Start
;
#DISPLAYBPM:140.000000:205.000000;
#NOTES:
// measure 0
0000
0000
0000
0000
,  // measure 1
0000
0000
0000
0000
,  // measure 2
0000
0000
0000
0000
,  // measure 3
0000
0000
0000
0000
,  // measure 4
0000
0000
0000
0000
,  // measure 5
1000
1000
0100
0100
,  // measure 6
0010
0010
0001
0001
,  // measure 7
1000
0010
1000
0000
0001
0010
0001
0000
,  // measure 8
2002
0000
0000
3003
,  // measure 9
0201
0010
1000
1300
,  // measure 10
0100
0001
1000
0100
,  // measure 11
1200
0010
0001
0301
,  // measure 12
0100
1000
2002
3003
,  // measure 13
1020
0100
0001
0031
,  // measure 14
0010
1000
0001
0010
,  // measure 15
0021
1000
0100
0130
,  // measure 16
0000
0110
2002
3003
,  // measure 17
0002
0000
0103
0002
,  // measure 18
0010
0100
0010
0100
,  // measure 19
2003
0000
3100
2000
,  // measure 20
0010
0100
0010
0100
,  // measure 21
3002
0000
0013
0002
,  // measure 22
0100
0010
0100
0010
,  // measure 23
2003
0000
0010
0100
,  // measure 24
0020
0000
3000
0030
,  // measure 25
1000
1000
0010
0010
,  // measure 26
0001
1000
0100
0001
,  // measure 27
1000
1010
1000
1010
,  // measure 28
0110
0101
2002
3003
,  // measure 29
0001
0001
0010
0010
,  // measure 30
1000
0001
0100
1000
,  // measure 31
0001
0011
0001
0011
,  // measure 32
1100
1010
0202
0303
,  // measure 33
1000
0100
0010
0000
,  // measure 34
0002
0000
0013
0100
,  // measure 35
1000
0001
0100
0000
,  // measure 36
0020
0000
1030
0010
,  // measure 37
0100
0001
1000
0001
,  // measure 38
0010
0100
1000
0001
,  // measure 39
1000
0010
0100
0010
,  // measure 40
1001
0000
1001
0000
,  // measure 41
1001
1001
0000
0000
,  // measure 42
0011
0000
0011
0000
1000
0001
0000
1000
,  // measure 43
0001
1010
1010
0001
,  // measure 44
1000
0100
0010
0000
0100
0010
0001
0000
,  // measure 45
2000
3200
0320
0031
,  // measure 46
0101
0000
0101
0000
1000
0001
0000
1000
,  // measure 47
0001
1100
1100
0001
,  // measure 48
1000
0010
0100
0000
0001
0010
0100
0000
,  // measure 49
0220
0330
1000
0010
,  // measure 50
1010
0000
1010
0000
0001
1000
0000
0001
,  // measure 51
1000
0011
0011
1000
,  // measure 52
0001
0100
0010
0000
0100
0010
1000
0000
,  // measure 53
0200
0010
0000
0010
0000
0310
0100
0000
,  // measure 54
1100
0000
1100
0000
0001
1000
0000
0001
,  // measure 55
1000
0010
0100
0010
,  // measure 56
0110
0000
1001
0000
,  // measure 57
1000
0001
0000
0001
1000
0000
0000
0000
,  // measure 58
0200
0000
0000
0300
0000
0000
0000
0000
,  // measure 59
0100
0100
0100
2002
,  // measure 60
3003
0001
0001
0100
,  // measure 61
0010
1000
0100
0000
0010
0001
0100
0000
,  // measure 62
2001
3010
0010
1000
,  // measure 63
0002
0023
0130
1000
0010
0100
0001
0000
,  // measure 64
2001
3100
0100
0010
,  // measure 65
0100
1000
0010
0000
0200
0000
0300
0000
,  // measure 66
0102
0000
0000
1003
2100
0000
0000
3001
,  // measure 67
0100
0010
1000
0001
1001
0000
1001
0000
,  // measure 68
0001
0000
0010
0000
,  // measure 69
0100
0000
1000
0000
,  // measure 70
0100
0000
0010
0000
,  // measure 71
0001
0000
2000
3020
,  // measure 72
0032
0000
0023
0000
,  // measure 73
2030
0000
3200
0302
,  // measure 74
0203
2300
3002
0203
,  // measure 75
0310
0100
0010
0100
0001
1000
0100
0010
,  // measure 76
0220
0000
0330
0000
,  // measure 77
1001
0000
1001
0000
,  // measure 78
1001
1001
0000
0000
,  // measure 79
0200
0000
0000
0000
0000
0000
0000
0310
,  // measure 80
0100
0010
0000
0100
0100
0000
0010
0000
,  // measure 81
2002
0000
3003
0000
,  // measure 82
1010
0101
0011
1100
,  // measure 83
0001
0001
0100
0001
,  // measure 84
1000
1000
0100
1000
,  // measure 85
0001
0100
0010
0000
1000
0100
0010
0000
,  // measure 86
0220
0330
0001
0010
,  // measure 87
0011
0000
0011
0000
1000
0001
0000
1000
,  // measure 88
0001
1010
1010
0001
,  // measure 89
1000
0100
0010
0000
0100
0010
0001
0000
,  // measure 90
0200
0010
0000
0010
0000
0310
0100
0000
,  // measure 91
0010
1000
0010
1000
0001
0000
0001
0000
,  // measure 92
0010
0001
0010
0001
1000
0000
0010
0000
,  // measure 93
0110
0000
1001
0000
,  // measure 94
0001
1000
0000
1000
0001
0000
0010
0000
,  // measure 95
1100
0000
0011
0000
,  // measure 96
0001
0100
0000
0010
1000
0000
0000
0000
,  // measure 97
1200
0010
0001
0301
,  // measure 98
0100
1000
0001
0100
,  // measure 99
0201
0010
1000
1300
,  // measure 100
0100
0001
2002
3003
,  // measure 101
2100
0010
0100
3100
,  // measure 102
0000
0102
0010
0103
,  // measure 103
1020
0001
0100
0130
,  // measure 104
0000
0110
2002
3003
;

//---------------dance-single - ----------------
#NOTEDATA:;
#CHARTNAME:;
#STEPSTYPE:dance-single;
#DESCRIPTION:;
#CHARTSTYLE:;
#DIFFICULTY:Easy;
#METER:7;
#RADARVALUES:0.325113,0.490357,0.396102,0.504130,0.000000,316.000000,261.000000,55.000000,70.000000,0.000000,0.000000,0.000000,0.000000,0.000000,0.325113,0.490357,0.396102,0.504130,0.000000,316.000000,261.000000,55.000000,70.000000,0.000000,0.000000,0.000000,0.000000,0.000000;
#CREDIT:;
#OFFSET:0.324100;
#BPMS:0.000000=205.000000
,232.000000=200.000000
,233.500000=180.500000
,236.000000=140.000000
,300.000000=130.000000
,301.000000=120.000000
,302.000000=100.000000
,303.000000=80.000000
,304.000000=90.000000
,306.000000=205.000000
;
#STOPS:;
#DELAYS:;
#WARPS:;
#TIMESIGNATURES:0.000000=4=4
;
#TICKCOUNTS:0.000000=4
;
#COMBOS:0.000000=1
;
#SPEEDS:0.000000=1.000000=0.000000=0
;
#SCROLLS:0.000000=1.000000
,232.000000=1.025000
,233.500000=0.775623
,236.000000=1.000000
,304.000000=0.888888
,306.000000=1.000000
;
#FAKES:;
#LABELS:0.000000=Song Start
;
#DISPLAYBPM:140.000000:205.000000;
#NOTES:
// measure 0
0000
0000
0000
0000
,  // measure 1
0000
0000
0000
0000
,  // measure 2
0000
0000
0000
0000
,  // measure 3
0000
0000
0000
0000
,  // measure 4
0000
0000
0000
0000
,  // measure 5
1000
0000
1000
0000
,  // measure 6
0001
0000
0001
0000
,  // measure 7
1000
1000
0001
0001
,  // measure 8
2002
0000
0000
3003
,  // measure 9
0021
0000
0130
0000
,  // measure 10
0010
0001
1000
0000
,  // measure 11
1020
0000
0130
0000
,  // measure 12
0010
1000
0001
0000
,  // measure 13
2001
0000
3100
0000
,  // measure 14
0010
0001
0100
0000
,  // measure 15
0010
1000
0100
0100
,  // measure 16
0000
0110
2002
3003
,  // measure 17
0002
0000
0100
0000
,  // measure 18
0010
0000
0103
0001
,  // measure 19
2000
0000
0100
0000
,  // measure 20
0010
0000
3100
1000
,  // measure 21
0002
0000
0100
0000
,  // measure 22
0010
0000
0103
0001
,  // measure 23
2000
0000
3100
2000
,  // measure 24
0002
0000
3000
0003
,  // measure 25
1000
0010
0100
0000
,  // measure 26
0010
1000
0100
0000
,  // measure 27
0110
0000
0110
0000
,  // measure 28
0011
0110
1100
0000
,  // measure 29
0001
0010
0100
0000
,  // measure 30
0010
0001
0100
0000
,  // measure 31
0110
0000
0110
0000
,  // measure 32
1010
0110
0101
0000
,  // measure 33
2000
0000
0000
0000
,  // measure 34
3200
0000
0000
0000
,  // measure 35
0320
0000
0000
0000
,  // measure 36
0032
0000
0000
0000
,  // measure 37
2003
0000
3020
0000
,  // measure 38
0230
0000
0302
0000
,  // measure 39
1003
0100
0010
0001
,  // measure 40
1001
0000
1001
0000
,  // measure 41
1001
1001
0000
0000
,  // measure 42
1000
0010
0001
0000
,  // measure 43
0001
0010
1000
0000
,  // measure 44
0001
0100
0010
1000
,  // measure 45
2002
0000
3003
0000
,  // measure 46
1000
0100
0001
0000
,  // measure 47
0001
0100
1000
0000
,  // measure 48
0001
0100
0001
0100
,  // measure 49
0220
0330
1000
0000
,  // measure 50
0001
0010
1000
0000
,  // measure 51
1000
0010
0001
0000
,  // measure 52
1000
0100
0010
0001
,  // measure 53
2002
0000
3003
0000
,  // measure 54
0001
0100
1000
0000
,  // measure 55
1000
0100
0001
0000
,  // measure 56
0110
0000
1001
0000
,  // measure 57
2000
3000
0002
0003
,  // measure 58
0020
0000
0000
0030
0000
0000
0000
0000
,  // measure 59
0100
0100
0100
2002
,  // measure 60
3003
1000
1000
0010
,  // measure 61
0100
0001
0010
0100
,  // measure 62
2001
3010
0100
0001
,  // measure 63
2000
3002
0013
0110
,  // measure 64
1002
0103
0001
0001
,  // measure 65
0010
0100
2000
3000
,  // measure 66
1002
0013
2001
3010
,  // measure 67
1000
1000
0011
1010
,  // measure 68
0001
0000
0010
0000
,  // measure 69
0100
0000
1000
0000
,  // measure 70
0100
0000
0010
0000
,  // measure 71
0001
0000
2000
3020
,  // measure 72
0230
0000
0302
0000
,  // measure 73
0023
0000
0230
2300
,  // measure 74
3002
0203
0320
2030
,  // measure 75
3001
1000
0100
0010
,  // measure 76
0220
0000
0330
0000
,  // measure 77
1001
0000
1001
0000
,  // measure 78
1001
1001
0000
0000
,  // measure 79
0002
0000
0000
0003
,  // measure 80
1100
0000
0101
0000
,  // measure 81
2000
0000
0000
3000
,  // measure 82
0011
1001
1010
0000
,  // measure 83
0020
0100
0130
0000
,  // measure 84
0002
1000
1003
0000
,  // measure 85
1000
0100
0010
0001
,  // measure 86
2002
3003
0001
0000
,  // measure 87
1000
0010
0001
0000
,  // measure 88
0001
0010
1000
0000
,  // measure 89
0001
0100
0010
1000
,  // measure 90
2002
0000
3003
0000
,  // measure 91
1000
0100
0010
0010
,  // measure 92
0001
0100
0010
0010
,  // measure 93
0110
0000
1001
0000
,  // measure 94
0002
0003
2000
3000
,  // measure 95
0011
0000
1100
0000
,  // measure 96
0002
0003
0200
0300
,  // measure 97
1020
0000
0130
0000
,  // measure 98
0010
1000
0001
0000
,  // measure 99
0021
0000
0130
0000
,  // measure 100
0010
0001
1000
0000
,  // measure 101
1002
0100
0103
0000
,  // measure 102
2001
0100
3100
0000
,  // measure 103
0010
0001
0100
0100
,  // measure 104
0000
0110
2002
3003
;

//---------------dance-single - ----------------
#NOTEDATA:;
#CHARTNAME:;
#STEPSTYPE:dance-single;
#DESCRIPTION:;
#CHARTSTYLE:;
#DIFFICULTY:Challenge;
#METER:16;
#RADARVALUES:0.788089,0.942994,0.604956,0.763397,0.338487,766.000000,682.000000,84.000000,106.000000,0.000000,0.000000,0.000000,0.000000,0.000000,0.788089,0.942994,0.604956,0.763397,0.338487,766.000000,682.000000,84.000000,106.000000,0.000000,0.000000,0.000000,0.000000,0.000000;
#CREDIT:;
#OFFSET:0.324100;
#BPMS:0.000000=205.000000
,232.000000=200.000000
,233.500000=180.500000
,236.000000=140.000000
,300.000000=130.000000
,301.000000=120.000000
,302.000000=100.000000
,303.000000=80.000000
,304.000000=90.000000
,306.000000=205.000000
;
#STOPS:;
#DELAYS:;
#WARPS:;
#TIMESIGNATURES:0.000000=4=4
;
#TICKCOUNTS:0.000000=4
;
#COMBOS:0.000000=1
;
#SPEEDS:0.000000=1.000000=0.000000=0
;
#SCROLLS:0.000000=1.000000
,232.000000=1.025000
,233.500000=0.775623
,236.000000=1.000000
,304.000000=0.888888
,306.000000=1.000000
;
#FAKES:;
#LABELS:0.000000=Song Start
;
#DISPLAYBPM:80.000000:205.000000;
#NOTES:
// measure 0
0000
0000
0000
0000
,  // measure 1
0000
0000
0000
0000
,  // measure 2
0000
0000
0000
0000
,  // measure 3
0000
0000
0000
0000
,  // measure 4
0000
0000
0000
0000
,  // measure 5
1000
0000
0100
0000
1000
0000
0100
1000
,  // measure 6
0001
0000
0100
0000
0001
0000
0100
0001
,  // measure 7
1000
0100
0010
0001
0010
0100
1000
0001
,  // measure 8
2000
0000
0000
0000
0000
0000
0000
0000
3001
0100
0001
0100
0010
0000
0000
0000
,  // measure 9
1020
0000
0130
0010
0001
0001
0010
0100
,  // measure 10
0001
0000
1000
0010
1000
0000
0001
0000
1000
0000
0100
0000
0010
0000
0001
0000
,  // measure 11
0021
0000
0130
0010
1000
1000
0010
0100
,  // measure 12
1000
0000
0001
0000
0010
0000
0100
1000
0001
0000
1000
0010
0100
0000
0000
0000
,  // measure 13
0201
0000
0310
0100
1000
1000
0100
0010
,  // measure 14
1000
0000
0001
0100
0001
0000
1000
0000
0010
0000
1000
0000
0100
0000
0010
0000
,  // measure 15
0120
0000
0000
0000
0031
0000
0010
0000
1000
0010
0000
0001
0100
0000
1000
0000
,  // measure 16
0000
0000
0100
0010
0100
0000
0000
0000
0101
0000
0000
0000
1100
0000
0000
0000
,  // measure 17
2001
0000
0000
0000
3100
0000
1000
0100
,  // measure 18
0001
0100
1000
0100
0002
2003
3020
0000
,  // measure 19
0031
0000
0010
0100
0010
0000
0100
0000
1000
0000
0001
0000
1000
0000
0010
0000
,  // measure 20
0001
0010
1000
0010
0002
2003
3200
0300
,  // measure 21
0102
0000
0000
0000
0103
0000
0001
0100
,  // measure 22
1000
0100
0001
0100
2000
3002
0023
0000
,  // measure 23
1030
0000
0001
1000
0100
0000
1000
0000
0100
0000
0010
0000
0100
0000
0001
0000
,  // measure 24
0200
0000
0000
0000
0000
0000
0310
0100
1000
0002
0000
0000
,  // measure 25
1003
0000
0010
0000
0100
0010
0100
0000
1000
0000
0100
0000
0010
0000
1000
0000
,  // measure 26
0001
0000
0010
0000
0100
0010
0100
0000
0010
0000
1000
0000
0010
0000
0001
0000
,  // measure 27
1000
0000
0010
0000
1000
0010
0100
0000
0001
0000
0010
0000
0001
0010
0100
0000
,  // measure 28
1100
0000
0000
0000
0011
0000
0000
0000
0101
0000
0100
0010
1000
0000
0000
0000
,  // measure 29
0001
0000
0010
0000
0100
0010
0100
0000
0001
0000
0100
0000
0010
0000
0001
0000
,  // measure 30
1000
0000
0010
0000
0100
0010
0100
0000
0010
0000
0001
0000
0010
0000
1000
0000
,  // measure 31
0100
0000
0010
0000
0100
0010
0001
0000
0100
0000
0010
0000
0100
0010
1000
0000
,  // measure 32
1010
0000
0000
0000
0011
0000
0000
0000
1010
0000
0010
1000
0100
0000
0010
0000
,  // measure 33
0100
0000
0010
0000
0010
0001
0000
0200
,  // measure 34
0000
0000
0310
0000
0010
1000
0100
0020
,  // measure 35
0000
0000
2030
0000
3020
0032
0000
0203
,  // measure 36
0000
0000
2300
0000
3200
0302
2003
3200
,  // measure 37
0320
0000
0031
0000
0001
0100
0000
0020
,  // measure 38
0000
0130
0010
0100
0010
1000
0100
0010
,  // measure 39
0002
0000
1003
0100
0010
0001
0100
0010
,  // measure 40
1010
1001
0000
0000
0011
1001
0000
0000
,  // measure 41
1001
0000
1002
0103
0100
0100
0010
1000
,  // measure 42
0001
0010
0001
0000
1000
0010
1000
0000
0001
0010
0001
0000
1000
0000
0001
0000
,  // measure 43
1000
0010
0100
0000
0001
0000
0100
0010
2000
0000
0000
0000
3001
0000
1000
0000
,  // measure 44
0100
0001
1000
0010
0100
0001
0100
0010
,  // measure 45
0022
0033
2002
3003
2020
3030
0220
0330
,  // measure 46
0001
0100
0001
0000
1000
0100
1000
0000
0001
0100
0001
0000
1000
0000
0001
0000
,  // measure 47
0010
0100
1000
0000
0001
0000
0100
0010
2000
0000
0000
0000
3001
0000
1000
0000
,  // measure 48
0100
0001
0100
1000
0010
0001
0010
1000
,  // measure 49
0100
0000
0100
0000
0200
0000
0000
0000
0310
0000
0001
0000
0100
0001
0100
0001
,  // measure 50
1000
0010
1000
0000
0001
0010
0001
0000
1000
0010
1000
0000
0001
0000
1000
0000
,  // measure 51
0001
0010
0100
0000
1000
0000
0100
0010
0002
0000
0000
0000
1003
0000
0001
0000
,  // measure 52
0100
1000
0001
0010
0100
1000
0100
0010
,  // measure 53
1000
1010
0000
0011
0000
1010
1001
0000
,  // measure 54
1000
0100
1000
0000
0001
0100
0001
0000
1000
0100
1000
0000
0001
0000
1000
0000
,  // measure 55
1010
0000
0000
0000
0000
0000
0000
0000
0000
1001
0000
0000
0000
0000
0000
0000
0000
0000
0011
0000
0000
0000
0000
0000
0001
0000
0000
0000
0010
0000
0000
0000
0100
0000
0000
0000
1000
0000
0000
0000
0010
0000
0000
0000
0100
0000
0000
0000
,  // measure 56
0002
0003
2200
3300
,  // measure 57
1010
2002
3003
0011
2002
0000
3003
0000
,  // measure 58
2000
0000
0000
0002
0000
0000
3003
0000
,  // measure 59
0100
0100
0100
2002
,  // measure 60
3003
0000
1000
1000
0001
0001
1000
0100
,  // measure 61
0010
0000
0000
0000
0000
0000
0000
0000
0000
0000
0000
0000
0000
0000
0001
0000
0000
0000
0000
0000
0000
0000
0000
0000
1000
0000
0000
0000
0000
0000
0000
0000
0000
0000
0000
0000
0000
0000
0001
0000
0000
0000
0000
0000
0000
0000
0000
0000
0100
0000
0000
0000
0000
0000
0000
0000
0000
0000
0000
0000
0000
0000
0000
0000
0000
0000
0000
0000
0000
0000
0000
0000
0010
0000
0000
0000
0000
0000
0000
0000
0000
0000
0000
0000
0000
0000
0000
0000
0000
0000
0000
0000
0000
0000
0000
0000
2010
0000
0000
0000
0000
0000
0000
0000
0000
0000
0000
0000
0000
0000
0000
0000
0000
0000
0000
0000
0000
0000
0000
0000
3100
0000
0000
0000
0000
0000
0000
0000
0000
0000
0000
0000
0000
0000
0000
0000
0000
0000
0000
0000
0000
0000
0000
0000
0012
0000
0000
0000
0000
0000
0000
0000
0000
0000
0000
0000
0000
0000
0000
0000
0000
0000
0000
0000
0000
0000
0000
0000
0103
0000
0000
0000
0000
0000
0000
0000
0000
0000
0000
0000
0000
0000
0000
0000
0000
0000
0000
0000
0000
0000
0000
0000
,  // measure 62
2001
0000
3001
0001
0100
0100
0001
1000
,  // measure 63
0200
0000
0302
0000
0103
0010
0100
1000
0001
0100
0010
0100
1000
0000
0000
0000
,  // measure 64
0210
0000
0301
0001
1000
1000
0001
0010
,  // measure 65
0100
0000
0000
0000
0000
0000
0000
0000
0000
0000
0000
0000
0000
0000
1000
0000
0000
0000
0000
0000
0000
0000
0000
0000
0001
0000
0000
0000
0000
0000
0000
0000
0000
0000
0000
0000
0000
0000
1000
0000
0000
0000
0000
0000
0000
0000
0000
0000
0010
0000
0000
0000
0000
0000
0000
0000
0000
0000
0000
0000
0000
0000
0000
0000
0000
0000
0000
0000
0000
0000
0000
0000
0100
0000
0000
0000
0000
0000
0000
0000
0000
0000
0000
0000
0000
0000
0000
0000
0000
0000
0000
0000
0000
0000
0000
0000
0002
0000
0000
0000
0000
0000
0000
0000
0000
0000
0000
0000
0000
0000
0000
0000
0000
0000
0000
0000
0000
0000
0000
0000
0000
0000
0000
0000
0000
0000
0000
0000
0000
0000
0000
0000
0000
0000
0000
0000
0000
0000
0000
0000
0000
0000
0000
0000
0003
0000
0000
0000
0000
0000
0000
0000
0000
0000
0000
0000
0000
0000
0000
0000
0000
0000
0000
0000
0000
0000
0000
0000
0000
0000
0000
0000
0000
0000
0000
0000
0000
0000
0000
0000
0000
0000
0000
0000
0000
0000
0000
0000
0000
0000
0000
0000
,  // measure 66
0012
0100
0103
0010
2010
0100
3100
0010
,  // measure 67
0011
1100
1010
0101
0110
0000
1001
0000
,  // measure 68
1000
0000
0100
0000
,  // measure 69
0010
0000
0001
0000
,  // measure 70
0010
0000
0100
0000
,  // measure 71
1000
0000
0002
0203
,  // measure 72
2300
0000
3002
0000
,  // measure 73
0023
0000
2030
3200
,  // measure 74
0302
2003
3020
0032
,  // measure 75
1003
0100
0010
0001
1000
0001
0100
0010
,  // measure 76
0220
0000
0330
0000
,  // measure 77
1010
1001
0000
0000
0011
1001
0000
0000
,  // measure 78
2001
3010
1002
0013
0010
0010
0100
0010
,  // measure 79
2002
0000
0000
0000
0000
0000
3003
0101
,  // measure 80
1000
0000
0001
0000
0000
0000
1100
0000
0001
0000
1000
0010
0100
0010
0100
0001
,  // measure 81
2000
0000
0000
0000
0000
0000
0000
0000
0000
0000
0000
0000
0000
0000
3001
1000
,  // measure 82
0100
0000
0000
0011
0000
0000
1010
0000
0100
0000
0000
1010
0000
0000
0011
0000
,  // measure 83
0001
0100
0001
0100
0010
2000
0000
3010
,  // measure 84
1000
0100
1000
0100
0020
0000
0031
1000
,  // measure 85
0100
0000
0010
0000
0001
0000
0100
0000
0010
0100
0010
0100
0001
1000
0001
1000
,  // measure 86
0100
0000
0100
0000
0200
0000
0000
0000
1300
0000
0100
0010
0100
0010
0001
1000
,  // measure 87
0200
0000
0000
0000
0310
0001
1000
0000
0010
1000
0001
0000
0100
0000
0010
0000
,  // measure 88
1000
0100
0010
0000
0001
0000
0100
0010
2000
0000
0000
0000
3001
0000
0010
0000
,  // measure 89
1000
0001
0100
1000
0010
0001
1000
0100
,  // measure 90
0001
0101
0000
1100
0000
0101
1001
0000
,  // measure 91
0001
0010
0100
0000
1000
0010
0100
0000
0001
0010
0100
0000
1000
0000
0010
0000
,  // measure 92
0100
0001
0100
0001
1000
0100
1000
0100
0010
0000
0001
0100
0010
0000
0000
0000
,  // measure 93
0220
0330
2002
3003
,  // measure 94
0011
0000
2002
0000
3003
0000
1010
0000
2002
0000
3003
0000
0001
0010
0100
1000
,  // measure 95
0002
0003
2002
3003
,  // measure 96
1010
0202
0303
0011
2200
0000
3300
0000
,  // measure 97
0021
0000
0130
0010
1000
1000
0010
0100
,  // measure 98
1000
0000
0001
0010
0001
0000
1000
0000
0001
0000
0100
0000
0010
0000
1000
0000
,  // measure 99
1020
0000
0130
0010
0001
0001
0010
0100
,  // measure 100
0001
0000
1000
0000
0010
0000
0100
0001
1000
0000
0001
0010
0100
0000
0000
0000
,  // measure 101
1000
0100
1000
0100
0010
0000
0001
0000
0100
0000
0001
0100
0010
0000
0110
0000
,  // measure 102
0000
0000
1000
0010
1000
0000
0001
0010
0001
0000
1000
0000
0010
0000
0100
0000
,  // measure 103
0120
0000
0000
0000
1030
0000
0010
0000
0001
0010
0000
1000
0100
0000
0001
0000
,  // measure 104
0000
0000
0100
0010
0100
0000
0000
0000
1100
0000
0000
0000
0101
0000
0000
0000
;

//---------------dance-single - ----------------
#NOTEDATA:;
#CHARTNAME:;
#STEPSTYPE:dance-single;
#DESCRIPTION:;
#CHARTSTYLE:;
#DIFFICULTY:Beginner;
#METER:4;
#RADARVALUES:0.222229,0.413927,0.259267,0.288074,0.000000,216.000000,180.000000,36.000000,40.000000,0.000000,0.000000,0.000000,0.000000,0.000000,0.222229,0.413927,0.259267,0.288074,0.000000,216.000000,180.000000,36.000000,40.000000,0.000000,0.000000,0.000000,0.000000,0.000000;
#CREDIT:;
#OFFSET:0.324100;
#BPMS:0.000000=205.000000
,232.000000=200.000000
,233.500000=180.500000
,236.000000=140.000000
,300.000000=130.000000
,301.000000=120.000000
,302.000000=100.000000
,303.000000=80.000000
,304.000000=90.000000
,306.000000=205.000000
;
#STOPS:;
#DELAYS:;
#WARPS:;
#TIMESIGNATURES:0.000000=4=4
;
#TICKCOUNTS:0.000000=4
;
#COMBOS:0.000000=1
;
#SPEEDS:0.000000=1.000000=0.000000=0
;
#SCROLLS:0.000000=1.000000
,232.000000=1.025000
,233.500000=1.135734
,236.000000=1.464285
,300.000000=1.576923
,301.000000=1.708333
,302.000000=2.050000
,303.000000=2.562500
,304.000000=2.277777
,306.000000=1.000000
;
#FAKES:;
#LABELS:0.000000=Song Start
;
#DISPLAYBPM:140.000000:205.000000;
#NOTES:
// measure 0
0000
0000
0000
0000
,  // measure 1
0000
0000
0000
0000
,  // measure 2
0000
0000
0000
0000
,  // measure 3
0000
0000
0000
0000
,  // measure 4
0000
0000
0000
0000
,  // measure 5
1000
0000
0000
0000
,  // measure 6
0001
0000
0000
0000
,  // measure 7
1000
0000
0001
0000
,  // measure 8
1000
0000
0000
0000
,  // measure 9
2002
0000
3003
0000
,  // measure 10
0001
0000
0010
0000
,  // measure 11
2002
0000
3003
0000
,  // measure 12
1000
0000
0010
0000
,  // measure 13
2002
0000
3003
0000
,  // measure 14
0001
0000
0010
0000
,  // measure 15
0220
0000
0330
0000
,  // measure 16
0000
0100
0100
0000
,  // measure 17
2000
0000
3000
0000
,  // measure 18
0010
0000
0010
0000
,  // measure 19
0200
0000
0300
0000
,  // measure 20
0001
0000
0001
0000
,  // measure 21
2000
0000
3000
0000
,  // measure 22
0100
0000
0100
0000
,  // measure 23
0020
0000
0000
0000
,  // measure 24
0030
0000
0000
0000
,  // measure 25
0001
0000
0001
0000
,  // measure 26
0010
0000
0010
0000
,  // measure 27
0001
0000
1000
0000
,  // measure 28
1001
0000
1001
0000
,  // measure 29
1000
0000
1000
0000
,  // measure 30
0010
0000
0010
0000
,  // measure 31
1000
0000
0001
0000
,  // measure 32
1001
0000
1001
0000
,  // measure 33
0002
0000
0003
0000
,  // measure 34
0020
0000
0030
0000
,  // measure 35
0200
0000
0300
0000
,  // measure 36
2000
0000
3000
0000
,  // measure 37
0020
0000
0030
0000
,  // measure 38
0200
0000
0300
0000
,  // measure 39
0001
0000
1000
0000
,  // measure 40
1001
0000
1001
0000
,  // measure 41
1001
1001
0000
0000
,  // measure 42
1000
1000
1000
0000
,  // measure 43
1000
1000
1000
0000
,  // measure 44
0100
0000
0010
0000
,  // measure 45
0002
0000
0003
0000
,  // measure 46
0001
0001
0001
0000
,  // measure 47
0001
0001
0001
0000
,  // measure 48
0100
0000
0010
0000
,  // measure 49
2000
0000
3000
0000
,  // measure 50
0010
0010
0010
0000
,  // measure 51
0100
0100
0100
0000
,  // measure 52
0001
0000
1000
0000
,  // measure 53
0200
0000
0300
0000
,  // measure 54
0010
0010
0010
0000
,  // measure 55
0001
0000
1000
0000
,  // measure 56
1001
0000
1001
0000
,  // measure 57
1000
0000
0001
0000
,  // measure 58
0200
0000
0000
0300
0000
0000
0000
0000
,  // measure 59
0100
0100
0100
0100
,  // measure 60
0000
0001
0001
0000
,  // measure 61
0010
0010
0010
0000
,  // measure 62
0100
0100
0100
0000
,  // measure 63
1000
1000
1000
0000
,  // measure 64
0010
0010
0010
0000
,  // measure 65
0100
0100
0100
0000
,  // measure 66
1001
0000
1001
0000
,  // measure 67
1001
1001
2002
0000
,  // measure 68
3003
0000
0000
0000
,  // measure 69
0000
0000
0000
0000
,  // measure 70
0000
0000
0000
0000
,  // measure 71
0000
0000
0001
0000
,  // measure 72
0100
0000
0010
0000
,  // measure 73
0100
0000
0010
0000
,  // measure 74
1000
0000
0001
0000
,  // measure 75
1000
0000
0100
0000
,  // measure 76
0020
0000
0030
0000
,  // measure 77
1001
0000
1001
0000
,  // measure 78
1001
1001
0000
0000
,  // measure 79
0002
0000
0003
0000
,  // measure 80
1001
0000
0110
0000
,  // measure 81
2000
0000
3000
0000
,  // measure 82
1001
0000
1001
0000
,  // measure 83
0001
0000
0001
0000
,  // measure 84
1000
0000
1000
0000
,  // measure 85
0001
0000
1000
0000
,  // measure 86
1001
0000
0000
0000
,  // measure 87
0001
0001
0001
0000
,  // measure 88
0010
0010
0010
0000
,  // measure 89
0100
0000
1000
0000
,  // measure 90
0020
0000
0030
0000
,  // measure 91
0100
0100
0100
0000
,  // measure 92
0001
0001
0001
0000
,  // measure 93
1001
0000
1001
0000
,  // measure 94
0002
0003
2000
3000
,  // measure 95
1001
0000
1001
0000
,  // measure 96
2000
3000
0002
0003
,  // measure 97
2002
0000
3003
0000
,  // measure 98
1000
0000
0010
0000
,  // measure 99
2002
0000
3003
0000
,  // measure 100
0001
0000
0010
0000
,  // measure 101
2002
0000
3003
0000
,  // measure 102
1000
0000
0010
0000
,  // measure 103
0220
0000
0330
0000
,  // measure 104
0000
0100
0100
0000
;
