#TITLE:Birds of Plague;
#SUBTITLE:;
#ARTIST:ARForest;
#TITLETRANSLIT:;
#SUBTITLETRANSLIT:;
#ARTISTTRANSLIT:;
#GENRE:Artcore;
#CREDIT:;
#BANNER:Birds of Plague.png;
#BACKGROUND:Birds of Plague-bg.png;
#LYRICSPATH:;
#CDTITLE:cdtitle.png;
#MUSIC:Birds of Plague.ogg;
#OFFSET:0.000000;
#SAMPLESTART:62.400002;
#SAMPLELENGTH:19.199997;
#SELECTABLE:YES;
#BPMS:0.000000=200.000000
,112.000000=100.000000
,156.000000=200.000000
;
#STOPS:156.000000=1.500000
;
#BGCHANGES:;
#KEYSOUNDS:;
#ATTACKS:;

//---------------dance-single - ----------------
#NOTES:
     dance-single:
     :
     Hard:
     15:
     0.803480,1.221807,0.104155,0.615460,0.785896,594.000000,583.000000,11.000000,65.000000,0.000000,0.000000,0.803480,1.221807,0.104155,0.615460,0.785896,594.000000,583.000000,11.000000,65.000000,0.000000,0.000000:
0000
0000
0000
0000
,
0000
0000
0000
0000
,
0000
0000
0000
0000
,
0000
0000
0000
0000
0000
0000
0000
0000
0001
0010
0001
0000
1000
0010
1000
0000
,
0200
0000
0010
0000
0301
0100
1000
0001
,
1000
0010
0200
0000
1300
0100
0001
1000
,
0001
0000
0010
0000
0200
0000
0000
0000
0310
0100
0010
0000
0001
0000
1000
0000
,
0010
0100
0010
0000
1001
0000
1000
0100
,
0010
0001
0010
0001
1000
0010
1000
0010
,
0100
0001
0100
0001
1000
0100
1000
0100
,
0010
0001
0010
0000
0001
0100
0001
0000
1000
0010
1000
0000
0100
1000
0100
0000
,
0020
0000
0032
0003
0200
0300
0000
0000
0220
0330
0000
0000
1000
0001
1000
0001
,
0020
0000
0000
0000
0031
0010
0100
0001
,
0100
0010
0001
0000
0012
1003
0010
0100
,
0020
0000
0000
0000
1030
0010
0100
1000
,
0100
0010
1000
0000
2010
3001
0010
0100
,
2000
0000
0000
0000
3100
1000
0010
0001
,
0010
1000
0100
0000
1002
0013
0001
0100
,
0010
0000
0000
0000
0010
0000
0000
0000
0010
0000
0100
0010
0100
0000
0000
0000
,
0010
0000
1000
0000
0001
0000
0000
0001
0000
0000
0001
0000
1000
0100
1000
0100
,
0020
0000
0000
0000
0031
0010
1000
0010
,
0001
0000
0010
0000
1000
0000
0010
0000
0001
0000
0010
0100
1000
0000
0001
0100
,
0020
0000
0100
0000
1030
0010
0001
0010
,
1000
0000
0010
0000
0001
0000
0010
0000
1000
0000
0010
0100
0001
0000
1000
0100
,
0020
0000
0100
0000
0031
0010
1000
0010
,
0001
0000
0100
0000
1000
0000
0100
0000
0001
0000
1000
0001
0010
0000
0100
0000
,
1000
0010
0001
1000
0100
0001
2000
3002
,
1003
0000
0100
0000
0001
0000
1000
0000
0010
0000
0001
0000
1000
0001
0010
0001
,
2000
0000
0000
0000
,
0000
0000
0000
0000
,
3001
0000
0001
0100
0000
0001
0100
1000
0000
0100
0000
0100
0001
0000
1000
0000
,
0001
0000
0001
0010
0000
0001
0010
1000
0000
0010
0000
0010
0100
0010
0001
1000
,
0020
0000
0000
0000
0100
0000
0130
0000
0000
0000
0100
0000
0010
0000
0100
0000
0002
0000
0000
0100
0000
0000
2003
0000
0000
0010
0000
0000
3001
0000
1000
0000
,
0200
0000
0000
0000
0010
0000
0310
0000
0000
0000
0100
0000
0001
0000
0100
0000
2000
0000
0000
0010
0000
0000
3002
0000
0000
0100
0000
0000
1003
0000
0001
0000
,
0020
0000
0000
0000
0100
0000
0130
0000
0000
0000
0100
0000
0010
0000
0100
0000
2000
0000
0000
0100
0000
0000
3002
0000
0000
0010
0000
0000
1003
0000
0001
0000
,
0200
0000
0000
0000
0010
0000
0310
0000
0000
0000
0100
0000
1000
0000
0100
0000
0002
0000
0000
0023
0000
0000
0230
0000
0000
2300
0000
0000
3001
0000
0100
0000
,
0010
0000
0100
0000
0010
0000
0002
0000
0000
0000
0013
0000
0100
0000
0010
0000
1000
0000
0001
1000
0000
0001
1000
0000
0001
0100
0000
0010
1000
0000
0001
0000
,
0010
0000
0100
0000
0010
0000
2000
0000
0000
0000
3010
0000
0100
0000
0010
0000
0001
0000
1000
0001
0000
1000
0001
0000
1000
0100
0000
0010
0001
0000
1000
0000
,
0001
0000
0100
0000
0010
0000
1000
0000
0001
0000
0010
0000
0100
0000
1000
0000
0020
0000
0000
0230
0000
0000
0302
0000
0000
2003
0000
0000
3100
0010
0100
0010
,
0200
0300
0000
0000
0100
0000
0010
0000
0001
0000
1000
0000
0010
0000
0100
0010
,
0100
0000
2000
0000
0000
0000
3100
0000
0010
0100
0010
0000
1000
0000
0001
0100
,
0000
0010
1000
0000
0001
0100
0000
0100
0010
0000
1000
0000
0001
0000
0010
0100
,
0010
0000
2000
0000
0000
0000
3010
0000
0100
0010
0001
0000
1000
0000
0010
0100
,
0000
0010
1000
0000
0010
0100
0000
0001
1000
0000
0100
0000
0010
0000
0100
0010
,
0100
0000
0002
0000
0000
0000
0103
0000
0010
0100
0010
0000
0001
0000
1000
0100
,
0000
0010
0001
0000
1000
0100
0000
0100
0010
0000
0001
0000
1000
0000
0010
0100
,
0010
0000
0002
0000
0000
0000
0013
0000
0100
0010
1000
0000
0100
0000
0000
0100
,
0010
0000
1001
0000
0000
0000
1001
0000
1000
0000
0001
0000
0100
0000
0001
0100
,
0010
0000
0002
0000
0000
0000
0013
0000
0100
0010
0100
0000
0001
0000
1000
0100
,
0000
0010
0001
0000
1000
0010
0000
0010
0100
0000
0001
0000
1000
0000
0001
0010
,
0100
0000
0002
0000
0000
0000
0103
0000
0010
0100
1000
0000
0001
0000
0100
0010
,
0000
0100
0001
0000
0100
0010
0000
1000
0001
0000
0010
0000
0100
0000
1000
0100
,
0010
0000
2000
0000
0000
0000
3010
0000
0100
0010
0100
0000
1000
0000
0001
0100
,
0000
0010
1000
0000
0100
0000
0010
0001
1000
0000
0001
0000
2002
0000
0000
0000
,
3003
0000
1000
0010
0001
0010
2000
0001
,
3001
0000
0000
0000
1000
0001
0010
0000
0001
1000
0010
0000
1000
0000
0100
0010
,
1000
0000
0002
0000
0000
0000
0103
0000
0010
0100
1000
0000
0001
0000
1000
0010
,
0000
0100
0001
0000
1000
0100
0000
0100
0010
0000
0001
0000
1000
0000
0010
0100
,
1000
0000
0002
0000
0000
0000
0013
0000
0100
0010
1000
0000
0001
0000
0010
1000
,
0000
0010
0001
0000
1000
0100
0000
0010
0001
0000
1000
0000
0001
0000
0100
0010
,
0001
0000
2000
0000
0000
0000
3100
0000
0010
0100
0001
0000
1000
0000
0001
0010
,
0000
0100
1000
0000
0001
0100
0000
0100
0010
0000
1000
0000
0100
0000
0010
0000
,
0010
0000
0100
0000
0010
0000
0010
0000
0001
0010
0100
1000
0010
0000
0000
1010
,
0000
0000
0110
0000
0000
0101
0000
0000
1000
0010
0100
0001
0010
0000
0100
0000
,
0010
0000
0002
0000
0000
0000
0013
0000
0100
0000
1000
0000
0002
0000
0000
0010
,
0000
0000
0010
0000
0000
0013
0000
0000
0100
0000
1000
0000
0010
0000
0100
0000
,
0010
0000
2000
0000
0000
0000
3010
0000
0001
0000
0010
0000
2000
0000
0000
0010
,
0000
0000
0010
0000
0000
3010
0000
0000
0100
0000
0001
0000
0010
0000
0100
0000
,
1000
0000
0002
0000
0000
0000
1003
0000
0010
0000
0100
0000
0002
0000
0000
1000
,
0000
0000
1000
0000
0000
1003
0000
0000
0001
0000
0010
0000
0100
0000
1000
0000
,
0001
0000
0200
0000
0000
0000
0310
0000
1000
0000
0100
0000
0020
0000
0000
0032
,
0000
0000
0203
0000
0000
0320
0000
0000
1030
0100
0010
0001
0000
0000
0000
0000
;

//---------------dance-single - ----------------
#NOTES:
     dance-single:
     :
     Medium:
     12:
     0.545122,0.847737,0.151498,0.549180,0.137295,403.000000,387.000000,16.000000,58.000000,0.000000,0.000000,0.545122,0.847737,0.151498,0.549180,0.137295,403.000000,387.000000,16.000000,58.000000,0.000000,0.000000:
0000
0000
0000
0000
,
0000
0000
0000
0000
,
0000
0000
0000
0000
,
0000
0000
0000
0000
0001
0010
0100
1000
,
0020
0000
1000
0000
0130
0001
0100
0001
,
0020
0000
0001
0000
0130
1000
0100
1000
,
0020
0000
1000
0000
0130
0001
1000
0001
,
0020
0130
0110
1001
,
1000
0010
0100
0000
0001
0010
0100
0000
,
1000
0001
0100
0000
0001
1000
0100
0000
,
0010
0100
0010
0100
1000
0001
1000
0001
,
0200
0000
0310
0000
1001
0000
0001
1000
,
0200
0000
0000
0000
0310
0001
1000
0000
,
1000
0001
0100
0000
0100
0001
0010
0001
,
0200
0000
0000
0000
0310
1000
0001
0000
,
0001
1000
0100
0000
0100
1000
0010
1000
,
0200
0000
0000
0000
0310
0001
1000
0000
,
0010
1000
0001
0000
1000
0100
0010
0001
,
0100
0100
0010
0010
,
2002
0000
3003
0000
0001
1000
0100
0010
,
0200
0000
1000
1000
,
0001
0000
0001
0000
0310
0100
1000
0001
,
0200
0000
0001
0001
,
1000
0000
1000
0000
0310
0100
0001
1000
,
0200
0000
1000
0001
,
1000
0301
1100
0011
,
1000
0010
0100
0001
1000
0010
0200
0000
,
0301
0010
0001
0100
0010
1000
0100
0010
,
0002
0000
0000
0000
,
0000
0000
0000
0000
,
1003
0000
0000
0010
0000
0000
0000
1000
0000
0010
0000
0100
0001
0000
1000
0000
,
0001
0000
0000
0010
0000
0000
0000
0001
0000
0010
0000
0100
1000
0000
0001
0000
,
1002
0000
0000
0100
0000
0000
1003
0000
0001
0000
0001
0000
1000
0000
1000
0000
,
2001
0000
0000
0100
0000
0000
3001
0000
1000
0000
0010
0000
0100
0000
0001
0000
,
1002
0000
0000
0010
0000
0000
1003
0000
0001
0000
0001
0000
1000
0000
1000
0000
,
2001
0000
0000
0010
0000
0000
3001
0000
1000
0000
0100
0000
0010
0000
0001
0000
,
0200
0000
0301
2000
0000
3001
0010
0000
0100
0010
0100
0000
0010
0100
0010
0000
,
0200
0000
1300
0002
0000
1003
0010
0000
0100
0001
1000
0000
0100
1000
0001
0000
,
2000
0000
3010
0200
0000
0301
1000
0000
0100
0010
0100
0010
0001
0010
0100
1000
,
0002
0003
0000
0000
2000
0000
0000
0000
3002
0000
0000
0000
1003
0000
0010
0000
,
1000
0020
0000
0130
1000
0100
0010
0000
,
1000
0010
0100
0010
1000
0000
1000
0100
,
1000
0200
0000
0310
1000
0010
0100
0000
,
0010
0001
0100
0010
1000
0000
0001
0010
,
0001
0020
0000
0130
0001
0100
0010
0000
,
0001
0010
0100
0010
0001
0000
0001
0100
,
0001
0000
0200
0000
0000
0000
0310
0000
0001
0000
0010
0000
0100
0000
0000
0010
,
0000
1001
0000
0001
1000
0000
0001
0010
,
0100
0002
0000
0103
0010
0001
1000
0000
,
0001
0010
0100
1000
0001
0000
0001
0100
,
0010
0002
0000
0013
0100
0001
0010
0000
,
0100
1000
0010
1000
0100
0000
1000
0010
,
0100
2000
0000
3100
0010
1000
0001
0000
,
1000
0010
0100
0001
1000
0000
2002
0000
,
3003
0000
0110
0000
1000
0001
0010
0100
,
0010
0000
0220
0000
0330
0000
1000
0100
,
0001
2000
0000
3001
0100
1000
0001
0000
,
1000
0010
0100
0001
1000
0000
1000
0001
,
0010
2000
0000
3001
1000
0010
0001
0000
,
0100
0010
1000
0100
0010
0000
0001
0100
,
1000
0002
0000
1003
0100
0001
1000
0000
,
0001
0010
0100
1000
0001
0000
1001
0000
,
1000
0000
0010
0000
0000
0000
0001
0000
0010
0000
0000
0000
1020
0000
0000
0230
,
0000
0000
0302
0000
0000
2003
0000
0000
3001
0000
0001
0000
0020
0000
0000
0000
,
0000
0000
0000
0230
,
1000
0000
0320
0000
0031
0100
0020
0000
,
0000
0000
0000
0230
,
0001
0000
0320
0000
1030
0100
0020
0000
,
0000
0000
0000
0032
,
0010
0000
2003
0000
3010
0100
0020
0000
,
0000
0000
0000
0230
,
0302
0000
1003
0100
0010
0001
0000
0000
;

//---------------dance-single - ----------------
#NOTES:
     dance-single:
     :
     Challenge:
     18:
     1.036138,1.764832,0.104155,1.003674,1.557588,766.000000,755.000000,11.000000,106.000000,0.000000,0.000000,1.036138,1.764832,0.104155,1.003674,1.557588,766.000000,755.000000,11.000000,106.000000,0.000000,0.000000:
// measure 0
0000
0000
0000
0000
,  // measure 1
0000
0000
0000
0000
,  // measure 2
0000
0000
0000
0000
,  // measure 3
0000
0000
0000
0000
0000
0000
0000
0000
0001
0010
0100
1000
0001
0100
0001
0100
,  // measure 4
0020
0000
0100
0000
0031
0010
1000
0001
,  // measure 5
1000
0100
0020
0000
1030
0010
0001
1000
,  // measure 6
0001
0000
0100
0000
0020
0000
0000
0000
1030
0100
0010
0000
0001
0000
0100
0000
,  // measure 7
0010
1000
0001
0000
1001
0000
1000
0010
,  // measure 8
0001
0010
1000
0100
0001
0100
1000
0001
,  // measure 9
0100
1000
0100
0001
0010
1000
0010
0001
,  // measure 10
1000
0010
1000
0010
0100
0001
0100
0001
1000
0100
1000
0001
0100
0001
1000
0100
,  // measure 11
0020
0000
0032
0003
0200
0300
0000
0000
0220
0330
0000
0000
1000
0010
0100
0001
,  // measure 12
2000
0000
0000
0000
0000
0000
0000
0000
3001
0000
0001
0010
0100
0000
0001
0000
,  // measure 13
0100
0010
0001
1000
0010
0000
0100
0001
0010
0000
0010
0001
0200
0000
0010
0000
,  // measure 14
0302
0000
0000
0000
0000
0000
0000
0000
1003
0000
1000
0010
0100
0000
1000
0000
,  // measure 15
0100
0010
1000
0001
0020
0000
0001
0000
0230
0000
1000
0000
0310
0000
0001
0000
,  // measure 16
2001
0000
0000
0000
0000
0000
0000
0000
3001
0000
0001
0100
0010
0000
0100
0010
,  // measure 17
0100
0001
1000
0001
0010
0000
0100
1000
0010
0000
0010
1000
0200
0000
0010
0000
,  // measure 18
2300
0000
0000
0000
3002
0000
0000
0000
1003
0001
0100
0001
2000
0000
0000
0000
,  // measure 19
3001
1000
0100
1000
0010
0000
0100
0010
0000
0010
0100
0000
0010
1000
0001
0010
,  // measure 20
0200
0000
0000
0000
0000
0000
0000
0000
0310
0000
0100
0010
0001
0000
0001
0010
,  // measure 21
0100
0000
0100
0010
0001
0000
0100
0010
0001
0000
0010
0100
0001
0000
0010
0100
,  // measure 22
0002
0000
0000
0000
0203
0000
2300
0000
3001
0000
0100
0010
1000
0000
1000
0010
,  // measure 23
0100
0000
0100
0010
1000
0000
0100
0010
1000
0000
0010
0100
1000
0000
0010
0100
,  // measure 24
2000
0000
0000
0000
3100
0010
0100
0001
1000
0000
1000
0100
0010
0000
0010
0001
,  // measure 25
1000
0000
1000
0001
0100
0000
0010
1000
0100
0000
0010
0001
0100
0000
0010
0000
,  // measure 26
1000
0001
0010
0100
1000
0001
1000
0100
0010
0001
0010
0100
2000
0000
0010
0000
,  // measure 27
3001
0100
0010
1000
0001
1000
0100
0010
0001
1000
0001
0100
0010
1000
0010
1000
,  // measure 28
0200
0000
0000
0000
,  // measure 29
0000
0000
0000
0000
,  // measure 30
1300
0000
1000
0100
0000
1000
0100
0001
0000
0100
0000
0100
1000
0000
0001
0000
,  // measure 31
1000
0000
1000
0010
0000
1000
0010
0001
0000
0010
0000
0010
1000
0001
0010
0100
,  // measure 32
0210
0000
0000
0000
0310
0100
2000
0000
0000
0000
3001
0000
0010
0100
0010
0000
0002
0000
0000
0010
0000
0000
2003
0000
0000
0100
0000
0000
3001
0000
1000
0001
,  // measure 33
0200
0000
0000
0000
0310
0100
0002
0000
0000
0000
1003
0000
0001
0100
0010
0000
2000
0000
0000
0010
0000
0000
3002
0000
0000
0100
0000
0000
1003
0001
1000
0001
,  // measure 34
0020
0000
0000
0000
0130
0010
0002
0000
0000
0000
1003
0000
0100
0010
0100
0000
2000
0000
0000
0100
0000
0000
3002
0000
0000
0010
0000
0000
1003
0000
0001
1000
,  // measure 35
0020
0000
0000
0000
0130
0010
2000
0000
0000
0000
3001
0000
1000
0100
0010
0000
0002
0000
0000
2003
0000
0000
3200
0000
0000
0320
0000
0000
0031
1000
0001
1000
,  // measure 36
0010
0000
0100
0010
0100
0000
2000
0000
0000
0000
3100
0000
0010
0100
0010
0000
1000
0000
0001
0100
0000
0001
0100
0000
0010
1000
0000
0010
1000
0000
0001
0000
,  // measure 37
0010
0000
0100
0010
0100
0000
0002
0000
0000
0000
0103
0000
0010
0001
1000
0000
0001
0000
1000
0010
0000
0100
0001
0000
1000
0100
0000
0010
0001
0000
1000
0000
,  // measure 38
0010
0100
0010
0100
0010
0100
0010
0100
0001
1000
0001
1000
0001
1000
0001
1000
0100
0010
0100
0010
0001
1000
0001
1000
0100
0010
0001
0010
0100
1000
0001
1000
,  // measure 39
0020
0030
0000
0000
0010
0100
0010
1000
0001
1000
0100
0010
0001
0000
0100
0010
,  // measure 40
0100
0000
2000
0000
0000
3100
0010
0100
0001
1000
0001
2000
0100
0000
3002
0010
,  // measure 41
0000
2003
0100
0000
3002
1000
0000
1003
0010
0100
0001
1000
0001
0000
0010
0100
,  // measure 42
0010
0000
2000
0000
0000
3010
0100
0010
0001
1000
0001
0200
0010
0000
0302
1000
,  // measure 43
0000
0023
0100
0000
0031
1000
0000
0001
1000
0010
0100
0001
1000
0000
0100
0010
,  // measure 44
0100
0000
0002
0000
0000
0103
0010
0100
1000
0001
1000
0002
0100
0000
2003
0010
,  // measure 45
0000
3002
0100
0000
2003
0001
0000
3001
0010
0100
1000
0001
1000
0000
0010
0100
,  // measure 46
0010
0000
0002
0000
0000
0013
0100
0010
1000
0001
1000
0100
0010
0000
0001
0100
,  // measure 47
0010
0000
0110
0000
0000
0000
1001
0000
1000
0100
0010
0001
1000
0000
0001
0100
,  // measure 48
0010
0000
0002
0000
0000
0013
0100
0010
1000
0001
0100
0002
0010
0000
2003
0100
,  // measure 49
0000
3002
0100
0000
2003
0100
0000
3010
1000
0010
0100
0001
1000
0000
0001
0010
,  // measure 50
0100
0000
0002
0000
0000
0103
0010
0100
1000
0001
1000
0020
0100
0000
2030
0001
,  // measure 51
0000
3200
0010
0000
1300
0001
0000
1000
0001
0100
0010
1000
0001
0000
1000
0100
,  // measure 52
0010
0000
2000
0000
0000
3010
0100
0010
0001
1000
0100
2000
0010
0000
3002
0100
,  // measure 53
0000
2003
0100
0000
3002
0100
0000
0013
0001
1000
0010
0000
0220
0000
0000
0000
,  // measure 54
0330
0000
0000
0000
1001
0000
0001
0100
0010
1000
0100
0010
0002
0000
0010
0000
,  // measure 55
2003
0000
0000
0000
3001
0100
0010
1000
0100
1000
0010
0100
0001
0000
0010
0100
,  // measure 56
0001
0000
2000
0000
0000
3010
0100
1000
0001
1000
0010
0200
1000
0000
0320
0100
,  // measure 57
0000
2030
0001
0000
3200
0010
0000
0310
0001
1000
0100
0010
0001
0000
0100
0010
,  // measure 58
0001
0000
2000
0000
0000
3100
0010
1000
0001
0010
0100
0020
1000
0000
0230
0010
,  // measure 59
0000
2300
0001
0000
3010
0100
0000
0001
1000
0100
0010
0001
1000
0000
0010
0100
,  // measure 60
1000
0000
0002
0000
0000
0013
0100
0001
1000
0001
0010
0200
0001
0000
0320
0100
,  // measure 61
0000
0032
1000
0000
0203
0010
0000
0310
1000
0001
0100
0010
1000
0000
0001
0000
,  // measure 62
0001
0000
1000
0000
0001
0010
0100
1000
0001
0010
1000
0010
0001
0000
0000
1100
,  // measure 63
0000
0000
1001
0000
0000
0101
0000
0000
1000
0010
0001
0010
1000
0000
0001
0100
,  // measure 64
0010
0000
0200
0000
0000
0000
0310
0000
0100
0001
1000
0001
0020
0000
0000
0001
,  // measure 65
0000
0000
0001
0000
0000
0031
0000
0000
1000
0010
0100
0001
1000
0000
0001
0010
,  // measure 66
0100
0000
0020
0000
0000
0000
0130
1000
0001
0100
0010
1000
0200
0000
0000
0320
,  // measure 67
0000
0000
0032
0000
0000
2003
0000
0000
3001
0100
0010
1000
0001
0000
1000
0100
,  // measure 68
0010
0000
0200
0000
0000
0000
0310
0000
0100
1000
0001
1000
0020
0000
0000
1000
,  // measure 69
0000
0000
1000
0000
0000
1030
0000
0000
0010
0100
0010
0100
0001
0000
1000
0100
,  // measure 70
0010
0000
0200
0000
0000
0000
0310
0000
0100
0010
0100
1000
0002
0000
0000
0203
,  // measure 71
0000
0000
0320
0000
0000
1030
0010
1000
0010
0100
0001
0010
0000
0000
0000
0000
;

//---------------dance-single - ----------------
#NOTES:
     dance-single:
     :
     Easy:
     9:
     0.339518,0.541605,0.142029,0.530243,0.000000,251.000000,236.000000,15.000000,56.000000,0.000000,0.000000,0.339518,0.541605,0.142029,0.530243,0.000000,251.000000,236.000000,15.000000,56.000000,0.000000,0.000000:
0000
0000
0000
0000
,
0000
0000
0000
0000
,
0000
0000
0000
0000
,
0000
0000
0001
1000
,
2001
0000
3010
0100
,
0002
0000
0013
0100
,
2000
0000
3010
0100
,
0002
0003
1001
1001
,
1000
0100
0010
0001
,
0010
0100
1000
0001
,
0100
0010
0100
0010
,
0200
0000
0300
0000
,
0120
0000
1030
0000
,
0010
1000
0100
0010
,
0120
0000
0031
0000
,
0010
0001
0100
0010
,
0210
0000
0310
0000
,
0100
0010
1000
0001
,
0010
0010
0010
0100
,
2000
0000
0001
3001
,
1002
0000
0100
0100
,
1000
1003
0010
1000
,
2001
0000
0100
0100
,
0001
3001
0010
0001
,
1002
0000
0100
2003
,
0100
3001
1000
0010
,
0100
0100
0200
0300
,
0001
1000
0100
0010
,
0002
0000
0000
0000
,
0000
0000
0000
0000
,
2003
3000
0020
0030
,
0200
0300
0002
0003
,
2001
0000
3100
0000
0100
0010
0100
0000
,
0020
0000
0130
0000
0010
0001
1000
0000
,
0002
0000
0103
0000
0100
0010
0100
0000
,
0020
0000
0130
0000
0010
1000
0001
0000
,
1000
0100
1000
0100
1000
0100
0010
0000
,
0001
0100
0001
0100
0001
0100
0010
0000
,
1000
0100
0010
0001
0010
0100
1000
0001
,
2000
3000
0000
0000
2002
0000
0000
0000
3003
0000
0000
0000
2000
0000
0000
0000
,
0000
3020
0000
0000
0100
0000
1030
0000
,
0010
1000
0010
0000
0010
0000
2000
0000
,
0000
3200
0000
0000
0010
0000
1300
0000
,
0001
0100
0010
0000
1000
0000
0002
0000
,
0000
0023
0000
0000
0100
0000
0031
0000
,
0010
0001
0010
0000
0010
0000
0002
0000
,
0000
0203
0000
0000
0010
0000
0301
0000
,
1000
1001
0000
0002
,
0000
0023
0000
0000
0100
0000
0031
0000
,
0010
0100
1000
0000
1000
0000
0002
0000
,
0000
0203
0000
0000
0010
0000
0301
0000
,
1000
0100
0010
0000
0001
0000
2000
0000
,
0000
3020
0000
0000
0100
0000
1030
0000
,
0010
0100
0001
0000
0001
0000
2002
0000
,
3003
0110
0000
1000
,
0001
1000
0000
0002
,
0000
0023
0000
0000
1000
0000
0130
0000
,
0010
0001
1000
0000
1000
0000
0002
0000
,
0000
0203
0000
0000
1000
0000
0310
0000
,
1000
0001
1000
0000
0100
0000
2000
0000
,
0000
3020
0000
0000
0001
0000
0130
0000
,
0010
1000
0001
0000
0001
0000
2000
0000
,
0000
3200
0000
0000
0301
0000
0220
0000
,
0000
0000
0330
2000
,
0000
0000
0000
3001
,
0010
0100
1000
0002
,
0000
0000
0000
1003
,
0010
0100
0001
0020
,
0000
0000
0000
0130
,
0010
0100
0010
0002
,
0000
0000
0000
0103
,
0010
0100
1000
0000
;

//---------------dance-single - ----------------
#NOTES:
     dance-single:
     :
     Beginner:
     6:
     0.250242,0.337320,0.189372,0.511306,0.000000,185.000000,165.000000,20.000000,54.000000,0.000000,0.000000,0.250242,0.337320,0.189372,0.511306,0.000000,185.000000,165.000000,20.000000,54.000000,0.000000,0.000000:
0000
0000
0000
0000
,
0000
0000
0000
0000
,
0000
0000
0000
0000
,
0000
0000
0100
0000
,
1001
0000
0001
0001
,
0001
0000
1000
0001
,
1000
0000
1000
1000
,
1000
0000
0001
1000
,
0002
0003
0020
0030
,
0200
0300
2000
3000
,
0001
0100
0001
0100
,
0020
0000
0030
0000
,
2002
0000
3003
0000
,
1000
0010
1000
0000
,
2002
0000
3003
0000
,
0001
0010
0001
0000
,
2002
0000
3003
0000
,
0001
0100
0001
0000
,
1000
0100
1000
0000
,
0020
0000
0030
0000
,
2002
3003
1000
0010
,
1000
0010
0100
0000
,
2002
3003
0001
0010
,
0001
0010
0100
0000
,
2002
3003
1000
0001
,
0100
0010
1000
0000
,
0001
0001
0002
0003
,
0010
0100
0010
0100
,
2000
0000
0000
0000
,
0000
0000
0000
0000
,
3002
0003
0200
0300
,
0020
0030
2000
3000
,
2002
3003
0001
0010
,
0200
0300
1000
0010
,
0200
0300
0001
1000
,
0200
0300
0010
0001
,
2000
0010
0010
0010
,
3002
0010
0010
0010
,
2003
3020
0230
0302
,
1003
2002
3003
1002
,
0000
0013
0000
0001
,
0010
0001
0000
1002
,
0000
0103
0000
0001
,
0100
0010
0000
2001
,
0000
3010
0000
1000
,
0010
1000
0000
2001
,
0000
3100
0000
0010
,
0001
1000
0000
2001
,
0000
3010
0000
1000
,
0010
1000
0000
2001
,
0000
3100
0000
1000
,
0100
0010
0000
1002
,
0000
0013
0000
0001
,
0010
0001
0000
0200
,
0000
0310
0000
0100
,
0010
0010
0000
2001
,
0000
3100
0000
0010
,
0001
0100
0000
2001
,
0000
3010
0000
0100
,
0001
0010
0000
1002
,
0000
0103
0000
0010
,
1000
0100
0000
0010
,
0001
0100
0000
0220
,
0000
0330
0000
2000
,
0000
0000
0000
3001
,
0000
0001
0000
0002
,
0000
0000
0000
0013
,
0000
0010
0000
0020
,
0000
0000
0000
0130
,
0000
0100
0000
0200
,
0000
0000
0000
1300
,
0000
0001
0000
0000
;
