#TITLE:バラライカ;
#SUBTITLE:;
#ARTIST:Happy Around!;
#TITLETRANSLIT:Balalaika;
#SUBTITLETRANSLIT:;
#ARTISTTRANSLIT:;
#GENRE:;
#CREDIT:;
#MUSIC:Balalaika.ogg;
#BANNER:Balalaika.png;
#BACKGROUND:Balalaika-bg.png;
#CDTITLE:;
#SAMPLESTART:81.200;
#SAMPLELENGTH:12.400;
#SELECTABLE:YES;
#OFFSET:0.000;
#BPMS:0.000=150.000
,162.000=300.000
,173.000=150.000
,174.000=75.000
,188.500=150.000
;
#STOPS:50.000=0.400
,129.000=0.400
,170.000=0.100
,170.500=0.100
,171.000=0.100
,171.500=0.100
,172.000=0.050
,172.250=0.050
,172.500=0.050
,172.750=0.050
,188.000=0.200
,188.250=0.200
,188.500=0.200
;
#DISPLAYBPM:75.000:150.000;
#JACKET:Balalaika-jacket.png;
#BGCHANGES:;
#FGCHANGES:;

//--------------- dance-single - Pandemonium X ----------------
#NOTES:
     dance-single:
     Pandemonium X:
     Beginner:
     4:
     0,0,0,0,0:
0000
0000
0000
0000
,
0000
0000
0000
0000
,
0000
0000
0000
0000
,
0000
0000
0000
0000
,
0000
0000
0000
0000
,
0001
1000
0000
0000
,
0000
0000
0000
0000
,
0000
0000
0000
0000
,
0110
0000
0000
0000
,
1000
0001
0010
0000
,
0100
0000
0000
0000
,
0010
0001
1000
0000
,
0100
0000
0000
1000
,
0001
0100
0000
0010
,
0000
0100
0000
0001
,
1000
0010
0000
0100
,
0000
0000
0000
1001
,
0000
0000
0000
0001
,
0000
1000
0000
0010
,
0000
0000
0000
0100
,
0000
0100
0000
0110
,
0000
0010
0000
1000
,
0000
0001
0000
0010
,
0000
0100
0000
1000
,
0000
0001
0000
1000
,
0000
1000
0000
1000
,
1000
1000
0000
0001
,
0000
0100
0000
1001
,
0000
0000
0000
0001
,
0000
0001
0000
0001
,
0001
0001
0000
1000
,
0000
0001
0000
0100
,
0100
0100
0010
0000
,
0000
0000
0100
0000
,
0000
0000
0001
0000
,
0000
0000
1000
1000
,
1000
0000
1001
0000
,
0000
0000
0110
0000
,
0000
0000
0001
0000
,
1000
0000
0010
0010
,
0010
0000
0100
0000
,
0000
0000
0000
0000
,
0000
0000
0000
0000
,
0000
0000
1001
1000
,
0001
0010
0110
0100
,
1000
1000
1000
0000
1001
0000
1000
0000
,
0001
0010
0001
1000
,
0110
0000
0001
0001
,
0001
0000
1000
1000
,
1000
0000
0110
0000
,
0001
0000
1000
0001
,
1000
0000
0010
0010
,
0010
0000
0100
0100
,
0100
0000
1001
0000
,
0110
0000
1001
0110
,
1001
0000
0001
0000
,
1000
0000
0010
0000
,
1000
0000
0100
0000
,
0010
0000
0001
0001
,
0001
0000
1000
1000
,
1000
0000
0001
0001
,
0001
0000
1001
0000
,
0110
0000
1001
0110
,
1001
0000
0000
0000
;

//--------------- dance-single - Pandemonium X ----------------
#NOTES:
     dance-single:
     Pandemonium X:
     Easy:
     8:
     0,0,0,0,0:
0000
0000
0000
0000
,
0000
0000
0000
0000
,
0000
0000
0000
0000
,
0000
0000
0000
0000
,
0000
0000
0000
0000
,
0001
1000
0010
1000
,
0001
0010
0100
0010
,
0001
0100
0010
1000
,
2002
0000
0000
3003
,
0001
0100
0010
0000
,
0100
0001
1000
0100
,
0010
0100
1000
0000
,
0100
1000
1001
0001
,
1000
0010
1000
0001
,
0010
0100
0010
0001
,
0100
0010
1000
0001
,
1000
0010
0100
0102
,
0000
0003
0000
0000
0000
1000
0002
0000
,
0000
1003
1001
0002
,
0000
0000
0000
0000
0003
0100
0010
0000
,
0000
0100
0001
0000
1000
0000
0001
0000
,
0001
1000
1000
0010
,
0010
0100
0100
0010
,
1000
0001
0100
1001
,
0000
0000
0000
0000
0001
0100
0010
0000
,
0100
0010
1000
0000
0010
0100
0001
0000
,
1000
0100
0010
0100
,
1000
0010
0100
0000
0001
0000
2002
0000
,
0000
0000
3003
0000
1000
0001
0010
0000
,
0001
1000
0010
0000
1000
0001
0100
0000
,
0001
1000
0100
0010
,
0001
0010
0100
0000
0010
0000
0001
0100
,
0010
1000
0001
0000
1000
0000
0000
0000
,
0001
0100
1010
0000
,
1000
0100
0011
0000
,
0001
0000
0100
0000
0010
0100
0010
0100
,
0010
0000
1000
0001
,
0010
0001
1000
0100
,
0010
0000
0001
0000
1000
0001
1000
0000
,
0001
1000
0001
0000
1100
0000
0101
0000
,
1100
0000
0000
0000
,
0000
0000
0000
0000
,
0000
0000
0000
0000
,
0000
0000
0001
0101
,
0100
0010
1010
0000
1100
0000
1000
0100
,
0001
0100
1000
0000
1001
0000
0011
0000
,
0001
0010
0110
0000
0011
0000
0001
0100
,
0010
0010
0010
0000
0100
0000
0010
0000
1000
0000
0000
0000
0001
0000
0000
0000
,
1000
1000
1000
0000
0001
0000
0010
0000
,
0100
0000
0010
0001
0101
0000
0000
0100
,
0010
0000
1000
0000
0001
0010
0001
1000
,
0001
1000
0010
1010
,
0110
0000
0001
0100
0001
0000
0010
0000
,
0110
0000
0100
1000
0100
0000
0000
1000
,
0001
0000
0100
0000
0010
0100
0001
1000
,
0001
0000
1000
0100
,
0110
0011
0001
0100
,
0101
1010
1000
1001
,
0001
1001
0101
1001
,
1100
1001
1000
1000
,
1010
1100
0001
0001
,
0011
0101
1001
0010
,
1001
0000
0100
0000
0001
0100
0010
1000
,
0001
0000
0000
0000
;

//--------------- dance-single - Pandemonium X ----------------
#NOTES:
     dance-single:
     Pandemonium X:
     Medium:
     12:
     0,0,0,0,0:
0000
0000
0000
0000
,
0000
0000
0000
0000
,
0000
0000
0000
0000
,
0000
0000
0000
0000
,
0000
0000
0000
0000
,
0000
0001
0100
0100
0010
0010
1000
1000
,
0001
1000
0000
0001
1000
0000
0001
1000
0000
0000
0100
0000
0110
0000
0110
0000
,
0000
0000
0100
1000
0010
0100
0001
1000
,
0002
0000
0003
0000
,
1000
0000
0100
0000
0010
0001
0000
1000
0000
0000
0000
0000
0000
0000
0001
0000
,
0100
0000
0000
0100
0000
0000
0010
0000
1000
0000
0000
0000
0001
0000
0000
0000
,
1000
0000
0001
0000
0100
0001
0000
0010
0000
0000
0000
0000
0000
0000
0100
0000
,
0010
0000
0000
0001
0000
0000
0100
0000
1001
0000
0000
0000
1000
0000
0001
0000
,
0100
0001
0000
0010
0000
0000
0000
0000
0000
0000
0100
0000
0010
0000
0000
0001
,
0000
0100
0010
0000
1000
0000
0001
1000
,
0010
0100
0000
0001
0000
0000
0000
0000
0000
0000
0000
0000
0100
0000
0000
0010
,
0100
0000
0000
0100
0001
0000
0010
0000
1000
0000
0010
0000
0011
0000
0000
0010
,
0000
0000
0010
0000
0000
0000
0000
0000
0000
0000
0010
0000
0100
0000
0000
0100
,
0000
0000
0100
0000
1000
0000
0000
0000
1000
0000
0000
0000
0001
0000
0000
0001
,
0000
0001
0000
1000
0000
0001
1001
0000
,
0000
0000
1000
0000
1001
0000
0000
0001
0000
0001
0000
0001
0100
0000
0010
0000
,
1000
0000
0001
0010
0100
0000
0010
0001
,
1000
0000
0010
0100
0001
0000
0100
0010
,
1000
0000
0001
0010
0100
0000
2200
0000
,
3300
0000
0000
0000
0010
0001
0000
0001
0100
0000
0010
0000
1001
0000
0000
0000
,
0010
0100
1001
0000
0100
0010
1001
0000
,
0110
1001
0001
0100
,
0010
1000
0001
0000
0010
0000
2200
0000
,
0000
0000
3300
0000
0010
0001
0101
0000
,
0010
1000
1100
0000
0100
0010
0110
0000
,
0011
1100
0101
1001
,
0001
0100
0010
0000
0110
0000
0010
0010
,
0100
0001
1001
0000
1000
0000
0001
0100
,
0001
0000
0000
0010
0000
0000
0100
0000
1000
0000
0000
0000
0100
0000
1000
0000
,
0100
0000
0000
1000
0000
0000
0010
0000
0100
0000
0000
0000
0010
0000
1000
0000
,
0010
0000
0000
1000
0000
0000
0001
0000
0010
0000
0100
0000
0010
0000
0100
0000
,
1000
0000
0000
0000
0000
0000
0000
0000
0001
0100
0000
0001
0100
0000
0010
0000
,
1000
0000
0000
0000
0001
0000
0000
0000
1000
0100
0000
1000
0100
0000
1000
0000
,
0100
0000
0010
0000
0001
0001
0100
0010
,
1000
0000
0000
1000
0000
0000
0010
0000
0000
0100
0000
0000
0001
0000
0000
0000
0100
0000
0010
0000
0000
0000
0010
0000
,
1000
0001
0010
0100
1000
0001
1000
0000
0000
0000
0000
0000
,
0000
0000
0000
0000
,
0000
0000
0000
0000
,
0000
0000
0000
0000
0001
0000
0100
0000
0110
0000
0101
0000
0001
0001
0001
1000
,
0001
0000
0011
0000
0001
0000
0010
0100
1100
0000
0000
0100
1000
0010
0100
0001
,
0010
1000
0010
0001
1000
0000
0001
0100
0110
0000
0110
0000
1010
0000
0010
0100
,
0001
0000
0011
0000
1100
0000
0100
0010
0011
0000
0000
0001
0010
0100
1000
0001
,
1000
0001
0100
0000
0001
0000
0100
0000
0010
0000
0000
0000
1010
0000
0000
0000
,
1000
1000
1000
0001
0010
0000
0110
0000
,
0010
0000
0000
0001
0010
0000
0100
0000
1000
0000
0000
0000
0000
0000
0100
0000
,
1000
0010
0100
0001
0010
1000
0010
0001
,
1000
0000
0001
0100
0110
0000
0101
0000
,
0011
0000
0000
0010
0001
0000
0010
0000
0100
0000
0000
0000
1100
0000
0000
0000
,
1100
0000
0000
0100
1000
0000
0010
0000
0110
0000
0000
0000
0000
0000
0100
0000
,
0010
1000
0001
0010
0002
2003
3002
2003
,
3010
0000
0000
0000
0000
0000
0100
0000
0100
0001
0000
0001
,
0010
0000
0010
0100
0000
0000
0100
0000
0100
1000
0000
1000
,
0010
0100
0010
0100
0000
0000
0100
0001
0100
0010
0000
0000
,
0100
0010
0100
0001
0000
0000
1000
0000
1000
0001
0000
0001
,
0100
0000
0100
0010
0000
0000
0010
1000
0010
1000
0010
1000
,
0010
0000
1000
0010
0000
0000
0010
0100
0010
0100
0010
0100
,
0010
0000
0100
0001
0000
0000
0001
0000
0001
0010
0000
0010
,
0100
0000
0000
0000
0100
0000
1000
0000
0000
0000
1000
0000
0002
0000
0000
2003
0000
0000
3002
0000
0000
2003
0000
0000
,
3010
0000
0000
0000
;

//--------------- dance-single - Pandemonium X ----------------
#NOTES:
     dance-single:
     Pandemonium X:
     Hard:
     14:
     0,0,0,0,0:
0000
0000
0000
0000
,
0000
0000
0000
0000
,
0000
0000
0000
0000
,
0000
0000
0000
0000
,
0000
0000
0000
0000
,
0000
0000
0001
1000
0001
0100
0001
0000
0001
1000
0001
0000
1000
0000
0001
0000
,
1000
0001
0000
0001
1000
0000
1000
0010
0000
0000
0100
0010
0100
0000
0010
0000
,
1000
0000
0000
0000
0100
0010
0100
0000
1000
0001
1000
0001
1000
0001
0000
0000
,
1000
0010
0100
0001
0010
0100
1000
0001
1000
0010
1000
0010
0200
0000
0000
0000
,
0301
0000
0010
0000
0100
2000
0000
3010
0000
0000
0000
0000
0000
0000
0100
0010
,
1000
0000
0000
0001
0000
0000
1000
0000
0001
0000
0000
0000
0010
0000
0000
0000
,
0100
0000
0010
0000
0001
0200
0000
0310
0000
0000
0000
0000
0000
0000
0100
0010
,
1000
0000
0000
0001
0000
0000
1000
0000
1100
0000
0000
0000
0001
0000
1000
0000
,
0010
0100
0000
0100
0001
0000
0000
0000
0100
0000
0010
1000
0001
0000
0000
0001
,
0000
0100
0010
0000
1000
0000
0001
1000
,
0010
1000
0000
1000
0100
0000
0010
0000
0001
0010
0001
0010
0001
0000
0000
1000
,
0001
0100
0000
0010
0000
1000
0000
0001
1000
0000
0100
0000
1001
0000
0000
0001
,
0000
0000
0001
0000
0000
0000
0000
0000
0000
0000
0001
0000
1000
0000
0000
1000
,
0000
0000
1000
0000
0010
0000
0000
0000
0010
0000
0000
0000
0100
0000
0000
0100
,
0000
0100
0000
0010
0000
0100
0001
0000
,
0000
0000
0100
0000
0010
0000
0000
1000
0000
1000
0000
1000
0010
0000
1000
0000
,
0010
1000
0001
1000
0001
1000
0001
0010
,
0001
0010
0100
0010
0100
0010
0100
1000
,
0100
1000
0001
0100
0001
0100
0220
0000
,
0330
0000
1000
0001
0010
0100
0000
0100
0010
0000
0001
0000
1001
0000
0000
0000
,
0001
0100
1010
0000
1000
0100
0011
0000
,
1100
0101
1000
0010
,
0100
0001
0010
0000
0100
0000
2100
0000
,
0000
0000
3010
0000
0100
0001
1001
0000
,
0001
1000
1100
0000
0100
0010
0011
0000
,
1100
0011
0001
0100
,
0010
1000
0001
0000
0010
0000
0100
0100
,
0010
0001
0110
0000
2002
0000
3003
0001
,
0100
0000
0000
0100
0000
0000
0100
0000
0110
0000
0000
0000
0000
0000
0010
0000
,
1000
0000
0000
1000
0000
0000
1000
0000
1001
0000
0000
0000
0000
0000
0001
0000
,
0010
0000
0000
0010
0000
0000
0010
0000
0110
0000
0100
0000
1000
0000
0001
0000
,
0200
0000
0000
0000
0300
0000
0010
0000
1000
0100
0000
1000
0100
0000
0010
0000
,
0001
0100
0000
0001
0100
0000
0010
0000
1000
0001
0000
1000
0001
0000
0010
0000
,
0100
0010
0000
0100
0010
0000
0001
0000
0100
0000
0010
0000
1000
0000
0001
0000
,
0100
0000
0000
0010
0000
0000
1000
0000
0000
0001
0000
0000
1000
0000
0100
0000
0010
0000
0001
0000
0010
0000
0100
0000
,
1000
0001
0100
0010
1000
0001
0010
0000
0000
0000
0000
0000
,
0000
0000
0000
0000
,
0000
0000
0000
0000
,
0000
0000
0000
0000
0000
0000
0000
0000
0001
0000
0000
0000
0100
0000
0000
0000
1020
0000
0000
0000
0130
0000
0000
0000
0001
0010
0001
0010
0001
0000
1000
0000
,
0001
0000
0000
0000
0011
0000
0000
0000
0010
0000
0000
0010
0100
0000
0010
0000
1001
0000
0000
0000
0000
0000
0001
0000
0010
0000
1000
0000
0010
0000
0001
0000
,
0100
0000
0100
0000
0010
0000
1000
0000
0001
0000
0000
0000
1000
0000
0001
0000
1020
0000
0000
0000
0130
0000
0000
0000
0010
0000
0000
0100
0001
0000
0010
0000
,
1000
0000
0000
0000
1010
0000
0000
0000
0010
0000
0000
0010
0001
0000
1000
0000
1001
0000
0000
0000
0000
0000
1000
0000
0010
0000
1000
0000
0001
0000
0010
0000
,
0011
1100
0101
0000
0001
0000
1000
0000
1010
0000
0000
0000
0101
0000
0000
0000
,
1000
0001
1000
0001
1000
0000
0001
0000
0101
0000
0000
0000
1010
0000
0000
0000
,
1100
0000
0000
1000
0100
0000
0010
0000
1001
0000
0000
0000
0000
0000
0001
0000
,
1000
0010
0001
0010
1000
0001
0010
0100
,
1000
0000
0100
1000
1010
0000
0101
0000
,
0011
0000
0000
0001
0010
0000
0100
0000
1000
0000
0000
0000
1100
0000
0000
0000
,
1010
0000
0000
0010
0100
0000
0001
0000
1001
0000
0000
0000
0000
0000
0001
0000
,
0100
0000
0010
0000
1000
0000
0001
0000
2000
3000
2000
0000
0002
0003
0002
3000
,
1003
0000
0000
0000
0000
0000
0001
0100
0001
0010
0001
0100
,
0010
0000
0100
0010
0000
0010
1000
0100
0010
0001
0000
1000
,
0001
0000
0010
0100
0000
0100
1000
0010
1000
0001
1000
0100
,
1000
0010
1000
0001
0000
0000
1000
0000
1000
0001
0010
0001
,
0100
0001
0010
0200
0000
0000
1300
0100
0001
0100
1000
0010
,
0100
0000
0100
0010
0000
0010
0100
1000
0100
0001
0100
1000
,
0100
0000
0010
1000
0000
0100
0001
0010
0100
1000
1000
1000
,
0001
0000
0000
0000
0100
0000
0000
0000
0010
0000
0000
0000
1000
0000
0000
0000
1000
0000
0000
0000
1000
0000
0000
0000
0002
0000
0000
0003
0000
0000
0002
0000
0000
0000
0000
0000
2000
0000
0000
3000
0000
0000
2000
0000
0000
0003
0000
0000
,
0002
3003
0000
0000
;

//--------------- dance-single - Pandemonium X ----------------
#NOTES:
     dance-single:
     Pandemonium X:
     Challenge:
     16:
     0,0,0,0,0:
0000
0000
0000
0000
,
0000
0000
0000
0000
,
0000
0000
0000
0000
,
0000
0000
0000
0000
,
0000
0000
0000
0000
,
1001
0000
0001
1000
0010
0100
0010
0000
0100
0010
0100
0000
0001
0000
1000
0000
,
0001
0010
0000
0010
1000
0000
1000
0001
0000
0000
1000
0100
1000
0000
1000
0000
,
0001
0000
0100
0000
0010
0100
0010
0000
1000
0001
1000
0100
0010
0001
0010
0001
,
1000
0000
0000
0001
0000
0000
1000
0000
0001
0000
1000
0000
0001
0000
0000
1000
0000
0000
0001
0000
0000
0100
0000
0000
0010
0000
0000
1000
0000
0000
0001
0000
0000
0100
0000
0000
0020
0000
0000
0000
0000
0000
0000
0000
0000
0000
0000
0000
,
1030
0000
1000
0000
0100
1000
0000
0011
0000
0000
0000
0000
0000
0000
0001
0100
,
0010
0000
0000
1000
0000
0000
0001
0000
1000
0000
0000
0000
0110
0000
0000
0000
,
1001
0000
1000
0000
0001
0100
0000
1010
0000
0000
0000
0000
0000
0000
1000
0100
,
0010
0000
0000
0001
0000
0000
0100
0000
1020
0000
0000
0000
0130
0000
0010
0000
,
1000
0001
0000
1100
0000
0000
0000
0000
1000
0000
0001
1000
0020
0000
0000
1030
,
0000
0010
0110
0000
0101
0000
1000
0001
,
0010
0000
0001
0000
1000
0000
0010
0000
1000
0010
0100
0001
1000
0000
0000
1000
,
0100
0000
0000
0010
0000
0000
0100
0000
0000
1000
0000
0000
0001
0000
1000
0000
0001
0000
1000
0000
0000
0001
0000
0000
0100
0000
0000
0010
0000
0000
1000
0000
0000
0001
0000
0000
0020
0000
0000
0000
0000
0000
0000
0000
0000
0100
0000
0000
,
0000
0000
0130
0000
0000
0000
0000
0000
0000
0000
0020
0000
0001
0000
0000
0001
,
0000
0000
0001
0000
0100
0000
0000
0000
0130
0000
0000
0000
2001
0000
0000
0010
,
0000
0000
0010
0000
0000
0000
0010
0000
0000
0000
3010
0100
0010
0000
0000
0000
,
0000
0000
0100
0000
1001
0000
0000
1000
0000
1000
0000
1000
0010
0000
0100
0000
,
0010
0100
0001
1000
0001
1000
0001
0010
,
0100
1000
0001
0010
0100
1000
0001
0100
,
0001
0000
0100
0000
0010
0000
1000
0000
0010
0000
1000
0000
0001
0100
0000
0010
,
1000
0000
0001
0000
1000
0010
0000
0100
0000
0001
1000
0000
1001
0000
0000
0000
,
0100
0010
1001
0000
0010
0100
1001
0000
,
0110
0000
0000
0000
1001
0000
0000
0000
0101
0000
0000
0001
0010
0000
0000
0010
,
0100
0000
0000
0000
0000
0000
1000
0000
0000
0000
0000
0000
0010
0000
0000
0000
0000
0000
0000
0000
0000
1000
0000
0000
0010
0000
0000
0000
0000
0000
0100
0000
0000
0000
0000
0000
0004
0000
4000
0000
0000
0000
0000
0000
0000
0000
0000
0000
,
0000
0000
3003
0000
0001
1000
0110
0000
,
1000
0001
0110
0000
1000
0001
1001
0000
,
0110
0000
0000
0000
1001
0000
0000
0000
1010
0000
0000
1000
0010
0000
0000
0010
,
0100
0001
0010
0000
1001
0000
1000
1000
,
0001
1000
1010
0000
0201
0000
0010
0000
,
0301
0000
0000
0011
0000
0000
0110
0000
1100
0000
0000
0000
0100
0000
1000
0001
,
1000
0000
0000
0101
0000
0000
1010
0000
1001
0000
0000
0000
0001
0000
0000
0000
,
1001
0000
0000
0011
0000
0000
1001
0000
1010
0000
0010
0000
0100
0000
0001
0010
,
0200
0000
2300
0000
3020
0000
0130
0000
0001
1000
0001
1000
0010
0000
0100
0000
,
0001
0100
0001
0100
0010
0000
1000
0000
0100
0010
0100
0010
0001
0000
1000
0000
,
0001
0010
0001
0010
0100
0000
1000
0000
0001
0000
0100
0000
1000
0000
0100
0000
,
0001
0000
0000
0010
0000
0000
1000
0000
0000
0010
0000
0000
0001
0000
0010
0000
0100
0000
1000
0000
0010
0000
0100
0000
,
0001
1000
0000
0001
1000
0000
0010
0000
1001
0000
0000
0000
0000
0000
0000
0000
,
0000
0000
0000
0000
,
0000
0000
0000
0000
2000
3200
0320
0032
,
2003
0000
3200
0000
0320
0000
0032
0000
1003
0000
0000
0000
0001
0000
0000
0000
0201
0000
0000
0000
0310
0000
0000
0000
1000
0001
0010
0001
1000
0000
0001
0000
,
1002
0000
0000
0000
0103
0000
0000
0000
0001
0000
0000
0001
1000
0000
0100
0000
1001
0000
0000
0000
0000
0000
1000
0000
0100
0000
0001
0000
0100
0000
1000
0000
,
0010
0000
0010
0000
0001
0000
0010
0000
1001
0000
0000
0000
0100
0000
1000
0000
2001
0000
0000
0000
3010
0000
0000
0000
1010
0000
0000
0001
0010
0000
0001
0000
,
0102
0000
0000
0000
0013
0000
0000
0000
1001
0000
0000
1000
0010
0000
0100
0000
0110
0000
0000
0000
0000
0000
0100
0000
0010
0000
0010
0000
0100
0000
0010
0000
,
1001
0110
1001
0000
1000
0000
0001
0000
1001
0000
0000
0000
0101
0000
0000
0000
,
1000
0100
1000
0001
1000
0000
0001
0000
0011
0000
0000
0000
1100
0000
0000
0000
,
0101
0000
0000
1000
0010
0000
1000
0000
1100
0000
0000
0000
0000
0000
0100
0000
,
1000
0001
0100
0001
0010
0010
1000
0001
,
1001
0000
1000
0100
0110
0000
0011
0000
,
1001
0000
0000
0001
0100
0000
0010
0000
1010
0000
0000
0000
0101
0000
0000
0000
,
1001
0000
0000
0001
0010
0000
0100
0000
1100
0000
0000
0000
0000
0000
1000
0000
,
0010
0100
0001
1000
0002
0203
2300
3020
,
0032
0000
0000
0003
1000
0000
0010
0000
0100
0000
0001
0000
2000
0000
3010
0000
2000
0000
3001
0000
2000
0000
3100
0000
,
2000
3000
0001
0100
0000
0100
0002
0013
0002
1003
0002
0103
,
2002
0000
3003
0110
0000
0000
0001
0001
0100
0010
0010
1000
,
0100
0010
0001
0101
0000
0000
0100
0000
0100
0020
0031
0020
,
1030
0000
0020
0000
0031
0000
1000
0001
1000
0001
1000
0001
2000
0000
3010
0000
2000
0000
3001
0000
2000
0000
3100
0000
,
2000
3000
1000
0002
0003
1000
0002
0103
0002
1003
0002
0013
,
0002
0003
1000
0001
0000
0001
0100
1000
0100
0001
0100
0010
,
1000
0000
1000
0000
0001
0000
1000
0001
1000
0001
1000
0001
2000
0000
0000
3200
0000
0000
0302
0000
0000
0023
0000
0000
,
2030
3000
0000
0000
;
