#TITLE:Back To Life;
#SUBTITLE:;
#ARTIST:Yunyun;
#TITLETRANSLIT:;
#SUBTITLETRANSLIT:;
#ARTISTTRANSLIT:;
#GENRE:Future Core;
#CREDIT:;
#BANNER:;
#BACKGROUND:;
#LYRICSPATH:;
#CDTITLE:;
#MUSIC:Back To Life.ogg;
#OFFSET:-0.050000;
#SAMPLESTART:65.793007;
#SAMPLELENGTH:21.695000;
#SELECTABLE:YES;
#BPMS:0.000000=177.000000
;
#STOPS:
;
#BGCHANGES:;
#KEYSOUNDS:;
#ATTACKS:;

//---------------dance-single - ----------------
#NOTES:
     dance-single:
     :
     Hard:
     16:
     0.824371,0.912101,0.307450,0.323216,0.642491,732.000000,693.000000,39.000000,41.000000,1.000000,0.000000,0.824371,0.912101,0.307450,0.323216,0.642491,732.000000,693.000000,39.000000,41.000000,1.000000,0.000000:
// measure 0
0000
0000
0000
0000
,  // measure 1
0000
0000
0000
0000
,  // measure 2
0000
0000
0000
0000
,  // measure 3
0000
0000
0000
0000
,  // measure 4
0000
0000
0000
0000
,  // measure 5
1000
0001
0100
0010
0000
0010
0100
0001
,  // measure 6
0000
0001
0010
0100
0000
0100
1000
0001
,  // measure 7
0000
1000
0100
0010
0000
0010
0100
1000
,  // measure 8
0000
0000
1000
0000
0010
0000
0100
0000
0001
1000
0000
0001
0010
0100
1000
0001
,  // measure 9
1000
0010
0100
1000
0001
0000
1001
0000
,  // measure 10
0011
0000
0000
0000
0110
0000
0000
0000
0101
0000
0000
0001
1000
0000
1000
0000
,  // measure 11
0001
0010
0100
0001
1000
0000
1001
0000
,  // measure 12
1010
0000
0000
0000
0110
0000
0000
0000
1100
0000
0000
1000
0001
0000
0001
0000
,  // measure 13
0100
0000
0100
0001
0010
0000
0100
0000
0100
0000
0010
0100
1000
0000
1000
0000
,  // measure 14
0100
0000
0100
1000
0010
0000
0100
0000
0100
0000
0010
0100
0001
0000
0001
0000
,  // measure 15
1000
0100
0010
0000
0100
0010
0001
0000
0001
0010
0100
0000
0010
0100
1000
0000
,  // measure 16
0001
0000
0001
0000
1000
0010
0100
0001
2000
0000
0000
0000
0000
0000
0000
0000
,  // measure 17
3002
0000
0000
0000
0000
0000
0000
0023
,  // measure 18
0000
0000
0000
0000
,  // measure 19
0032
0000
0000
0000
0000
0000
0000
2003
,  // measure 20
0000
0000
0000
0001
0000
0010
0000
0001
,  // measure 21
3001
0010
0100
1000
0010
0000
0010
1000
,  // measure 22
0100
0000
0010
0001
1000
0000
0001
0001
,  // measure 23
2000
0000
0000
3020
0000
0100
0000
1000
,  // measure 24
1030
0000
1000
0000
0001
0000
1000
0100
0010
0001
1000
0000
0001
0000
0000
0000
,  // measure 25
1000
0000
0001
0100
0010
0000
0001
0000
0000
0000
0001
0000
0010
0000
0100
0000
,  // measure 26
0001
0000
1000
0100
0010
0000
1000
0000
0000
0000
1000
0000
0010
0100
0010
0000
,  // measure 27
0001
0000
0000
0001
1000
0000
0010
0000
0002
0000
0013
0000
0100
0000
0010
0000
,  // measure 28
1000
0000
0000
1000
0001
0000
0010
0000
2000
0000
3010
0000
0100
1000
0001
0000
,  // measure 29
1000
0000
0001
0010
0100
0000
0001
0000
0000
0000
0001
0000
0100
0000
0010
0000
,  // measure 30
0001
0000
1000
0010
0100
0000
1000
0000
0000
0000
1000
0000
0100
0010
0100
0000
,  // measure 31
0001
0000
0000
0001
1000
0000
0100
0000
0002
0000
0103
0000
0010
0000
0100
0000
,  // measure 32
1000
0000
0000
1000
0001
0000
0100
0000
0010
0000
1000
0000
0002
0000
0000
0000
,  // measure 33
1003
0000
0100
0010
0000
0010
0001
1000
,  // measure 34
0000
1010
0000
1001
0000
1000
0001
0010
,  // measure 35
0100
0000
1000
0001
0000
0001
0100
0010
,  // measure 36
0000
0000
1010
0000
0000
0000
0010
0100
0001
0000
0010
0000
0100
0000
1000
0000
,  // measure 37
0001
1000
0001
1000
0001
1000
0010
0001
,  // measure 38
0010
0001
0010
0001
0010
0001
0010
0100
,  // measure 39
1000
0100
1000
0100
1000
0100
0001
1000
,  // measure 40
0001
0000
1000
0000
0001
0000
1000
0100
0010
0000
0001
0000
1000
0000
0000
0000
,  // measure 41
1001
1001
0011
0011
,  // measure 42
1001
0000
1001
0000
1010
1000
0001
1000
,  // measure 43
1100
1100
0110
0110
,  // measure 44
1100
0000
0000
0000
1100
0000
0100
0010
0001
0000
1000
0000
0001
0000
0100
0000
,  // measure 45
0010
0000
0010
0100
0001
0000
0001
0000
1000
0000
1000
0100
0010
0000
0010
0000
,  // measure 46
0100
0000
0100
0010
0001
0000
0001
0000
1000
0000
1000
0010
0100
0000
0100
0000
,  // measure 47
0010
0000
0010
1000
0100
0000
0100
0000
0010
0000
0010
0001
1000
0001
2000
0000
,  // measure 48
0000
0000
3020
0000
0000
0000
0130
0000
0010
0100
0010
0100
0001
0010
0100
1000
,  // measure 49
0001
0000
0100
0010
0000
0100
0001
0000
0010
0100
0010
0001
0010
0000
0100
0000
,  // measure 50
1000
0010
1010
1000
0001
0010
0011
0001
,  // measure 51
1000
0000
0010
0100
0000
0010
1000
0000
0100
0000
0010
0001
0000
0100
0010
0000
,  // measure 52
0100
0000
0001
0000
0101
0000
0001
0000
1000
0100
1000
0001
1000
0100
0010
0000
,  // measure 53
0200
0000
0000
0000
0301
0100
0010
0100
1000
0000
0001
0000
1000
0000
0020
0000
,  // measure 54
0100
0000
0000
0000
0031
0010
0100
0010
1000
0000
0100
0010
0000
0001
0100
0000
,  // measure 55
0010
0000
0100
0000
0001
0100
0001
0000
0001
0100
0001
1000
0001
0000
0020
0000
,  // measure 56
0000
0001
0001
0130
0000
0100
1000
0001
,  // measure 57
1000
0000
0100
0010
0000
0001
0100
0000
0010
0000
0100
0001
0000
0010
0100
0000
,  // measure 58
1000
0001
0100
1000
0000
1000
0100
0001
,  // measure 59
0010
0100
0110
0010
0001
1000
1001
0001
,  // measure 60
0100
0000
0010
0000
0110
0000
0100
0000
0001
1000
0001
0100
0001
1000
0100
0000
,  // measure 61
0020
0000
0000
0000
1030
0010
1000
0010
0100
0000
0010
0000
0001
0000
0200
0000
,  // measure 62
0010
0000
1000
2300
0000
3200
0010
0302
,  // measure 63
0100
0000
0000
0000
1000
0000
0023
0000
0000
0000
0130
0010
0100
1000
0100
0000
,  // measure 64
1000
0000
1000
0000
0001
0000
0100
0010
1000
0001
0010
0100
1000
0001
1000
0000
,  // measure 65
0001
0000
0100
0010
0000
2000
0100
0000
3001
0000
0100
0010
0000
2000
0100
0000
,  // measure 66
3001
0100
0010
1000
0001
0000
0001
0000
0010
0000
0100
0010
0000
0001
0100
0000
,  // measure 67
0010
0000
0100
0001
0000
0010
0100
0000
1000
0000
0100
0010
0000
0001
1000
0000
,  // measure 68
0010
0000
1000
0000
0001
0000
0010
0000
0100
1000
0001
0010
0100
0010
0001
1000
,  // measure 69
0001
0000
0100
0010
0000
2000
0100
0000
3001
0000
0100
0010
0000
2000
0100
0000
,  // measure 70
3010
0000
0100
1000
0000
0100
0010
0000
1000
0000
0100
0010
0000
0001
1000
0000
,  // measure 71
0010
0000
0100
0000
0110
0000
0001
0000
0000
0000
0001
0010
0100
0000
1000
0000
,  // measure 72
0010
0000
0100
0000
0110
0000
1000
0000
0000
0000
1000
0001
0010
0100
0010
0001
,  // measure 73
1000
0000
0001
0010
0001
0000
0001
1000
0001
0000
0001
0100
0001
1000
0010
0000
,  // measure 74
1000
0000
0001
0100
0001
0000
0001
1000
0001
0000
0001
0010
0001
1000
0100
0010
,  // measure 75
0001
0000
0100
0010
0000
2000
0100
0000
3001
0000
0100
0010
0000
2000
0100
0000
,  // measure 76
3001
0100
0010
1000
0001
0000
0010
0000
0100
0000
0010
0100
1000
0000
0000
0000
,  // measure 77
1100
0000
0100
0010
0000
0002
0100
0000
0013
0000
0100
1000
0000
0010
0100
0000
,  // measure 78
0101
0000
0100
0010
0000
2000
0100
0000
3010
0000
0100
0001
0000
0010
0100
0000
,  // measure 79
1100
0000
0100
0010
0000
0001
0100
0000
0110
0000
0100
0001
0000
0010
0100
0000
,  // measure 80
1100
0010
0110
0001
0011
1000
0002
0000
,  // measure 81
0203
0000
0000
0010
0000
0000
1300
0000
0100
1000
0100
0010
0200
0000
0000
1000
,  // measure 82
0000
0000
0010
0000
0310
1000
0000
0000
0001
1000
0001
0010
0100
1000
0001
1000
,  // measure 83
0200
0000
0000
0010
0000
0000
0301
0000
2000
0000
3020
0000
0230
0000
0000
0001
,  // measure 84
0000
0000
0010
0000
0310
0001
0000
0000
1000
0001
0100
0010
0100
0001
1000
0001
,  // measure 85
0020
0000
0000
0100
0000
0000
1030
0000
0001
0000
0001
0000
0200
0000
0000
0010
,  // measure 86
0000
0000
1000
0000
1300
0001
0000
0000
0100
0001
1000
0001
0100
0001
1000
0001
,  // measure 87
0200
0000
0000
0010
0000
0000
1300
0000
0100
0010
0100
0001
0200
0000
0000
0010
,  // measure 88
0000
0000
1300
0000
1000
0100
0000
0000
0010
0000
1000
0000
0100
0000
0000
M100
,  // measure 89
0001
0000
0000
0000
;

//---------------dance-single - ----------------
#NOTES:
     dance-single:
     :
     Medium:
     12:
     0.584492,0.631455,0.244383,0.378400,0.137958,519.000000,488.000000,31.000000,48.000000,1.000000,0.000000,0.584492,0.631455,0.244383,0.378400,0.137958,519.000000,488.000000,31.000000,48.000000,1.000000,0.000000:
0000
0000
0000
0000
,
0000
0000
0000
0000
,
0000
0000
0000
0000
,
0000
0000
0000
0000
,
0000
0000
0000
0000
,
1000
0000
0100
0010
0000
0001
0100
0001
,
0000
0010
0000
0100
0000
1000
0001
1000
,
0001
0000
0100
0010
0000
1000
0100
1000
,
0000
0010
0000
1000
0100
0010
0001
1000
,
0001
0110
0001
0110
,
0001
0000
0110
0000
0001
0000
1000
0001
,
1000
0110
1000
0110
,
1000
0000
0110
0000
1000
0000
0001
1000
,
0001
0100
0001
0100
0010
0100
0010
0100
,
0010
1000
0010
1000
0001
1000
0001
1000
,
0001
0010
1000
0010
0001
0010
1000
0010
,
0001
0100
0010
1000
0002
0000
0000
0000
,
2003
0000
0000
0000
0000
0000
0000
3020
,
0000
0000
0000
0000
,
2030
0000
0000
0000
0000
0000
0000
3002
,
0000
0000
0000
1000
0000
0010
0000
1000
,
1003
0001
1000
0100
0010
0000
0100
0010
,
0001
0000
0010
0200
0000
0000
1300
1000
,
0002
0000
0000
2003
0000
3020
0000
0130
,
0010
0010
1000
0100
0010
0001
1000
0000
,
0001
0100
0000
1000
0000
1000
0100
0001
,
1000
0100
0000
0001
0000
0001
0100
0010
,
0001
0100
0010
0100
0002
0000
0013
0000
,
10M0
0010
0100
0010
2000
0000
3001
0000
,
1000
0100
1000
0100
1000
0100
0010
0001
,
0100
0000
0001
0010
0000
0100
1000
0010
,
0100
0010
0001
0010
0100
0001
0001
0010
,
0100
0010
1000
0010
0100
1000
0002
0000
,
1003
0000
0100
0010
0000
0010
0001
0100
,
0000
0001
0000
0010
0000
0010
0100
1000
,
0001
0000
0100
0010
0000
0010
1000
0100
,
0000
1000
0000
0010
0010
0100
0001
1000
,
0001
0010
0001
0010
0001
0010
0100
1000
,
0000
1001
0000
1010
0000
0010
0100
0001
,
1000
0010
1000
0010
1000
0010
0100
0001
,
0000
1001
0000
1000
1000
0100
0010
0000
,
0110
0110
0011
0011
,
1001
1001
0101
0101
,
0110
0110
0101
0101
,
1001
1001
0011
0011
,
0010
0000
0000
0010
0100
0000
1000
0000
0001
0000
0000
0001
0100
0000
0010
0000
,
0100
0000
0000
0100
0010
0000
1000
0000
0001
0000
0000
0001
0010
0000
0100
0000
,
0010
0000
0000
0010
0001
0000
0100
0000
0010
0000
0100
0000
0100
0000
0002
0000
,
0000
0023
0000
0230
2300
0000
0000
0000
,
3001
0000
0000
0100
0000
0000
0010
0000
0100
0000
0100
0000
0001
0000
0020
0000
,
0100
0000
0001
0032
0000
1000
1003
0000
,
0001
0000
0000
0100
0000
0000
0010
0000
0100
0000
0000
0001
0000
0000
0020
0000
,
0100
0000
1030
0000
0010
0100
0010
0100
,
1000
0000
0001
1000
0010
1000
0001
0020
,
0100
0000
0000
0000
0031
0000
1000
0000
0010
0000
0000
0100
0000
0000
0001
0000
,
1000
0000
1000
0100
0010
0100
0010
0001
,
0000
0001
1000
0010
0000
0010
0100
0001
,
1000
0000
0000
0100
0000
0000
0010
0000
0001
0000
0000
0100
0000
0000
1000
0000
,
1000
0000
0100
0100
0000
0001
0001
0000
,
0020
0000
0000
0230
0000
0000
2300
0000
3020
0000
0000
0230
0000
0000
0302
0000
,
0000
0000
0000
1003
1000
0010
0100
0001
,
0020
0000
0130
0100
1000
0001
0100
0020
,
0100
0000
1000
2030
0000
3002
0000
0023
,
0001
0000
0100
0230
0000
1000
1300
0100
,
1000
0001
0100
0010
1000
0100
0001
0100
,
1000
0000
0000
1000
0000
0000
0100
0000
0010
0000
0000
0010
0000
0000
0001
0000
,
1000
0000
1000
0000
0010
0000
1000
0000
0001
0000
0000
0001
0000
0000
0010
0000
,
1000
0000
0000
1000
0000
0000
0010
0000
0001
0000
0000
0001
0000
0000
1000
0000
,
0010
0000
0000
1000
0100
0001
1000
0010
,
0001
0000
0000
0001
0000
0000
0100
0000
0010
0000
0000
0010
0000
0000
0100
0000
,
1000
0000
0000
1000
0000
0000
0100
0000
0010
0000
0000
0100
0000
0000
0001
0000
,
0000
0010
0100
1000
0000
1000
0010
0100
,
0000
0010
0100
0001
0000
0010
1000
0010
,
0001
0100
0000
0100
0000
1000
0100
0001
,
1000
0100
0000
0100
0000
0100
0010
0000
,
0001
0010
0100
1000
0010
0000
0110
0000
,
0001
0001
1000
0100
0010
0000
0011
0000
,
0002
0000
0010
0000
1003
0000
1000
0001
,
0200
0000
0010
0000
1300
0100
0010
0100
,
0000
0100
0000
0001
0000
0001
0010
0100
,
0000
0100
0000
1000
0000
0001
0002
0000
,
1003
0000
0000
0110
0000
0000
0001
0000
0020
0000
0000
0000
0130
0000
0000
0100
,
0000
0000
1000
0000
0001
1000
0000
0000
2000
0000
3200
0000
0320
0000
0032
0000
,
1003
0000
0000
0110
0000
0000
0001
0000
2000
0000
3020
0000
0130
0000
0000
0100
,
0000
0000
0001
0000
1000
0001
0000
0000
0020
0000
0230
0000
2300
0000
3020
0000
,
0130
0000
0000
1002
0000
0000
0013
0000
0100
0000
0100
0000
1000
0000
0000
1000
,
0000
0000
0010
0000
0100
0010
0000
0000
4000
0000
0000
0000
0000
0000
0000
0000
,
3010
0000
0000
2001
0000
0000
3100
0000
0010
0000
0010
0000
0001
0000
0000
0001
,
0000
0000
0100
0000
0010
0100
0000
0000
0010
0000
0010
0000
1000
0000
0000
1000
,
0001
0000
0000
0000
;

//---------------dance-single - ----------------
#NOTES:
     dance-single:
     :
     Easy:
     9:
     0.362633,0.561293,0.220733,0.378400,0.047300,322.000000,294.000000,28.000000,48.000000,0.000000,0.000000,0.362633,0.561293,0.220733,0.378400,0.047300,322.000000,294.000000,28.000000,48.000000,0.000000,0.000000:
0000
0000
0000
0000
,
0000
0000
0000
0000
,
0000
0000
0000
0000
,
0000
0000
0000
0000
,
0000
0000
0000
0000
,
1000
0100
0010
0010
,
0000
0001
0000
1000
0000
0001
1000
0000
,
0001
0100
0010
0010
,
0000
1000
0000
0001
1000
0000
0110
0000
,
2000
3100
0002
0013
,
2000
3200
0001
1300
,
0002
0103
2000
3010
,
0002
0203
1000
0301
,
1000
1100
0010
0110
,
0001
0011
1000
1001
,
0110
1001
0110
1001
,
0001
0100
0020
0000
,
0230
0000
0000
0000
0000
0000
0000
0302
,
0000
0000
0000
0000
,
0023
0000
0000
0000
0000
0000
0000
0230
,
0000
0000
0000
1000
0000
1000
0000
1000
,
2300
0000
0000
0000
0000
0000
0000
3002
,
0000
0000
0000
0000
,
0203
0000
0000
0320
0000
0230
0000
0302
,
0000
0000
0000
0023
0000
0230
0000
0000
,
1300
0100
0000
0100
0000
0000
0010
0001
,
0000
0100
0000
0100
0000
0000
0000
0000
,
0001
0000
0010
0000
2000
3000
0000
0000
,
0001
0000
0100
0000
2000
3000
0000
0000
,
0002
0100
1000
0010
,
2000
3003
0000
0010
,
1001
0010
1001
0010
,
1001
0110
1001
1020
,
0230
0000
0000
0000
0000
0000
0000
0302
,
0000
0000
0000
0000
,
2003
0000
0000
0000
0000
0000
0000
3002
,
0000
0000
0000
0000
,
1003
0000
0000
0100
0000
0000
0001
0000
,
0000
1000
0000
0000
0010
0000
0100
0000
,
1000
0000
0000
0010
0000
0000
0001
0000
,
0000
1000
0000
0000
0100
0000
0010
0000
,
1000
1000
1000
1000
,
0001
0001
0001
0001
,
0010
0010
0010
0010
,
0100
0100
0100
0100
,
1000
1100
0100
0110
,
0010
0011
0001
1001
,
0001
0000
0101
0000
0100
0000
0100
0020
,
0000
0000
2030
0000
,
3001
0000
0100
0000
0010
0100
0010
0000
,
1000
0100
0001
0100
,
1000
0010
0100
0001
,
0020
0000
0000
0000
0130
0010
0100
0000
,
1000
0020
0001
0100
,
1030
0200
0001
0010
,
1300
0000
0001
1000
0001
0000
1000
0020
,
0000
0000
0000
0130
0000
0100
0001
0000
,
0010
1000
0100
0001
,
0020
0000
0000
1000
0000
0000
0031
0000
,
0100
1000
0010
0001
,
0200
0000
0000
0000
0310
0100
0010
0000
,
1000
0000
0001
1000
0001
0000
0010
0200
,
0000
0000
0000
2300
0000
3002
0000
0203
,
0000
0000
0000
0320
0000
0130
0010
0000
,
1000
0000
1010
0000
1000
0001
1000
0000
,
0200
0001
1000
0001
,
0310
0100
0010
0000
0001
0000
0100
0000
,
1000
0100
0001
0010
,
0100
0000
0000
0000
1000
0001
1000
0000
,
0020
0001
1000
0001
,
0031
0010
0100
0001
,
0000
0000
0001
1000
0000
1000
0001
0000
,
0000
0000
0000
1000
0000
1000
0001
0000
,
0000
0100
0000
0100
0000
0000
0001
0010
,
0000
0100
0000
0100
0000
0000
0000
0000
,
1000
0010
0001
1000
,
0001
0010
1000
0100
,
0020
0100
1000
0100
,
0032
0010
1000
0103
,
0110
0001
0101
1000
,
1001
0110
1001
0021
,
0130
0000
0000
0010
0000
0000
0100
0000
0000
0000
0000
0000
1000
0000
0000
0001
,
0000
0000
1000
0000
0000
0001
0000
0000
0000
0000
0000
0000
0000
0000
0000
0000
,
0001
0000
0000
1000
0000
0000
0001
0000
0000
0000
0000
0000
0100
0000
0000
0010
,
0000
0000
0100
0000
0000
0010
0000
0000
0000
0000
0000
0000
0000
0000
0000
0000
,
0010
0000
0000
0100
0000
0000
0010
0000
0000
0000
0000
0000
1000
0000
0000
0001
,
0000
0000
1000
0000
0000
0001
0000
0000
0000
0000
0000
0000
0000
0000
0000
0000
,
0001
0000
0000
1000
0000
0000
0001
0000
0000
0000
0000
0000
0010
0000
0000
0100
,
0000
0000
0010
0000
0000
0100
0000
0000
0100
0000
0000
0000
1000
0000
0000
0000
,
1001
0000
0000
0000
;

//---------------dance-single - ----------------
#NOTES:
     dance-single:
     :
     Beginner:
     6:
     0.202714,0.315727,0.063067,0.126133,0.000000,180.000000,172.000000,8.000000,16.000000,0.000000,0.000000,0.202714,0.315727,0.063067,0.126133,0.000000,180.000000,172.000000,8.000000,16.000000,0.000000,0.000000:
0000
0000
0000
0000
,
0000
0000
0000
0000
,
0000
0000
0000
0000
,
0000
0000
0000
0000
,
0000
0000
0000
0000
,
1000
0000
1000
0000
,
1000
0000
1000
0000
,
0001
0000
0001
0000
,
0001
0000
0001
0001
,
0001
0000
0100
0000
,
0010
0000
1000
1000
,
1000
0000
0100
0000
,
0010
0000
0001
0001
,
0002
2003
3002
2003
,
3002
2003
3002
2003
,
3001
0001
0001
0001
,
0001
0000
2000
0000
,
3002
0000
0000
0000
,
0000
0000
0000
0000
,
0000
0000
0000
0000
,
0000
0000
0000
0000
,
1003
0000
1000
0000
,
0010
0000
0010
0000
,
0100
0000
0100
0000
,
0001
0000
1000
0000
,
1000
1000
1000
0000
,
0100
0100
0100
0000
,
0010
0010
0010
0000
,
0001
0001
0001
0000
,
2000
0000
3000
0000
,
0001
0000
0000
0000
,
1000
0000
0010
0000
,
0100
0000
0001
0000
,
1000
0000
0000
0000
,
0000
0000
0000
0000
,
0010
0000
0000
0000
,
0000
0000
0000
0000
,
0100
0000
0000
0000
,
0001
0000
0000
0000
,
0010
0000
0000
0000
,
0100
0000
0000
0000
,
1000
0000
1000
0000
,
1000
0000
1000
0000
,
0001
0000
0001
0000
,
0001
0000
0001
0000
,
0100
0100
0100
0000
,
0010
0010
0010
0000
,
1000
1000
1000
0000
,
0000
0000
0002
0003
,
0001
0001
0100
0000
,
0100
0100
0010
0000
,
0010
0010
1000
0000
,
1000
1000
0001
0000
,
1000
1000
0100
0000
,
0100
0100
0010
0000
,
0010
0010
0001
0000
,
0001
0001
1000
0000
,
0001
0001
1000
0001
,
2000
0000
0000
3000
0000
0000
0000
0000
,
0010
0010
0100
0010
,
0200
0000
0300
0100
,
0000
0001
0000
0001
,
0000
1000
0000
1000
,
0000
0100
0000
0100
,
0000
0010
0000
0010
,
0010
0000
0010
0000
,
0001
1000
0001
0000
,
0100
0000
0100
0000
,
0001
0000
0010
0000
,
0100
0000
0100
0000
,
1000
0000
0010
0000
,
0000
0010
0000
0010
,
0000
1000
0000
1000
,
0001
1000
1000
0000
,
1000
0001
0001
0000
,
0100
0100
0010
0000
,
1000
1000
0001
0000
,
2000
0000
3000
0000
,
0200
0300
0000
0000
,
0010
0000
0010
0000
,
0001
0001
0001
0000
,
1001
0000
0000
1001
,
0000
0000
0000
0000
,
0110
0000
0000
0110
,
0000
0000
0000
0000
,
1001
0000
0000
1001
,
0000
0000
0000
0000
,
0110
0000
0000
1001
,
0000
0000
0000
0000
,
0100
0000
0000
0000
;
